#TITLE:So Fabulous!!;
#SUBTITLE:;
#ARTIST:HHH;
#TITLETRANSLIT:;
#SUBTITLETRANSLIT:;
#ARTISTTRANSLIT:;
#GENRE:;
#CREDIT:;
#MENUCOLOR:;
#METERTYPE:DDR;
#BANNER:SoFabulous-logo.png;
#BACKGROUND:SoFabulous-bg.png;
#LYRICSPATH:;
#CDTITLE:;
#MUSIC:So Fabulous.mp3;
#OFFSET:-6.926;
#SAMPLESTART:100.000;
#SAMPLELENGTH:11.900;
#SELECTABLE:YES;
#LISTSORT:;
#BPMS:0.000=149.000,152.000=74.500,160.000=149.000;
#STOPS:;
#BGCHANGES:;
#ATTACKS:;

//---------------dance-single - ----------------
#NOTES:
     dance-single:
     :
     Hard:
     9:
     0.626,0.570,0.165,0.116,0.536: // measure 1
1000
0001
0100
0000
1000
0100
0001
0000
,  // measure 2
0010
0100
1000
0002
0000
0000
1003
0000
,  // measure 3
0010
1000
0100
0000
0001
0100
1000
0000
,  // measure 4
0010
0100
0001
0020
0000
0000
0130
0000
,  // measure 5
1000
0100
1000
0001
0100
0100
0100
0001
,  // measure 6
1000
0010
0001
0020
0000
0000
0130
0000
,  // measure 7
0001
0100
0001
1000
0100
0100
0100
1000
,  // measure 8
0001
0100
1000
0200
0000
0000
0310
0000
,  // measure 9
0220
0000
0000
0330
,  // measure 10
0100
0010
0000
0100
0000
0010
0100
0000
0001
0000
1000
0100
0000
1000
0000
0100
,  // measure 11
0000
1000
0001
2000
0000
0000
3000
0000
,  // measure 12
0100
0010
0000
0100
0000
0010
0100
0000
1000
0000
0001
0100
0000
0001
0000
0100
,  // measure 13
0000
0010
1000
0002
0000
0013
0100
0000
,  // measure 14
1000
0001
0000
0100
0000
0001
0100
0000
0001
0000
1000
0100
0000
1000
0000
0100
,  // measure 15
0000
0010
0100
0000
0010
0100
0010
0001
0000
0000
1000
0000
0001
0000
1000
0000
,  // measure 16
0001
1000
0000
0001
0000
1000
0010
0000
0100
0000
0010
1000
0000
0001
0000
0100
,  // measure 17
0000
0000
0000
0010
0000
0000
1000
0000
0000
0010
0000
0000
0100
0000
0010
0000
0100
0000
0010
0000
0000
0000
0000
0000
,  // measure 18
1000
0000
0000
0100
0000
0000
0010
0000
0000
0001
0000
0000
1000
0000
0001
0000
1000
0000
0001
0000
0000
0000
0000
0000
,  // measure 19
1000
0100
1000
1000
0001
0100
0001
0001
,  // measure 20
1000
0000
0000
0001
0000
0000
1000
0000
0000
0000
0000
0000
0001
0000
0000
1000
0000
0000
0001
0000
0000
0000
0000
0000
1000
0000
0000
0000
0100
0000
0000
0000
0010
0000
0000
0000
0001
0000
0000
0000
0000
0000
1000
0000
0000
0000
0000
0000
,  // measure 21
0100
1000
0000
0100
0000
1000
0100
0000
0010
0000
0001
0100
0000
0010
0000
1000
,  // measure 22
0000
0001
0100
0200
0000
0010
0310
0000
,  // measure 23
0010
1000
0010
0100
0001
0100
0010
1000
,  // measure 24
0100
0010
1000
0020
0000
0000
0130
0000
,  // measure 25
1000
0100
0010
0001
0010
0100
1000
0001
,  // measure 26
1000
0010
0001
0020
0000
0100
0130
0000
,  // measure 27
0001
1000
0100
0001
0100
1000
0010
0100
,  // measure 28
0001
1000
0001
1000
0010
0001
0010
1000
,  // measure 29
0010
0100
0001
0010
1000
0010
0001
1000
,  // measure 30
0001
0100
1000
0200
0000
0000
0310
0000
,  // measure 31
0001
0000
1000
0100
0000
1000
0100
0000
0010
0000
0001
1000
0000
0001
1000
0000
,  // measure 32
0001
0000
1000
0010
0000
1000
0010
0000
0100
0000
0001
0000
1001
0000
1000
0000
,  // measure 33
0001
0000
1000
0001
0000
1000
0001
0000
1000
0000
0100
0010
0000
0100
0010
0000
,  // measure 34
0001
0000
1000
0001
0000
1000
0001
0000
0100
0000
0010
0000
0110
0000
0000
0000
,  // measure 35
0010
0000
1000
0100
0000
1000
0100
0000
0010
0000
0001
1000
0000
1000
0001
0000
,  // measure 36
0100
0000
0010
1000
0000
0010
1000
0000
0010
0000
0100
0000
0110
0000
0100
0000
,  // measure 37
0001
0000
1000
0001
0000
1000
0001
0000
0100
0000
0010
0100
0000
0100
0010
0000
,  // measure 38
1000
0000
0001
0100
0000
0001
0100
0000
0001
0000
1000
0000
1001
0000
0000
0000
,  // measure 39
2002
0000
0000
0000
,  // measure 40
3003
0000
0000
0000
,  // measure 41
0010
0000
0000
1000
0000
0000
0100
0000
0001
0000
0000
0100
0000
0000
1000
0000
,  // measure 42
0010
0000
0000
0100
0000
0000
0010
0000
1000
0000
0001
0000
1001
0000
0001
0000
,  // measure 43
0010
0000
0000
0001
0000
0000
0100
0000
1000
0000
0000
0100
0000
0000
0001
0000
,  // measure 44
0010
0000
0000
0100
0000
0000
1000
0000
0001
0000
0100
0000
0110
0000
0000
0000
,  // measure 45
0100
0000
0000
0001
0000
0000
0010
0000
1000
0000
0000
0010
0000
0000
0001
0000
,  // measure 46
0100
0000
0000
0010
0000
0000
1000
0000
0001
0000
1000
0000
1001
0000
1000
0000
,  // measure 47
0100
0000
0000
1000
0000
0000
0010
0000
0001
0000
0000
0010
0000
0000
1000
0000
,  // measure 48
0100
0000
0000
0010
0000
0000
0001
0000
1000
0000
0100
0000
1100
0000
0000
0000
,  // measure 49
0100
0010
0110
0000
0010
0001
0011
0000
,  // measure 50
0001
0000
0100
0000
0010
1000
0001
0000
0000
1001
0000
0000
,  // measure 51
0001
0000
1000
0100
0000
1000
0010
0000
1000
0000
0001
0100
0000
0001
0010
0000
,  // measure 52
0001
0000
1000
0100
0000
1000
0010
0000
1000
0000
0001
0000
1001
0000
1000
0000
,  // measure 53
0001
0000
0100
0010
0000
0100
0001
0000
1000
0000
0100
0010
0000
0100
1000
0000
,  // measure 54
0001
0000
0100
0010
0000
0100
0001
0000
1000
0000
0001
0000
1001
0000
0000
0000
,  // measure 55
1000
0000
0010
0100
0000
0010
1000
0000
0001
0000
0010
0100
0000
0010
0001
0000
,  // measure 56
1000
0000
0010
0100
0000
0010
1000
0000
0001
0000
1000
0000
1001
0000
1000
0000
,  // measure 57
0001
0000
1000
0010
0000
1000
0100
0000
1000
0000
0001
0010
0000
0001
0100
0000
,  // measure 58
0001
0000
1000
0010
0000
1000
0100
0000
0010
0000
0001
0000
0011
0000
0000
0000
,  // measure 59
0001
0000
1000
0100
0000
0010
0001
0000
1000
0000
0001
0100
0000
0010
1000
0000
,  // measure 60
0001
0000
1000
0100
0000
0010
0001
0000
1000
0000
0001
0000
1001
0000
1000
0000
,  // measure 61
0001
0000
1000
0010
0000
0100
0001
0000
1000
0000
0001
0010
0000
0100
1000
0000
,  // measure 62
0001
0000
1000
0010
0000
0100
0001
0000
1000
0000
0100
0000
1100
0000
0000
0000
,  // measure 63
0001
0000
1000
0100
0000
0001
0100
0000
1000
0000
0001
0100
0000
1000
0100
0000
,  // measure 64
0001
0000
1000
0100
0000
0001
0100
0000
1000
0000
0010
0000
0110
0000
0100
0000
,  // measure 65
0001
0000
1000
0010
0000
0001
0010
0000
1000
0000
0001
0010
0000
1000
0010
0000
,  // measure 66
0001
0000
0000
0000
0000
0000
1000
0000
0000
0010
0000
0000
0000
0000
0000
0001
0000
0000
0010
0000
0000
0000
0000
0000
1000
0000
0000
0000
0100
0000
0000
0000
0010
0000
0000
0000
0001
0000
0000
0000
0000
0000
0000
0000
0000
0000
0000
0000
;

//---------------dance-single - ----------------
#NOTES:
     dance-single:
     :
     Medium:
     7:
     0.437,0.434,0.066,0.157,0.190:
1000
1000
0001
0001
,
1000
0100
1000
0200
0000
0000
0310
0000
,
0001
0001
1000
1000
,
0001
0100
0001
0200
0000
0000
0310
0000
,
1000
0100
1000
0001
,
0100
0010
0100
0020
0000
0000
1030
0000
,
0100
0010
0100
1000
,
0001
1000
0001
0020
0000
0000
0130
0000
,
2000
0000
0000
3000
,
0001
0000
0000
1000
0000
0000
0001
0000
0100
0000
0000
0010
0000
0000
0100
0000
,
0000
0010
1000
0200
0000
0000
0310
0000
,
1000
0000
0000
0001
0000
0000
0100
0000
0010
0000
0000
1000
0000
0000
0100
0000
,
0000
0010
0001
0020
0000
0000
0031
0000
,
0100
0000
0000
0001
0000
0000
1000
0000
0100
0000
0000
0010
0000
0000
0100
0000
,
2000
0002
0000
0000
0000
0000
3003
0000
,
1000
0000
0000
0001
0000
0000
0100
0000
0001
0000
0000
1000
0000
0000
0100
0000
,
0000
0010
0001
2000
0000
0000
3000
0000
,
1002
0000
0000
0103
,
1002
0000
0203
0000
,
0310
0000
0100
0000
0010
0100
0010
0000
,
0100
0000
0000
0010
0000
0000
1000
0000
0100
0000
0000
1000
0000
0000
0001
0000
,
0000
0010
0100
2000
0000
0000
3001
0000
,
1000
0001
0100
0001
1000
0001
0100
0001
,
0010
0100
0010
0200
0000
0000
0310
0000
,
0001
1000
0100
1000
0001
1000
0100
1000
,
0010
0100
0010
0200
0000
0000
0301
0000
,
0101
0101
1000
0001
,
1000
0100
0010
0100
1000
0001
1000
0100
,
0010
0001
0010
0100
0010
0001
0010
0100
,
1000
0010
0100
0002
0000
0000
0103
0000
,
0010
0000
0000
1000
0000
0000
0010
0000
0100
0000
0000
0001
0000
0000
0100
0000
,
0001
0000
0000
0010
0000
0000
0001
0000
1000
0000
0001
0000
0100
0000
0010
0000
,
1000
0000
0000
0100
0000
0000
1000
0000
0001
0000
0000
0010
0000
0000
0001
0000
,
0100
0000
0000
0010
0000
0000
1000
0000
0100
0000
0010
0000
0100
0000
0000
0000
,
0010
0000
0000
0010
0000
0000
0010
0000
0001
0000
0000
0001
0000
0000
0001
0000
,
0100
0000
0000
0100
0000
0000
0100
0000
0010
0000
1000
0000
0001
0000
1000
0000
,
0010
0000
0000
0010
0000
0000
0010
0000
0100
0000
0000
0100
0000
0000
0100
0000
,
0001
0000
0000
0001
0000
0000
0001
0000
1000
0000
0100
0000
0010
0000
0000
0000
,
0220
0000
0000
0000
,
0330
0000
0000
0000
,
0010
0000
0000
0001
1000
0000
0000
0100
,
0010
0000
0000
0001
1000
0100
0001
0100
,
1000
0000
0000
0010
0100
0000
0000
0001
,
1000
0000
0000
0100
0010
0001
1000
0000
,
0010
0000
0000
0100
0001
0000
0000
1000
,
0001
0000
0000
1000
0010
0001
0010
1000
,
0100
0000
0000
0010
0001
0000
0000
0100
,
0010
0000
0000
1000
0001
0100
0001
0000
,
1000
0100
0001
0000
0001
0100
1000
0000
,
1100
0000
0011
0000
1000
0001
1000
0000
,
1000
0000
0000
0100
0000
0000
0010
0000
0001
0000
0000
0100
0000
0000
0010
0000
,
1000
0000
0000
0100
0000
0000
0010
0000
0001
0000
0100
0000
0001
0000
1000
0000
,
0001
0000
0000
0100
0000
0000
0010
0000
1000
0000
0000
0100
0000
0000
0010
0000
,
0001
0000
0000
0100
0000
0000
0010
0000
1000
0000
0100
0000
1000
0000
0000
0000
,
0001
0000
0000
0100
0000
0000
0010
0000
0100
0000
0000
0001
0000
0000
1000
0000
,
0100
0000
0000
0010
0000
0000
0100
0000
1000
0000
0001
0000
1000
0000
0100
0000
,
0010
0000
0000
0001
0000
0000
0010
0000
0100
0000
0000
1000
0000
0000
0100
0000
,
0010
0000
0000
0001
0000
0000
0010
0000
0100
0000
1000
0000
0001
0000
0000
0000
,
1000
0000
0000
0100
0000
0000
1000
0000
0010
0000
0000
0100
0000
0000
0001
0000
,
0010
0000
0000
0001
0000
0000
1000
0000
0001
0000
0100
0000
1000
0000
0100
0000
,
0001
0000
0000
0100
0000
0000
0001
0000
0010
0000
0000
0100
0000
0000
1000
0000
,
0010
0000
0000
1000
0000
0000
0100
0000
1000
0000
0100
0000
0001
0000
0000
0000
,
0100
0000
0000
1000
0000
0000
0001
0000
0100
0000
0000
0010
0000
0000
1000
0000
,
0001
0000
0000
1000
0000
0000
0100
0000
1000
0000
0100
0000
0001
0000
0100
0000
,
1000
0000
0000
0010
0000
0000
0100
0000
0001
0000
0000
0010
0000
0000
0001
0000
,
1000
0000
0000
0010
0000
0000
1000
0000
0001
0000
1000
0000
1001
0000
0000
0000
;

//---------------dance-single - ----------------
#NOTES:
     dance-single:
     :
     Easy:
     3:
     0.113,0.416,0.083,0.017,0.000:
0000
0000
0000
0000
,
0000
0000
0000
0000
,
0000
0000
0000
0000
,
0000
0000
0000
0000
,
0000
0000
0000
0000
,
0000
0000
0000
0000
,
0000
0000
0000
0000
,
0000
0000
0000
0000
,
0000
0000
0000
0000
,
0000
0000
0000
0000
,
0000
0000
0000
0000
,
0000
0000
0000
0000
,
0000
0000
0000
0000
,
0000
0000
0000
0000
,
0000
0000
0000
0000
,
0000
0000
0000
0000
,
0000
0000
0000
0000
,
1000
0100
0010
1000
,
0001
1000
0001
1000
,
0010
1000
0100
0001
,
0100
1000
0100
0010
,
0000
0001
0010
1000
,
0100
0001
0000
0000
,
0000
0000
0000
0000
,
0000
0000
0000
0000
,
0000
0000
0000
0000
,
0000
0000
1000
0000
0100
0000
0010
0001
,
0100
0001
1001
0000
0000
0000
0000
0000
,
0000
1001
0000
0000
,
0000
1001
0000
0000
,
0000
0000
0000
0000
,
0000
0000
0000
0000
,
0000
0000
0000
1000
,
0100
0010
0100
1000
,
0001
1000
0001
1000
,
1001
1001
1000
0000
,
0100
0000
0000
0010
,
0000
0100
0000
0001
,
0000
1000
0000
0100
,
0000
0000
0000
0000
,
0000
0000
0000
0000
,
0000
0000
0000
0000
,
0000
0000
0000
0000
,
0000
0000
0000
0000
,
0000
0000
0000
0000
,
0000
0000
0000
0000
,
0000
0000
0000
0000
,
1000
0001
1000
0001
1000
0100
1000
0001
,
1000
1000
1000
0000
2000
0000
3200
0000
,
0300
0011
1001
1010
,
1001
0000
0100
0001
0100
0010
1000
0010
,
1000
1000
0001
1000
0001
1001
0000
0000
,
1000
0000
0000
0000
,
0000
0000
0000
0000
,
0000
0000
0000
0000
,
0001
0000
0000
0000
,
0000
0000
0000
0000
,
0000
0000
0000
0000
,
0100
0000
0000
0000
,
0000
0000
0000
0000
,
0010
0000
0000
0000
,
0100
0000
0000
0000
,
1000
0000
0000
0000
,
0100
0000
0000
0000
;
