#TITLE:Show me Love;
#SUBTITLE:;
#ARTIST:t.A.T.u.;
#CREDIT:;
#MUSIC:showme.mp3;
#SELECTABLE:YES;
#BACKGROUND:;
#BANNER:;
#CDTITLE:;
#OFFSET:-0.0269615;
#SAMPLESTART:0.000;
#SAMPLELENGTH:0.000;
#BPMS:0=100.011,25=100.008,26=100.011,38=100.008,39=100.011,83=100.008,84=100.011,94=100.008,95=100.011,106=100.008,107=100.011,117=100.008,118=100.011,128=100.008,129=100.011,139=100.008,140=100.011,150=100.008,151=100.011,158=100.008,159=100.011,167=100.008,168=100.011,178=100.008,179=100.011,189=100.008,190=100.011,200=100.008,201=100.011;
#STOPS:;

//---------------dance-single - ----------------
#NOTES:
     dance-single:
     :
     Easy:
     4:
     0.000,0.000,0.000,0.000,0.000:
1000
0000
0010
1000
,
0100
0000
1000
0000
0010
0100
0010
0000
,
0100
0010
1000
0001
,
0010
0000
0100
0000
1000
0100
1000
0000
,
0010
1000
0001
0010
,
0100
0000
1000
0000
0001
0100
0001
0000
,
0100
0010
1000
0001
,
0010
0000
0100
0010
0001
1000
2002
3003
,
0000
0001
0100
0001
,
1000
0000
0000
0000
0010
0000
0000
0000
1000
0000
0000
0000
0000
1010
0000
0000
,
1010
1000
0100
1000
,
0010
0000
0000
0000
1000
0000
0000
0000
0001
0000
0000
0000
0000
1001
0000
0000
,
1001
0001
1000
0010
,
0100
0000
0000
0000
0001
0000
0000
0000
0010
0000
0000
0000
0000
0011
0000
0000
,
0011
0010
0100
1000
,
0001
0000
0000
0000
0100
0000
0000
0000
0001
0000
0000
0000
0000
0101
0000
0000
,
0101
0000
0000
0001
0000
0000
0000
0000
0000
1000
0000
0000
0010
0000
0000
0000
,
0110
0000
0000
0010
0000
0000
0000
0000
0000
1000
0000
0000
0001
0000
0000
0000
,
1001
0000
0000
0100
0000
0000
0000
0000
0000
1000
0000
0000
0100
0000
0000
0000
,
1100
0000
0000
1000
0000
0000
0000
0000
0000
0001
0000
0000
0010
0000
0000
0000
,
0011
0000
0000
0001
0000
0000
0000
0000
0000
0010
0000
0000
0100
0000
0000
0000
,
0110
0000
0000
0010
0000
0000
0000
0000
0000
0100
0000
0000
1000
0000
0000
0000
,
1100
0000
0000
0100
0000
0000
0000
0000
0000
1000
0000
0000
0001
0000
0000
0000
,
1001
0000
0000
0001
0000
0000
0000
0000
0000
1000
0000
0000
1001
0000
0000
0000
,
1000
0000
0001
0000
1000
0100
1000
0000
,
0001
0000
0010
0000
0100
0010
0100
0000
,
1000
0001
0020
0130
,
1000
0000
0100
0000
1000
0001
1000
0000
,
0010
0100
0001
0010
,
0100
0000
1000
0000
0010
1000
0010
0000
,
0100
0000
0010
0000
1000
0100
1000
0000
,
0001
0000
0100
0001
1000
0001
2002
3003
,
0000
0010
1000
0010
,
0100
0000
0000
0000
0001
0000
0000
0000
0100
0000
0000
0000
0000
0101
0000
0000
,
0101
0100
0010
1000
,
0010
0000
0000
0000
0100
0000
0000
0000
0010
0000
0000
0000
0000
0110
0000
0000
,
0110
0010
0100
0001
,
0010
0000
0000
0000
0001
0000
0000
0000
1000
0000
0000
0000
0000
1001
0000
0000
,
1001
0001
1000
0010
,
0100
0000
0000
0000
0010
0000
0000
0000
1000
0000
0000
0000
0000
1010
0000
0000
,
2020
0000
0000
3030
,
2002
0000
3003
1001
,
0000
0000
0002
0000
0000
0000
0000
0000
0000
0000
0000
0000
0000
0000
0000
0000
0003
0000
0000
2000
0000
0000
0000
0000
0000
0000
0000
0000
0000
0000
0000
0000
,
3000
0000
0000
1000
0000
0000
0000
0000
0001
0000
0000
0000
0000
0000
0000
0000
,
0100
0000
0002
0000
0000
0000
0000
0000
0000
0003
2000
0000
0000
0000
0000
0000
,
0000
3000
0000
0000
0000
0000
0010
0000
0000
0000
0000
0000
0000
0000
0000
0000
1000
0000
0000
0000
0000
0000
0000
0000
0000
0000
0000
0000
0000
0000
0000
0000
,
0100
0000
2000
0000
0000
0000
0000
0000
3000
0000
0002
0000
0000
0000
0000
0003
,
0000
1000
0000
0000
0010
0000
0000
0000
,
0100
0002
0000
0000
0003
2000
0000
0000
,
3000
0000
0000
0000
0100
0000
1000
0000
0010
0000
1000
0000
0000
0001
0000
0000
,
2002
0000
3003
0000
,
0000
0000
0000
0000
;

//---------------dance-single - ----------------
#NOTES:
     dance-single:
     :
     Medium:
     6:
     0.000,0.000,0.000,0.000,0.000:
1000
0001
0000
1000
0010
0100
0001
0000
,
0100
0001
1000
0100
0010
0001
0100
0000
,
0001
0100
0010
1000
0100
0000
0010
0100
,
0010
0000
0100
1000
0100
0010
0001
0000
,
1000
0100
0010
0001
0100
0000
0010
1000
,
0100
0010
0001
0100
0001
0100
0010
0000
,
0100
0001
0010
0100
1000
0000
0001
0100
,
0010
1000
0100
0010
0001
0100
0202
0303
,
0000
1000
1000
0100
0100
1000
1000
0001
,
0001
0000
0010
0000
0010
0000
0001
0000
1000
0000
0010
0000
0000
1010
0000
0000
,
1010
0010
0010
0100
0100
0001
0001
1000
,
1000
0000
0010
0000
0010
0000
1000
0000
0001
0000
1000
0000
0000
1001
0000
0000
,
1001
0001
0001
1000
1000
0010
0010
0100
,
0100
0000
0001
0000
0001
0000
1000
0000
0001
0000
0010
0000
0000
0011
0000
0000
,
0011
0010
0010
0100
0100
1000
1000
0001
,
0001
0000
0100
0000
0100
0000
0010
0000
1000
0000
0100
0000
0000
1100
0000
0000
,
1100
0000
0000
1000
0000
0000
0100
0000
0000
1000
0000
0000
0010
0000
0100
0000
,
0110
0000
0000
0010
0000
0000
0100
0000
0000
0001
0000
0000
1000
0000
0010
0000
,
1010
0000
0000
0100
0000
0000
0001
0000
0000
1000
0000
0000
0100
0000
1000
0000
,
1100
0000
0000
1000
0000
0000
0001
0000
0000
0100
0000
0000
0001
0000
0010
0000
,
0011
0000
0000
0001
0000
0000
1000
0000
0000
0010
0000
0000
0100
0000
0001
0000
,
0101
0000
0000
0001
0000
0000
0010
0000
0000
0100
0000
0000
1000
0000
0100
0000
,
1100
0000
0000
0100
0000
0000
0010
0000
0000
0001
0000
0000
0010
0000
0100
0000
,
0110
0000
0000
0010
0000
0000
0001
0000
0000
0100
0000
0000
0101
0000
0101
0000
,
1000
0001
1000
0010
1000
0100
2200
3300
,
1000
0100
0010
0001
0100
0001
0202
0303
,
0001
0100
0010
0100
0020
0000
0130
0001
,
1000
0010
0100
0010
1000
0001
1001
0000
,
0010
1000
0100
0010
0001
0000
1001
0000
,
0010
0100
0001
1000
0001
0010
0011
0000
,
0010
0001
0100
0010
1000
0010
1010
0000
,
1000
0010
0100
0001
1000
0010
2020
3030
,
0000
0010
0010
1000
1000
0010
0010
0100
,
0100
0000
0001
0000
0001
0000
1000
0000
0100
0000
1000
0000
0000
1100
0000
0000
,
1100
0100
0100
0010
0010
0001
0001
0010
,
0010
0000
0100
0000
0100
0000
1000
0000
0010
0000
1000
0000
0000
1010
0000
0000
,
1010
0010
0010
0100
0100
0001
0001
1000
,
1000
0000
0001
0000
0001
0000
0100
0000
0001
0000
0100
0000
0000
0101
0000
0000
,
0101
0001
0001
1000
1000
0010
0010
0100
,
0100
0000
0001
0000
0001
0000
0100
0000
0001
0000
0010
0000
0000
0011
0000
0000
,
0011
0000
0010
0000
0001
0000
1000
0002
2000
0000
0000
0000
0000
3003
0000
0000
,
0001
0000
0010
0000
0100
0000
1000
0001
1000
0000
0100
0000
0010
0000
0001
0000
,
0000
0000
1000
0000
0000
0000
0000
0000
0010
0000
0000
0000
0000
0000
1000
0000
0000
0000
0000
0100
0000
0000
0000
0000
0000
0000
1000
0000
0000
0000
0000
0000
,
0001
0000
0000
1000
0000
0010
0000
0000
0100
0000
0001
0000
0000
0010
0000
0100
,
0000
1000
0000
0000
0001
0000
0000
0100
0000
0000
0010
0000
0000
1000
0000
0000
,
0001
0000
0000
0010
0000
0100
0000
0000
1000
0000
0100
0000
0000
1000
0000
0010
,
0000
0100
0000
0000
0001
0000
0000
0100
0000
0000
0010
0000
0000
1000
0000
0000
,
0100
0000
0000
0010
0000
0100
0000
0000
1000
0000
0001
0000
0000
0100
0000
0010
,
0000
0100
0000
0000
0001
0000
0000
0010
0000
0000
0001
0000
0000
0010
0000
0000
,
0100
0000
0000
0000
0000
0000
1000
0000
0000
0000
0200
0000
0000
0000
0000
0000
2000
0000
0300
0000
0020
0000
0000
0000
3000
0000
0002
0033
0000
0000
0000
0000
,
2002
0000
3003
0000
,
0000
0000
0000
0000
;

//---------------dance-single - ----------------
#NOTES:
     dance-single:
     :
     Hard:
     9:
     0.000,0.000,0.000,0.000,0.000:
1000
0000
0001
0000
0000
0000
1000
0000
0010
0000
0100
0000
0001
0000
0000
1000
,
0100
0000
1000
0000
0001
0000
0100
0000
0010
0000
1000
0000
0100
0000
0000
1000
,
0001
0000
0100
0000
0010
0000
1000
0000
0100
0000
0000
1000
0010
0000
0100
0000
,
0010
0000
0000
0000
0100
0000
0001
0000
0101
0000
0110
0000
1010
0000
0000
0010
,
1000
0100
0010
0001
0100
0000
0010
1000
,
0100
1000
0010
0000
1000
0000
0100
0000
0001
0000
0100
0000
1000
0000
0000
0001
,
0100
0000
0001
0000
0010
0000
0100
0000
1000
0000
0000
0100
1000
0000
0100
0000
,
0010
0100
1000
0000
0100
0000
0010
0100
1000
0000
0100
0000
2200
0000
0000
0000
,
3300
0000
1000
0100
1000
0000
0100
1000
0100
0000
1000
0001
1000
0000
0001
1000
,
0001
0000
0010
0100
0010
0000
0001
0000
1000
0000
0010
0000
0000
1010
0000
0000
,
1010
0000
0010
0100
0010
0000
0100
0001
0100
0000
0001
0100
0001
0000
1000
0010
,
1000
0000
0010
1000
0010
0000
1000
0000
0001
0000
1000
0000
0000
1001
0000
0000
,
0110
0000
0010
1000
0010
0000
1000
0100
1000
0000
0001
0100
0001
0000
0010
0001
,
0010
0000
0001
1000
0001
0000
1000
0000
0001
0000
0010
0000
0000
0011
0000
0000
,
0011
0000
0010
0001
0010
0000
0100
1000
0100
0000
1000
0010
1000
0000
0001
0100
,
0001
0000
0100
0010
0100
0000
0010
0000
1000
0000
0100
0000
0000
1100
0000
0000
,
1010
0000
0000
1000
0000
0000
0100
0000
0000
1000
0000
0000
1100
0000
0001
0000
,
0011
0000
0000
0010
0000
0000
0100
0000
0000
1000
0000
0000
1100
0000
0010
0000
,
1010
0000
0000
0100
0000
0000
0001
0000
0000
0100
0000
0000
0101
0000
1000
0000
,
1100
0000
0000
1000
0000
0000
0001
0000
0000
1000
0000
0000
1001
0000
0010
0000
,
0011
0000
0000
0001
0000
0000
1000
0000
0000
0010
0000
0000
1010
0000
0100
0000
,
0101
0000
0000
1000
0000
0000
0001
0000
0000
0010
0000
0000
0011
0000
0100
0000
,
1100
0000
0000
0100
0000
0000
0010
0000
0000
0001
0000
0000
0011
0000
0100
0000
,
0101
0000
0000
0001
0000
0000
1000
0000
0000
0010
0000
0000
1010
0000
1010
0000
,
1000
0001
1000
0010
1000
0100
2200
3300
,
1000
0100
0010
0001
0100
0001
0202
0303
,
0001
0000
0100
0000
0010
0000
0100
0000
0020
0000
0000
1000
0130
0000
1000
0000
,
0100
0000
1000
0000
0100
0000
0010
0000
0001
0000
1000
0000
1001
0000
0000
1000
,
0010
0000
0000
0000
0000
0000
1000
0000
0000
0000
0000
0000
0100
0000
0000
0000
0000
0000
0010
0000
0000
0001
0000
0000
2000
0000
0000
0000
0000
0000
0000
0000
3000
0000
0000
0000
1001
0000
0000
0000
0000
0000
0000
0000
0000
1000
0000
0000
,
0010
0000
0100
0000
0001
0000
1000
0000
0001
0000
0010
0000
0011
0000
0000
0100
,
0010
0000
0001
0000
0100
0000
0010
0000
1000
0000
0010
0000
1010
0000
0000
0010
,
1000
0000
0100
0000
0010
0000
0001
0100
0010
0000
1000
0000
2020
0000
0000
0000
,
3030
0000
0010
0100
0010
0000
1000
0100
1000
0000
0010
1000
0010
0000
0100
0001
,
0100
0000
0001
0010
0001
0000
1000
0000
0100
0000
1000
0000
0000
1100
0000
0000
,
1100
0000
0100
0010
0100
0000
0010
0001
0010
0000
0001
0100
0001
0000
0010
0001
,
0010
0000
0100
1000
0100
0000
1000
0000
0010
0000
1000
0000
0000
1010
0000
0000
,
1010
0000
0010
1000
0010
0000
0100
0001
0100
0000
0010
1000
0100
0000
1000
0001
,
0010
0000
0100
1000
0001
0000
0100
0000
0001
0000
0100
0000
0000
0101
0000
0000
,
0101
0000
0001
0100
0010
0000
1000
0100
0010
0000
0001
0100
0001
0000
1000
0100
,
1000
0000
0010
1000
0010
0000
0100
0000
0001
0000
0010
0000
0000
0011
0000
0000
,
0011
0001
0100
0010
1000
0100
0010
0002
2000
0000
0000
0000
0000
3003
0000
0000
,
0001
1000
0001
1000
0010
1000
0010
1000
0100
0000
1000
0000
0010
1000
0001
0000
,
0000
0000
1000
0000
0000
0000
0000
0000
0010
0000
0000
0000
0000
0000
1000
0000
0000
0000
0000
0100
0000
0000
0000
0000
0000
0000
1000
0000
0000
0000
0000
0000
,
0001
0000
0000
1000
0000
0010
0000
0000
0100
0000
0001
0000
0000
0010
0000
0100
,
0000
1000
0000
0000
0001
0000
0000
0100
0000
0000
0001
0000
0000
0010
0000
0000
,
0001
0000
0000
0010
0000
0100
0000
0000
1000
0000
0100
0000
0000
1000
0000
0010
,
0000
0100
0000
0000
0001
0000
0000
0100
0000
0000
0010
0000
0000
1000
0000
0000
,
0100
0000
0000
0010
0000
0001
0000
0000
1000
0000
0001
0000
0000
0100
0000
0010
,
0000
0100
0000
0000
0001
0000
0000
0010
0000
0000
0001
0000
0000
0010
0000
0000
,
0100
0000
0000
0000
0000
0000
1000
0000
0000
0000
0200
0000
0000
0000
0000
0000
2000
0000
0000
0000
0020
0000
0000
0000
0000
0000
0002
3333
0000
0000
0000
0000
,
2222
0000
0000
3333
0000
0000
0000
0000
,
0000
0000
0000
0000
;

//---------------dance-single - ----------------
#NOTES:
     dance-single:
     :
     Challenge:
     10:
     0.000,0.000,0.000,0.000,0.000:
1000
0000
0001
0000
0000
0000
1000
0000
0010
0000
0100
0000
0001
0000
0000
1000
,
0100
0000
1000
0000
0001
0000
0100
0000
0010
0000
1000
0000
0100
0000
0000
1000
,
0001
0000
0100
0000
0010
0000
1000
0000
0100
0000
0000
1000
0010
0000
0100
0000
,
0010
0000
0000
0000
0100
0000
0001
0000
0101
0000
0110
0000
1010
0000
0000
0010
,
1000
0100
0010
0001
0100
0000
0010
1000
,
0100
1000
0010
0000
1000
0000
0100
0000
0001
0000
0100
0000
1000
0000
0000
0001
,
0100
0000
0001
0000
0010
0000
0100
0000
1000
0000
0000
0100
1000
0000
0100
0000
,
0010
0100
1000
0000
0100
0000
0010
0100
1000
0000
0100
0000
2200
0000
0000
0000
,
3300
0000
1000
0100
0010
0000
0100
1000
0010
0000
1000
0001
0100
0000
0010
0100
,
0001
0000
0010
0100
1000
0000
0001
0000
1000
0000
0010
0000
0000
1010
0000
0000
,
1100
0000
0100
0010
0001
0000
0100
0010
1000
0000
0100
0010
0001
0000
1000
0010
,
0100
0000
0001
1000
0100
0000
0010
0000
0001
0000
1000
0000
0000
1001
0000
0000
,
0110
0000
0010
0100
0001
0000
1000
0100
0010
0000
0001
0100
0010
0000
1000
0100
,
0010
0000
0001
0010
0100
0000
1000
0000
0001
0000
0010
0000
0000
0011
0000
0000
,
1100
0000
0100
0010
0001
0000
0100
0010
1000
0000
0010
0100
0001
0000
1000
0100
,
0010
0000
0100
1000
0100
0000
0010
0000
0001
0000
0100
0000
0000
0101
0000
0000
,
1010
0000
0000
1010
0000
0000
1100
0000
0000
1100
0000
0000
1001
0000
0110
0000
,
1001
0000
0000
0011
0000
0000
0110
0000
0000
1100
0000
0000
1100
0000
0110
0000
,
0011
0000
0000
0101
0000
0000
1010
0000
0000
0101
0000
0000
0101
0000
1010
0000
,
1100
0000
0000
1100
0000
0000
0011
0000
0000
1100
0000
0000
1100
0000
0110
0000
,
0011
0000
0000
1001
0000
0000
1010
0000
0000
0011
0000
0000
0011
0000
1100
0000
,
0101
0000
0000
1010
0000
0000
0011
0000
0000
1010
0000
0000
0101
0000
1001
0000
,
1010
0000
0000
1100
0000
0000
0110
0000
0000
0011
0000
0000
0011
0000
1001
0000
,
0101
0000
0000
0101
0000
0000
1100
0000
0000
0011
0000
0000
1001
0000
1001
0000
,
1000
0001
1000
0010
1010
0101
2020
3030
,
1000
0100
0010
0011
0110
1100
0202
0303
,
0001
0000
0100
0000
1000
0000
0100
0000
0020
0000
0000
1000
0130
0000
1000
0000
,
0100
0000
0001
0000
0100
0000
0010
0000
0110
0000
1001
0000
1010
0000
0000
1000
,
0010
0000
0000
0000
0000
0000
1000
0000
0000
0000
0000
0000
0100
0000
0000
0000
0000
0000
0010
0000
0000
0001
0000
0000
2000
0000
0000
0000
0000
0000
0000
0000
3000
0000
0000
0000
1001
0000
0000
0000
0000
0000
0000
0000
0000
1000
0000
0000
,
0010
0000
0100
0000
0001
0000
0010
0000
0011
0000
0011
0000
1100
0000
0000
0100
,
0010
0000
0001
0000
0100
0000
0010
0000
0110
0000
1001
0000
0110
0000
0000
0010
,
1000
0000
0100
0000
0010
0000
0001
0100
0010
0000
1000
0000
2020
0000
0000
0000
,
3030
0000
0010
0100
0001
0000
0010
0100
1000
0000
0010
0100
0001
0000
1000
0100
,
0010
0000
0001
0100
0010
0000
1000
0000
0100
0000
1000
0000
0000
1100
0000
0000
,
1100
0000
0100
0010
0001
0000
0100
0010
1000
0000
0100
0010
0001
0000
0100
0010
,
1000
0000
0100
1000
0001
0000
0100
0000
0010
0000
1000
0000
0000
1010
0000
0000
,
1010
0000
0010
0100
0001
0000
0010
0100
1000
0000
0010
1000
0100
0000
1000
0001
,
0010
0000
0100
1000
0010
0000
0100
0000
0001
0000
0100
0000
0000
0101
0000
0000
,
0101
0000
0001
0100
0010
0000
1000
0100
0010
0000
0001
0100
0010
0000
1000
0100
,
1000
0000
0010
0100
0001
0000
0010
0000
0001
0000
0010
0000
0000
0011
0000
0000
,
0011
0001
0100
0010
1000
0100
0010
0002
2000
0000
0000
0000
0000
3003
0000
0000
,
0001
1000
0001
1000
0001
1000
0001
1000
0100
1000
0100
1000
0100
1000
0100
1000
0100
0000
0000
0000
1000
0000
0000
0000
0010
0000
1000
0000
0001
0000
0000
0000
,
0000
0000
2000
0000
0000
0000
0000
0000
0020
0000
3000
0000
0000
0000
2000
0000
0030
0000
0000
0200
0000
0000
3000
0000
0000
0000
2000
0000
0300
0000
0000
0000
,
0002
3000
0000
2000
0003
0020
3000
0000
0200
0030
0002
0300
0000
0020
0003
0200
,
0030
2000
0300
0000
0002
3000
0000
0200
0000
0003
0002
0000
0300
0000
0003
2000
,
0002
3000
0000
0023
0000
0200
0030
0000
2000
0300
0200
3000
0000
2000
0300
0020
,
3000
0200
0030
0000
0002
0300
0003
0200
0000
0000
0020
0300
0000
2000
0030
0000
,
0200
0000
3000
0000
0000
0000
0020
0000
0300
0000
0200
0000
0030
0000
0000
0000
2000
0000
0300
0000
0002
0000
3000
0000
0000
0000
0200
0000
0003
0000
0020
0300
,
0000
0000
0200
0030
0000
0000
0000
0000
0002
0000
0300
0000
0000
0000
0020
0000
0003
0000
0000
0000
0002
0000
0030
0000
0000
0000
0020
0000
0000
0000
0003
0000
,
0200
0000
0030
0000
0000
0000
2300
0000
0000
0000
3200
0000
0000
0000
0000
0000
2000
0000
0000
0000
0020
0000
0000
0000
0000
0000
0002
3333
0000
0000
MMMM
0000
,
2222
0000
3333
0000
,
0000
0000
0000
0000
;
