#TITLE:S&M;
#SUBTITLE:;
#ARTIST:RIHANNA;
#TITLETRANSLIT:;
#SUBTITLETRANSLIT:;
#ARTISTTRANSLIT:;
#GENRE:;
#CREDIT:;
#MENUCOLOR:;
#NEWMETERSYSTEM:NO;
#BANNER:S&M-bn.png;
#BACKGROUND:S&M-bg.png;
#LYRICSPATH:;
#CDTITLE:DJ OMiY-cdtitle.png;
#MUSIC:S&M.mp3;
#OFFSET:-1.580;
#SAMPLESTART:46.340;
#SAMPLELENGTH:15.000;
#SELECTABLE:YES;
#LISTSORT:;
#BPMS:0.000=128.000;
#STOPS:;
#BGCHANGES:;
#ATTACKS:;

//---------------dance-single - ----------------
#NOTES:
     dance-single:
     :
     Easy:
     3:
     0.210,0.283,0.008,0.042,0.000:
0000
0000
0000
0000
,
0000
0000
0000
0000
,
0000
0000
0000
0000
,
0000
0000
0000
0000
,
0001
0100
1000
0000
,
1000
0010
0001
1000
,
0100
0000
1000
0000
,
0010
0000
0001
0001
,
0000
1000
0100
0000
,
0001
0100
0010
1000
,
0000
0100
0010
0000
,
0001
1000
0100
0010
,
0000
1000
0010
0000
,
0001
0100
0010
1000
,
0002
0000
0203
0000
,
0320
1000
1000
2030
,
3001
0000
0001
0000
,
1000
1000
1000
0000
,
0100
0010
0100
0000
,
0010
0000
0001
0000
,
1000
0000
0010
0000
,
0100
0000
0001
0000
,
0100
0010
0100
0000
,
0010
0100
0010
0000
,
1000
0100
1000
0100
,
0010
0001
0100
0000
,
0001
0010
0001
0010
,
0100
1000
0001
0000
,
1000
0100
0001
0100
,
1000
0010
0001
0000
,
0100
0001
1000
0010
,
1000
0000
0001
0001
,
0100
0001
0000
1000
,
0000
0010
0100
0010
,
0000
1000
0000
0100
,
0000
0010
0001
1000
,
0000
0100
0000
0010
,
0000
0100
1000
0010
,
0000
0100
0000
0001
,
0000
1000
0001
0000
,
0100
0100
0100
0010
,
0000
0001
0001
0001
,
0100
0100
0100
0001
,
0000
1000
1000
1000
,
0010
0010
0100
0000
,
1000
0100
0010
0001
,
1000
0001
1000
0000
,
0001
0010
0100
1000
,
0001
1000
0001
0000
,
0001
0000
1000
0000
,
0001
0100
0010
2000
,
0000
0000
3001
1001
,
0010
1000
0000
0100
,
0000
0010
0100
1000
,
0000
0001
0000
0010
,
0000
0001
0100
0010
,
0000
0010
0000
1000
,
0000
0001
0010
0100
,
0000
1000
0000
0001
,
0000
1000
0100
0000
,
0001
0001
0001
0100
,
0000
1000
1000
1000
;

//---------------dance-single - Copied from----------------
#NOTES:
     dance-single:
     :
     Beginner:
     2:
     0.128,0.206,0.000,0.000,0.000: // measure 1
0000
0000
0000
0000
,  // measure 2
0000
0000
0000
0000
,  // measure 3
0000
0000
0000
0000
,  // measure 4
0000
0000
0000
0000
,  // measure 5
0010
0000
0100
0000
,  // measure 6
0010
0000
1000
0000
,  // measure 7
0001
0000
0010
0000
,  // measure 8
0001
0000
0000
0000
,  // measure 9
0100
0000
0000
0100
,  // measure 10
0100
0000
0000
0000
,  // measure 11
0010
0000
0000
0010
,  // measure 12
0010
0000
0000
0000
,  // measure 13
1000
0000
0000
0001
,  // measure 14
0001
0000
0000
0000
,  // measure 15
1000
0000
0100
0000
,  // measure 16
0010
0000
0001
0000
,  // measure 17
0100
0000
0000
0000
,  // measure 18
0001
0000
0001
0000
,  // measure 19
1000
0000
0000
0000
,  // measure 20
0100
0000
1000
0000
,  // measure 21
1000
0000
0010
0000
,  // measure 22
0100
0000
0001
0000
,  // measure 23
1000
0000
0000
0000
,  // measure 24
0000
0000
0000
0000
,  // measure 25
0010
0000
0100
0000
,  // measure 26
0010
0000
0100
0000
,  // measure 27
0001
0000
1000
0000
,  // measure 28
0001
0000
1000
0000
,  // measure 29
0001
0000
0100
0000
,  // measure 30
0001
0000
0100
0000
,  // measure 31
1000
0000
0100
0000
,  // measure 32
1000
0000
0100
0100
,  // measure 33
0000
0010
0000
1000
,  // measure 34
0000
0000
0000
0001
,  // measure 35
0000
1000
0000
0010
,  // measure 36
0000
0000
0000
1000
,  // measure 37
0000
0001
0000
0100
,  // measure 38
0000
0000
0000
0010
,  // measure 39
0000
0001
0000
0010
,  // measure 40
0000
0000
0000
0000
,  // measure 41
1000
1000
1000
1000
,  // measure 42
0000
0001
0001
0001
,  // measure 43
0001
0001
0001
0001
,  // measure 44
0000
1000
1000
1000
,  // measure 45
1000
0000
0010
0000
,  // measure 46
0100
0000
0010
0000
,  // measure 47
1000
0000
0001
0000
,  // measure 48
1000
0000
0001
0000
,  // measure 49
0100
0000
0100
0000
,  // measure 50
0100
0000
0100
0000
,  // measure 51
0001
0000
0001
0000
,  // measure 52
0001
0000
0000
0001
,  // measure 53
0000
1000
0000
0001
,  // measure 54
0000
0000
0000
0100
,  // measure 55
0000
0010
0000
0100
,  // measure 56
0000
0000
0000
0010
,  // measure 57
0000
1000
0000
0001
,  // measure 58
0000
0000
0000
0100
,  // measure 59
0000
0001
0000
1000
,  // measure 60
0000
0000
0000
0000
,  // measure 61
1000
1000
1000
1000
,  // measure 62
0000
0001
0001
0001
;

//---------------dance-single - Copied from----------------
#NOTES:
     dance-single:
     :
     Medium:
     6:
     0.459,0.412,0.392,0.476,0.000:
0000
0000
0000
0000
,
0000
0000
0000
0000
,
0000
0000
0000
0000
,
0000
0000
0000
0000
,
0010
0100
0001
1000
,
0010
0100
0000
0010
0000
0100
0001
0000
,
1000
1000
0010
0100
,
0001
0010
0000
0001
0000
0100
0001
0010
,
0100
0100
1000
0010
,
1000
0000
0001
0100
0000
0100
0001
0000
,
1000
0010
0100
0001
,
1000
0000
1000
0100
0000
0100
1000
0000
,
0010
0000
0100
0000
0001
0000
1000
0010
,
0100
0001
0000
0000
0010
0100
1000
0000
,
0020
0100
2030
0100
,
3002
0000
0203
0000
0320
0000
2030
0001
,
3001
0100
0000
0010
0000
1000
0000
0001
,
0100
0000
1000
0100
0000
0010
0100
0000
,
0010
0001
0000
1000
0000
1000
0000
0100
,
0010
0000
0001
0010
0000
1000
0100
0000
,
1000
0002
0000
0203
0000
2300
0000
3020
,
0000
0032
0000
2003
0000
3200
0000
1300
,
0000
1010
0000
0001
0000
0011
0000
0200
,
0000
0020
0000
0000
0000
0330
0000
0010
,
0100
0001
1000
0000
1100
0000
0010
0100
,
0010
0000
0001
0100
0000
1000
0100
0000
,
0010
0100
0001
0000
1001
0000
1000
0100
,
0010
0000
0010
0100
0000
0001
0100
0000
,
1000
0200
0000
2300
0000
3002
0000
0023
,
0000
2030
0000
3200
0000
0302
0000
1003
,
0000
1001
0000
0001
0000
0110
0000
0002
,
0000
2000
0003
0001
3001
1000
0100
0020
,
0001
0030
0100
2000
0100
3000
0001
2000
,
0001
3000
1100
0000
0110
0000
0001
0200
,
0010
0300
1000
0020
0100
0030
0100
0002
,
1000
0003
0101
0000
1001
0000
1000
0002
,
0100
0003
0010
2000
0010
3000
0010
0200
,
0001
0300
1001
0000
1001
0000
0001
0020
,
0100
0030
1000
0020
0100
0030
0010
0200
,
1000
0300
0110
0000
0101
0000
1000
0000
,
0011
0011
0011
1001
,
0000
1100
1100
1100
,
0110
0110
0110
1001
,
0000
0000
1001
0000
0110
0000
1001
0001
,
0100
0001
1000
0000
0101
0000
1000
0100
,
0010
0000
0001
0100
0000
1000
0010
0000
,
1000
0001
0100
0000
0110
0000
0010
0100
,
0001
0000
1000
0100
0000
0001
0010
0000
,
1000
0002
0000
0203
0000
2300
0000
3020
,
0000
0032
0000
0203
0000
0320
0000
1030
,
0000
0101
0000
0001
0000
1100
0000
0020
,
0000
0200
0030
0001
0301
0100
0010
2000
,
0001
3000
1000
0200
0010
0300
0001
0200
,
0010
0300
1010
0000
0101
0000
1000
0002
,
0010
0003
0100
0020
0100
0030
0010
2000
,
0001
3000
0011
0000
1100
0000
0100
0020
,
1000
0030
0001
0200
1000
0300
1000
0200
,
0001
0300
1001
0000
0110
0000
0001
0020
,
0001
0030
1000
0200
1000
0300
0001
2000
,
0001
3000
0110
0000
1001
0000
0010
0000
,
1001
1001
1001
0110
,
0000
1001
0110
1001
;

//---------------dance-single - Copied from----------------
#NOTES:
     dance-single:
     :
     Hard:
     7:
     0.533,0.515,0.325,0.426,0.000:
0000
0000
0000
0000
,
0000
0000
0000
0000
,
0000
0000
0000
0000
,
0000
0010
0100
0001
0100
0010
1000
0100
,
0010
0001
0100
0010
,
1000
0001
0000
0001
0100
0010
1000
0000
,
0101
0000
1000
0020
0000
0030
1000
0020
,
0000
0030
1000
0010
1000
0010
0100
0000
,
0010
0100
0001
0000
0100
0000
0010
0100
,
0001
0000
1000
0200
0000
0310
0001
0000
,
0100
0001
0010
0000
0001
0000
0100
0010
,
1000
0000
0001
0200
0000
0310
0100
0000
,
0001
0100
1000
0100
0010
0000
1000
0100
,
0000
1000
0010
0000
0001
0010
0100
0000
,
0101
1000
1100
0010
,
0200
0010
0310
0000
0101
0000
1100
1000
,
0010
0100
0001
0200
0000
0302
0000
1003
,
1000
0100
0010
0002
0000
1003
0010
0000
,
0001
0010
0001
2000
0000
3001
0010
0100
,
0010
1000
0010
0200
0000
0310
0100
0000
,
0001
0100
0001
2000
0000
3100
0001
0020
,
0000
0230
0000
0302
0000
0103
1000
0020
,
0000
2030
0000
3100
1000
0001
0010
0002
,
0100
2000
0000
0000
0000
3003
0000
0010
,
0100
0010
0100
0001
0100
1000
0100
0001
,
2000
0000
3001
0200
0010
0301
1000
0000
,
0100
0010
0100
0001
0100
1000
0010
0100
,
0020
0000
0130
0002
1000
0103
0010
0100
,
0001
0200
0000
0302
1000
0203
0000
0320
,
0100
2030
0100
3002
0000
0203
0010
0301
,
0000
0100
0000
1000
0000
0100
0000
0020
,
0000
2000
0030
3001
0010
0100
1000
0200
,
0010
0300
0101
0001
1000
0000
0110
1000
,
0100
1000
0010
1000
0010
1000
0001
0010
,
0100
0000
1010
0100
0001
0000
1001
0010
,
0100
0010
0001
0010
0001
0010
0100
1000
,
0010
0000
0110
0100
0001
0000
0011
0100
,
0010
1000
0001
1000
0001
1000
0010
0100
,
0010
0000
0101
1000
0100
0000
0011
0010
,
0100
0001
0100
1000
0001
0100
0000
0000
,
0101
0101
2010
3001
,
0000
0000
0110
0000
0101
0001
1010
0000
,
0110
1100
0210
0301
,
0000
0000
1100
0000
0110
0010
0011
1000
,
0100
1000
0010
0100
0001
1000
0100
0010
,
0002
0000
0103
0020
0100
1030
0001
0000
,
1000
0100
0001
0100
1000
0010
0100
0001
,
2000
0000
3010
0200
0010
0310
0100
0000
,
0001
0200
0010
0320
0000
1030
0100
0020
,
0001
0032
1000
0203
0000
0320
0000
1030
,
0010
0001
0100
1000
0010
0100
0001
2000
,
0000
0200
3000
1300
0100
0010
0001
0200
,
0010
0300
1100
0001
0010
0000
0101
1000
,
0100
0010
1000
0010
0001
0010
0001
2000
,
0010
3000
1100
1000
0001
0000
1001
0010
,
0100
0001
0100
1000
0100
0001
1000
0002
,
0010
0003
0110
1000
0001
0000
0110
0001
,
1000
0001
0100
1000
0100
0001
0100
0020
,
1000
0030
1001
1000
0001
0000
1100
0001
,
0010
1000
0100
0001
0100
1000
0010
0000
,
0101
1001
0102
1003
,
0000
1100
1010
1001
;
