#TITLE:RUSH;
#SUBTITLE:;
#ARTIST:darude;
#TITLETRANSLIT:;
#SUBTITLETRANSLIT:;
#ARTISTTRANSLIT:;
#CREDIT:;
#BANNER:;
#BACKGROUND:;
#LYRICSPATH:;
#CDTITLE:;
#MUSIC:Rush.mp3;
#OFFSET:-3.487;
#SAMPLESTART:45.180;
#SAMPLELENGTH:12.000;
#SELECTABLE:YES;
#BPMS:0.000=138.000;
#STOPS:22.000=0.440
,87.000=3.060
;
#BGCHANGES:;

//---------------dance-single - ----------------
#NOTES:
     dance-single:
     :
     Challenge:
     10:
     0.586,0.769,0.133,0.363,0.363:
0000
0000
0000
0000
,
0000
M000
0000
M000
0000
00M0
0000
00M0
,
0000
0M00
0000
0M00
0000
000M
0000
000M
,
0000
M000
0000
M000
0000
00M0
0000
00M0
,
0000
0M00
0000
0M00
0000
M000
0000
M000
,
0000
000M
0000
000M
0010
0000
0100
1000
,
0100
0010
0100
0010
0001
0010
0100
0010
,
0100
1000
0010
0100
0001
0100
0010
1000
,
0100
0000
1000
0000
0001
1000
0001
0000
1000
0000
0100
0000
0010
0100
0010
0000
,
0001
0000
0010
0000
0100
0010
0100
0000
1000
0000
0010
0000
0100
0001
0100
0000
,
0010
0000
1000
0000
0100
1000
0100
0000
0010
0000
0100
0000
0010
0001
0010
0000
,
0100
0000
1000
0000
0010
0100
0001
0000
0010
0000
0100
0000
1000
0100
1000
0000
,
0010
0000
0100
0000
0010
0100
0010
0000
1000
0000
0100
0000
0010
0001
0010
0000
,
0001
0000
1000
0000
0100
1000
0100
0000
0010
0000
0001
0000
1000
0010
1000
0010
,
1000
0000
0100
0000
0010
0000
0001
0000
0100
0000
0001
0000
1000
0001
1000
0001
,
1000
0000
0010
0000
0100
0000
0001
0000
0010
0000
0100
0000
1000
0010
1000
0010
,
1000
0000
0001
0000
1000
0000
0001
0000
0010
0000
0100
0000
1000
0100
1000
0100
,
0010
0000
0001
1000
0001
0000
0010
0000
1000
0000
0010
0000
0001
0100
0001
0100
,
0001
0000
0010
0100
1000
0010
1000
0010
1000
0000
0100
0010
0001
0100
0001
0100
,
0001
0000
1000
0100
0010
0001
0010
0100
1000
0000
0001
0100
0010
1000
0010
1000
,
0001
0100
0001
0100
0010
1000
0010
1000
0001
0100
0010
0000
1000
0000
1000
0000
,
0100
0100
2200
0000
3000
0000
1300
0000
,
0010
0000
0100
0001
0100
0000
0010
1000
0100
0000
0010
0001
0000
0000
0020
0000
,
0000
0000
0230
0000
0000
0000
2300
0000
0000
0000
3100
0010
0100
0010
0001
0010
,
0000
0100
0000
0000
0010
0000
0000
0100
0000
0000
2000
0000
0000
0000
3020
0000
,
0000
0230
0000
0320
0000
2030
0000
3002
,
0000
0000
1003
0000
0100
0000
0001
0000
0100
0000
1000
0010
0000
0000
0200
0000
,
0000
0000
0302
0000
0000
0000
0013
0000
0000
0000
0100
1000
0010
1000
0001
1000
,
0000
0100
0000
0000
0010
0000
0000
0100
0000
0000
0110
0000
0000
0000
0011
0000
,
0000
0101
0000
0110
0000
0001
0101
1001
,
0000
0000
0100
0000
0010
0000
0100
0000
0010
0000
0000
0001
0000
0000
0011
0000
,
0000
0000
0110
0000
0000
0000
1100
0000
0000
0000
0010
0001
0100
0001
1000
0001
,
0000
0100
0000
0000
0010
0000
0000
1000
0000
0000
0020
0000
0000
0000
0230
0000
,
0000
0302
0000
2003
0000
3002
0000
0023
,
0000
0000
0130
0000
1000
0000
0100
0000
1000
0000
0000
0001
0000
0000
1001
0000
,
0000
0000
1000
0100
1000
0000
0001
0000
0000
0000
0001
1000
0001
0010
0100
0010
,
0000
0100
0000
0000
1000
0000
0000
0100
0010
0001
0010
0001
1000
0001
1000
0001
,
0100
0001
1000
0010
0100
0010
0100
0001
0020
0000
0000
0000
0000
0000
0031
0000
,
0011
0020
0000
0001
0001
0000
0100
0230
,
0000
0000
0000
0000
0310
0001
0100
1000
,
0100
0002
0000
0010
0010
0000
0100
0103
,
0001
1000
0100
0010
0001
0010
1000
0010
,
0001
0101
0000
0010
1010
0000
1000
2001
,
0000
0000
0000
0000
3100
0010
0001
0100
,
1000
0200
0000
0001
0001
0000
0010
0320
,
0000
0000
0000
0000
0130
0001
1000
0100
,
0010
0200
0000
0010
0010
0000
1000
1300
,
0001
0000
1000
0100
1000
0000
0001
0100
0001
0000
0001
0000
0100
0000
0010
0000
,
0001
0010
0000
1000
0010
0000
0010
2000
,
0000
0001
0000
0100
3100
0010
0001
0100
,
0010
0200
0000
0301
0020
0000
0130
2000
,
0000
0001
0000
0001
3001
0100
0001
0100
,
0010
0000
2000
0000
0000
0000
3100
0000
0020
0000
0000
0000
0130
1000
0100
1000
,
0100
0010
0100
0010
0001
0010
0001
0010
0001
0000
0001
0000
1000
0000
1000
0000
,
0200
2000
0000
0010
0010
0000
0001
3301
,
0000
0000
0000
0000
0010
0001
0100
1000
,
0200
0002
0000
0010
0010
0000
1000
1303
,
0000
0000
0000
0000
0100
0010
0100
1000
,
0002
2000
0000
0100
0200
0000
0010
0020
,
0000
0000
0000
0000
,
3333
0000
0000
0000
;

//---------------dance-single - Copied from----------------
#NOTES:
     dance-single:
     Copied from:
     Hard:
     8:
     0.495,0.529,0.088,0.371,0.159: // measure 1
0000
0000
0000
0000
,  // measure 2
0000
MMMM
M00M
M00M
MMMM
M0M0
M00M
0000
,  // measure 3
M00M
M00M
M00M
MMMM
0000
MMMM
M000
MMMM
,  // measure 4
000M
MMMM
0000
M00M
M00M
MMMM
M00M
M00M
,  // measure 5
0000
0000
0000
MMMM
0000
0000
0000
MMMM
,  // measure 6
0000
0000
0000
0000
0010
0000
1000
0100
,  // measure 7
1000
0100
0010
0100
0010
0000
0001
0100
,  // measure 8
0001
0100
0010
1000
0010
0000
1000
0100
,  // measure 9
0010
0001
0100
0010
1000
0000
1000
0010
,  // measure 10
0100
0001
0010
0100
1000
0001
1000
0100
,  // measure 11
0010
0100
1000
0010
0100
0000
0001
0100
,  // measure 12
0001
0100
0001
0010
0001
0000
0001
0010
,  // measure 13
0011
0000
0001
1000
1001
0000
1000
0100
,  // measure 14
0010
0001
0010
0001
0100
0001
0101
0000
,  // measure 15
0001
0010
0010
0000
0000
0000
0100
1000
,  // measure 16
0100
0010
0010
0000
0000
0000
0001
1000
,  // measure 17
0001
0100
0100
0000
0000
0000
0010
1000
,  // measure 18
0001
0000
0100
0000
0100
0000
0000
0000
1001
0000
0000
0000
1000
0100
1000
0100
,  // measure 19
1000
0000
0000
0000
0001
0010
0001
0010
0001
0000
0000
0000
1000
0100
1000
0100
,  // measure 20
1000
0000
0000
0000
0010
0100
0010
0100
0010
0000
0000
0000
1000
0000
0100
0000
,  // measure 21
0001
0100
1000
0010
0100
0010
1000
1000
,  // measure 22
0001
0001
2002
0000
3000
0000
1003
0000
,  // measure 23
1001
0000
1000
0000
1000
0000
0001
0000
0001
0000
0000
0001
0000
0000
0020
0000
,  // measure 24
0000
0000
0230
0000
0000
0000
2300
0000
0000
0000
3001
0010
0001
0010
0001
0010
,  // measure 25
0000
0100
0000
0000
0010
0000
0000
0100
0000
0000
2000
0000
0000
0000
3200
0000
,  // measure 26
0000
0320
0000
0230
0000
2300
0000
3002
,  // measure 27
0000
0000
1003
0000
0100
0000
0001
0000
0100
0000
1000
0010
0000
0000
0200
0000
,  // measure 28
0000
0000
0302
0000
0000
0000
0013
0000
0000
0000
0001
1000
0001
1000
0001
1000
,  // measure 29
0000
0100
0000
0000
0010
0000
0000
0001
0000
0000
0002
0000
0000
0000
0010
0000
,  // measure 30
0000
1000
0000
0013
0000
0001
0010
1001
,  // measure 31
0000
0000
0100
0000
0010
0000
0100
0000
0010
0000
0001
0100
0000
0000
0020
0000
,  // measure 32
0000
0000
2030
0000
0000
0000
3020
0000
0000
0000
1030
0001
1000
0001
1000
0001
,  // measure 33
0000
0100
0000
0000
0010
0000
0000
1000
0000
0000
0020
0000
0000
0000
0230
0000
,  // measure 34
0000
0302
0000
2003
0000
3002
0000
0023
,  // measure 35
0000
0000
0130
0000
1000
0000
0100
0000
1000
0000
0000
0001
0000
0000
1001
0000
,  // measure 36
0000
0000
1000
0000
0000
0000
0001
0000
0000
0000
0001
1000
0001
1000
0001
0010
,  // measure 37
0000
0100
0000
0000
1000
0000
0000
0100
0000
0000
0020
0000
0000
0000
0032
0000
,  // measure 38
0000
0023
0000
0031
2000
0000
0000
3001
,  // measure 39
0011
0002
0000
0100
0100
0000
0010
0023
,  // measure 40
0000
0030
0000
0000
0001
0100
1000
0100
,  // measure 41
0010
2000
0000
0001
0001
0000
0100
3200
,  // measure 42
0000
0300
0000
0000
0001
1000
0001
0100
,  // measure 43
0010
0200
0000
0001
0001
0000
0010
0310
,  // measure 44
1000
0100
0010
0010
0001
1000
0010
0100
,  // measure 45
0001
0010
1000
0010
0001
0100
1000
0100
,  // measure 46
0020
0000
0000
0000
1030
0001
1000
0100
,  // measure 47
0010
0001
0010
0001
0010
0100
1000
1000
,  // measure 48
0001
0000
1000
0000
0100
0000
0010
0000
0001
0000
1000
0010
1000
0010
1000
0010
,  // measure 49
0100
0000
0000
0010
0000
0000
0100
0000
0000
0000
1000
0000
0010
0000
1000
0000
,  // measure 50
0010
0100
0001
0100
0010
0001
0010
0100
,  // measure 51
0001
0200
0000
0301
0020
0000
0130
2000
,  // measure 52
0000
0001
0000
0001
3001
0100
0001
0100
,  // measure 53
0010
2000
0000
3100
0020
0000
0130
0100
,  // measure 54
0001
0001
1000
1000
0001
0001
1000
1000
,  // measure 55
1001
2000
0000
0010
0010
0000
0001
3001
,  // measure 56
0000
0000
0000
0000
0010
0001
0100
0001
,  // measure 57
1000
0002
0000
0010
0010
0000
1000
1003
,  // measure 58
0000
0000
0000
0000
0100
0010
0100
1000
,  // measure 59
0001
1000
0000
0010
0020
0000
0100
0200
,  // measure 60
0000
0000
0000
0000
0000
0000
0000
0330
;

//---------------dance-single - Copied from Copied f----------------
#NOTES:
     dance-single:
     Copied from Copied f:
     Medium:
     8:
     0.433,0.450,0.248,0.584,0.062:
0000
0000
0000
0000
,
0000
M000
0000
00M0
0000
000M
0000
00M0
,
0000
M000
0000
0M00
0000
000M
0000
0M00
,
0000
M000
0000
00M0
0000
000M
0000
00M0
,
0000
M000
0000
0M00
0000
000M
0000
0M00
,
0000
000M
0000
0000
0000
0000
2200
0000
,
0010
0001
3310
0202
,
0010
1000
0313
0202
,
0010
1000
0313
2200
,
0001
0010
3301
0022
,
0100
1000
0133
2001
,
0000
0010
3010
0102
,
0000
0100
0103
2001
,
0000
0000
0100
0000
0100
0000
3200
0010
,
0310
0000
0110
0000
0000
0000
2000
0010
,
3010
0000
0110
0000
0000
0000
0102
0100
,
0003
0000
0101
0000
0000
0000
2000
0010
,
3010
0000
1001
0000
0000
0000
1000
0100
,
1000
0000
0001
0100
0001
0000
0010
1000
,
0010
0000
0001
0100
0001
0000
0010
0100
,
0010
0100
1000
0001
1000
0001
0100
0010
,
0100
0010
1001
0000
0000
0000
1110
0000
,
0001
0000
1000
0000
1000
0000
0001
0000
0001
0000
0000
0001
0000
0000
2000
0000
,
0000
0200
0000
0020
0000
0001
0001
3331
,
0000
0000
0000
0000
0000
2000
0000
0002
,
0000
0010
0000
0010
0000
0010
0000
3013
,
0000
0000
0000
0000
1000
0000
0100
0000
0010
0000
0000
0010
0000
0000
2002
0000
,
0000
0000
0020
0000
0000
0000
3033
0000
0000
0000
0000
0000
0000
0000
0000
1001
,
0000
2000
0000
0000
3020
0000
0000
0230
0000
0000
0302
0000
0000
0000
2000
0000
,
0000
0010
0000
0010
0000
0010
3003
0000
,
1111
0000
0000
0000
0000
0000
0000
0000
0001
0000
0000
0100
0000
0000
2000
0000
,
0000
0000
0200
0000
0000
0000
0010
0000
3300
0000
0000
0000
0000
0000
0000
0101
,
0000
0020
0000
0000
2030
0000
0000
3002
0000
0000
2003
0000
0000
0000
0200
0000
,
0000
0010
0000
0310
0000
0002
0000
0010
,
3003
0000
0000
0000
0000
0000
0000
0000
1000
0000
0000
0001
0000
0000
2002
0000
,
0000
0000
0010
0000
0000
0000
3013
0000
0000
0000
0000
0000
0000
0000
0000
0010
,
0000
0200
0000
0000
2300
0000
0000
3200
0000
0000
0320
0000
0000
0000
0032
0000
,
0000
0200
0000
0010
0313
0000
0000
0000
,
0111
0000
0000
0001
0002
0000
0010
0020
,
0000
0033
0000
0000
1000
0100
1000
0100
,
1000
2000
0000
0001
0002
0000
0010
0010
,
0000
3003
0000
0000
0001
1000
0001
0010
,
0001
0002
0000
0100
0200
0000
0010
0010
,
0303
0000
0000
0000
1000
0100
1000
0100
,
1000
2000
0000
0010
0020
0000
0100
0200
,
0000
3330
0000
0000
1000
0001
1000
0100
,
0010
0011
0000
0001
1001
0000
0010
1001
,
0000
1000
1000
0001
0001
0001
0010
0010
,
0001
0000
0000
0010
0000
0000
0100
0000
0000
0000
1000
0000
0010
0000
1000
0000
,
0010
0100
0001
0200
0000
0320
0000
1030
,
0001
0002
0000
0010
0020
0000
0100
0133
,
0000
0000
0000
0000
0001
0100
0001
0100
,
0010
2000
0000
0001
3002
0000
0100
0103
,
0001
0001
1000
1000
0001
0000
1000
0000
,
1101
0000
0000
1000
2000
0000
0001
3001
,
0000
0000
0000
0000
0010
0001
0100
0001
,
1000
0002
0000
0100
0200
0000
1000
1303
,
0000
0000
0000
0000
0100
0010
0100
1000
,
0001
0011
0000
0010
0110
0000
0100
2002
,
0000
0000
0000
0000
0000
0000
0000
3003
;

//---------------dance-single - ----------------
#NOTES:
     dance-single:
     :
     Easy:
     5:
     0.269,0.312,0.159,0.071,0.000:
0000
0000
0000
0000
,
0000
0000
0000
0000
,
0000
0000
0000
0000
,
0000
0000
0000
0000
,
0000
0000
0000
0000
,
0000
0000
0000
1001
,
0100
0010
0100
1000
,
0100
1000
0100
0010
,
0001
0010
0001
0100
,
0001
0100
0001
0010
,
0100
1000
0010
0100
,
0001
0010
0100
1000
,
0010
0100
0001
0010
,
0100
1000
0010
2000
,
0000
3001
0000
0200
,
0000
0310
0000
0002
,
0000
0103
0000
0020
,
0000
1030
0000
1001
,
0000
0101
0000
1010
,
0000
1001
0000
0100
,
0100
0010
0010
2002
,
0000
0000
0000
3003
,
1000
0001
0100
0010
,
1000
0100
0010
0001
,
0100
0010
1000
0001
,
0100
0010
1000
0001
,
1001
0100
0010
0100
,
1000
0010
1000
0100
,
0010
0001
0100
0010
,
1000
0100
0010
0001
,
1001
0100
0010
0100
,
1000
0010
0100
0001
,
0010
0100
1000
0010
,
1000
0001
1000
0100
,
0010
0001
1000
0010
,
0100
0001
0010
0100
,
1000
0010
0100
0001
,
0010
0100
1000
0100
,
1000
0100
0000
1000
0100
0000
1000
0100
,
0000
0000
0010
0001
,
0100
0010
0000
0100
0010
0000
0100
0010
,
0000
0000
1000
0100
,
0001
0100
0000
1000
0100
0000
0001
0100
,
0000
0000
0001
0010
,
0100
1000
0000
0100
0010
0000
0001
0100
,
0000
0000
0010
1000
,
0001
0100
0000
0100
0010
0000
0001
1000
,
0000
0000
0100
0010
,
0001
0100
0000
0010
1000
0000
0100
0010
,
0000
0000
0001
1000
,
0100
0001
0000
0010
0001
0000
0001
0100
,
0000
0000
0100
0100
,
0010
0001
0000
1000
0010
0000
0001
1000
,
0000
0000
2002
3003
,
1001
0000
0000
0110
0000
0000
0101
0000
,
0000
0000
0010
1000
,
1001
0000
0000
0110
0000
0000
1001
0000
,
0000
0000
0000
0000
,
1001
0000
0000
0110
0000
0000
1001
0000
;

//---------------dance-single - ----------------
#NOTES:
     dance-single:
     :
     Beginner:
     2:
     0.140,0.182,0.071,0.000,0.000:
0000
0000
0000
0000
,
0000
0000
0000
0000
,
0000
0000
0000
0000
,
0000
0000
0000
0000
,
0000
0000
0000
0000
,
0000
0000
0000
1000
,
0000
0001
0000
0100
,
0100
0100
0000
0010
,
0000
1000
0000
0001
,
0001
0001
0000
0100
,
0000
0010
0000
1000
,
1000
1000
0000
0001
,
0000
1000
0000
0001
,
0001
0001
0000
1000
,
0000
0000
0000
0001
,
0000
0000
0000
0100
,
0000
0000
0000
0010
,
0000
0000
0000
1000
,
0000
0100
0000
0001
,
0000
0100
0000
1000
,
1000
1000
1000
1000
,
0000
0001
0000
1001
,
0000
1000
0000
0100
,
0000
0010
0000
0001
,
0000
0100
0000
0010
,
0000
1000
0000
0001
,
0000
1000
0000
0001
,
0000
0100
0000
0010
,
0000
1000
0000
0100
,
0000
0010
0000
0001
,
0000
1000
0000
0001
,
0000
1000
0000
0001
,
0000
1000
0000
0100
,
0000
0010
0000
0100
,
0000
0001
0000
1000
,
0000
0001
0000
0100
,
0000
1000
0000
0100
,
0000
0001
0000
0000
,
1001
0000
0100
0000
,
0010
0000
1000
0000
,
1001
0000
0000
0110
,
0000
0000
0000
0000
,
1001
0000
0000
0110
,
0000
0000
0000
0000
,
1001
0000
0000
0110
,
0000
0000
1000
1000
,
1000
0000
0000
0100
,
0000
0000
0001
0001
,
0001
0000
0000
0100
,
0000
0000
1000
1000
,
1000
0000
0000
0001
,
0000
0000
0100
0100
,
0100
0000
0000
0010
,
0000
0000
1000
0000
,
0001
0000
0000
1000
,
0000
0000
0100
0100
,
0100
0000
0000
0010
,
0000
0000
1000
1000
,
1000
0000
0000
1000
;
