#TITLE:Ring;
#SUBTITLE:;
#ARTIST:Kozo Nakamura;
#TITLETRANSLIT:;
#SUBTITLETRANSLIT:;
#ARTISTTRANSLIT:;
#CREDIT:;
#BANNER:bn.PNG;
#BACKGROUND:bg.PNG;
#LYRICSPATH:;
#CDTITLE:;
#MUSIC:Ring.mp3;
#OFFSET:-0.220;
#SAMPLESTART:58.200;
#SAMPLELENGTH:18.020;
#SELECTABLE:YES;
#BPMS:0.000=240.001;
#STOPS:;
#BGCHANGES:0.000=bg.avi=1.000=0=0=1,
99999=-nosongbg-=1.000=0=0=0 // don't automatically add -songbackground-
;

//---------------dance-single - ----------------
#NOTES:
     dance-single:
     :
     Hard:
     9:
     0.698,0.810,0.172,0.099,0.036:
0000
0000
0000
0000
,
0000
0000
0000
0000
,
0000
0000
0000
0000
,
0000
0000
0000
0000
,
1000
0000
0010
1000
0000
1000
0100
0000
,
0010
0000
0001
0000
0100
0001
0100
0000
,
0010
0000
1000
0001
0000
0001
0010
0000
,
0001
0000
0100
0000
0010
1000
0010
0000
,
0100
0000
0001
1000
0000
0100
1000
0000
,
0010
0000
1000
0000
0001
0010
0001
0000
,
0100
0010
1000
0100
,
0010
0001
1000
0010
,
0220
0000
0000
0330
,
0100
0001
0010
0000
0100
2000
0000
3000
,
0001
0000
0100
0000
0010
1000
0010
0000
,
1000
0000
0100
0000
0010
0001
0010
0000
,
0001
0000
0100
0000
0010
1000
0010
0000
,
0100
0000
0001
0000
1000
0010
1000
0000
,
0001
0000
0010
0000
0001
0100
0010
1000
,
0100
0010
0001
1000
,
0010
1000
0100
0000
0010
0001
0100
0000
,
0110
0000
0000
1010
0000
1000
0010
1000
,
0010
0000
0100
0000
0001
0100
0010
0000
,
1000
0000
0100
0000
0010
0001
1000
0000
,
0010
0000
1000
0000
0100
0010
0001
0000
,
0011
0000
0001
0100
0000
0010
1000
0100
,
1000
0000
0100
0000
0010
0001
0010
0000
,
0001
0000
0100
0000
0010
1000
0010
0000
,
1000
0100
1000
0000
0001
0100
0001
0000
,
1000
0010
1000
0001
0010
0002
0000
0003
,
1001
0000
1000
0000
0010
0100
0000
0101
,
0000
0001
0010
0100
,
1000
0000
0010
1000
0000
0000
0001
0000
,
0010
0000
0001
0010
0000
0000
0001
0000
,
1001
0000
1000
0000
0010
0100
0000
0101
,
0000
0001
0010
0100
,
1000
0010
1000
0000
0001
0010
0001
0000
,
1000
0100
1000
0000
0001
0100
0001
1000
,
0010
0000
1000
0000
0001
0010
0000
0011
,
0000
0001
0010
0100
,
1000
0000
0010
0100
0000
0000
0001
0000
,
0100
0000
0010
1000
0000
0000
0010
0000
,
0110
0000
0100
0000
0001
0010
0000
0110
,
0000
0100
1000
0010
,
1000
0001
0010
0000
0001
1000
0010
0000
,
1000
0001
0100
0000
0010
1000
0000
0000
,
2002
0000
0000
3003
,
1000
0000
0100
0000
1000
0000
0001
0000
0100
0000
0001
0000
,
1000
0000
0000
0000
0001
0010
0001
0000
,
1000
0000
0010
1000
0010
0000
0100
0000
,
0001
0010
0001
0000
0000
1000
0010
1000
,
0000
0000
0001
0100
0010
0000
1000
0000
,
0100
0010
0100
0000
0000
0010
0001
0010
,
0000
0000
0001
0100
0010
0000
1000
0000
,
0100
1000
0010
0000
0000
0100
0001
0010
,
0000
0000
0100
1000
0001
0000
0010
0000
,
0001
0100
0010
0000
0000
1000
0100
0010
,
0002
0000
0000
0003
,
1001
0000
0001
0000
0010
0001
0010
0000
,
0001
0000
0100
0000
0010
0100
0010
0000
,
1000
0000
0100
0000
1000
0100
1000
0000
,
0100
0000
0010
0000
0001
0010
0001
1000
,
0001
0000
0100
0000
0010
1000
0010
0000
,
0100
0000
0001
0000
0010
0100
0010
0000
,
0100
0000
1000
0000
0010
1000
0010
0100
,
0001
0000
0010
0000
0001
0100
0010
1000
,
0100
0000
0010
0000
0001
0010
0001
0000
,
0100
0000
0010
0000
1000
0010
1000
0000
,
1010
0000
0010
0100
0000
0100
0001
0000
,
0100
0000
0010
1000
0010
1000
0001
0100
,
0001
0100
0010
1000
,
0100
0000
0010
0001
0010
0000
0001
0100
,
0001
0000
0100
0010
0100
0000
0010
1000
,
0010
0100
0001
1000
0000
0000
0000
0000
,
1001
0000
0001
0000
0010
0001
0010
0000
,
0001
0000
0100
0000
0010
0100
0010
0000
,
1000
0000
0010
0000
0100
0001
0100
0000
,
0010
0000
1000
0000
0100
0010
0100
0010
,
0100
0000
0010
0000
0001
0010
0001
0000
,
0100
0000
0010
0000
1000
0100
1000
0000
,
0001
0000
0010
0001
0000
0001
0010
0000
,
0100
0000
1000
0010
1000
0001
0010
0000
,
0001
0010
0000
0000
0010
0100
0000
0000
,
0100
1000
0010
0000
1000
0000
0001
0000
,
0010
0001
0000
0000
0001
0100
0000
0000
,
0100
0010
1000
0010
0200
0000
0310
0000
,
1000
0001
0000
0000
0010
0100
0000
0000
,
1000
0000
0000
0010
0000
0000
0000
0000
0000
0000
0000
0000
0100
0000
0000
0000
0001
0000
0000
0000
0010
0000
0000
0000
,
0100
0000
1000
0100
1000
0000
0001
0000
,
0011
0000
0000
0000
0000
0000
0001
0000
0000
0100
0000
0000
0010
0000
0000
0000
1000
0000
0000
0000
0010
0000
0000
0000
,
0100
0001
0100
0000
0010
1000
0010
0000
,
1000
0100
1000
0000
0001
0010
0001
0000
,
1000
0010
1000
0000
0001
0100
0001
0000
,
1000
0010
1000
0001
0020
0000
0031
0000
,
1000
0100
1000
0100
0001
0100
0001
0100
,
1000
0010
1000
0010
0001
0010
0001
0010
,
1000
0000
0001
1000
0000
1000
0001
0000
,
0010
0000
0001
0100
0010
1000
0100
0000
,
0010
0001
0000
0000
0001
0100
0000
0000
,
0100
0010
0000
0000
0010
1000
0000
0000
,
0001
0000
1000
0010
1000
0000
0001
0010
,
0001
1000
2002
3003
,
0110
0000
0010
1000
0100
0000
0100
0010
,
0001
0000
0001
0100
0010
0000
0010
1000
,
0001
0010
0001
0100
0010
1000
0100
1000
,
0010
0100
0001
0000
1001
0000
0000
0000
;

//---------------dance-single - ----------------
#NOTES:
     dance-single:
     :
     Beginner:
     2:
     0.132,0.190,0.027,0.000,0.000:
0000
0000
0000
0000
,
0000
0000
0000
0000
,
0000
0000
0000
0000
,
0000
0000
0000
0000
,
1000
0000
0000
0000
,
0001
0000
0000
0000
,
0010
0000
0000
0000
,
0100
0000
0000
0000
,
1000
0000
0000
0000
,
0010
0000
0000
0000
,
0100
0000
0000
0000
,
0000
0000
0000
0000
,
1001
0000
0000
0000
,
1000
0000
0000
0000
,
0001
0000
0000
0000
,
0010
0000
0000
0000
,
0100
0000
0000
0000
,
1000
0000
0000
0000
,
0010
0000
0000
0000
,
0100
0000
0000
0000
,
0001
0000
0000
0000
,
0010
0000
0000
0000
,
0100
0000
0000
0000
,
1000
0000
0000
0000
,
0010
0000
0000
0000
,
0100
0000
0000
0000
,
0001
0000
0000
0000
,
1000
0000
0000
0000
,
0001
0000
0000
0000
,
0010
0000
0000
0000
,
0100
0000
0000
0000
,
0000
0000
0000
0000
,
1000
0000
0000
0000
,
0010
0000
0000
0000
,
1000
0000
0000
0000
,
0000
0000
0000
0000
,
0001
0000
0000
0000
,
0010
0000
0000
0000
,
0100
0000
0000
0000
,
0000
0000
0000
0000
,
1000
0000
0000
0000
,
0010
0000
0000
0000
,
0100
0000
0000
0000
,
0000
0000
0000
0000
,
0001
0000
0000
0000
,
1000
0000
0000
0000
,
1001
0000
0000
0000
,
0000
0000
0000
0000
,
0000
0000
0000
0000
,
0000
0000
0000
0000
,
1000
0000
0000
0000
,
1000
0000
0000
0000
,
0001
0000
0000
0000
,
0001
0000
0000
0000
,
0010
0000
0000
0000
,
0010
0000
0000
0000
,
0100
0000
0000
0000
,
0110
0000
0000
0000
,
0100
0000
0000
0000
,
1000
0000
0000
0000
,
0010
0000
0000
0000
,
0100
0000
0000
0000
,
0001
0000
0000
0000
,
0010
0000
0000
0000
,
0100
0000
0000
0000
,
1000
0000
0000
0000
,
0010
0000
0000
0000
,
0000
0000
0000
0000
,
0100
0000
0000
0000
,
0001
0000
0000
0000
,
0100
0000
0000
0000
,
0000
0000
0000
0000
,
0010
0000
0000
0000
,
1000
0000
0000
0000
,
0010
0000
0000
0000
,
0100
0000
0000
0000
,
0001
0000
0000
0000
,
0010
0000
0000
0000
,
0100
0000
0000
0000
,
1000
0000
0000
0000
,
0010
0000
0000
0000
,
0100
0000
0000
0000
,
0001
0000
0001
0000
,
0001
0000
0000
0000
,
1000
0000
1000
0000
,
1000
0000
0000
0000
,
0010
0000
0010
0000
,
0010
0000
0000
0000
,
0100
0000
0000
0000
,
0100
0000
0000
0000
,
0001
0000
0001
0000
,
0001
0000
0000
0000
,
0010
0000
0010
0000
,
0010
0000
0000
0000
,
0100
0000
0100
0000
,
0100
0000
0000
0000
,
1000
0000
0000
0000
,
0010
0000
0000
0000
,
0100
0000
0000
0000
,
0100
0000
0000
0000
,
0001
0000
0000
0000
,
0010
0000
0000
0000
,
0100
0000
0000
0000
,
1000
0000
0000
0000
,
0010
0000
0000
0000
,
0100
0000
0100
0000
;

//---------------dance-single - ----------------
#NOTES:
     dance-single:
     :
     Easy:
     3:
     0.244,0.286,0.027,0.099,0.000:
0000
0000
0000
0000
,
0000
0000
0000
0000
,
0000
0000
0000
0000
,
0000
0000
0000
0000
,
1000
0000
0100
0000
,
1000
0000
0000
0000
,
0001
0000
0010
0000
,
0001
0000
0100
0000
,
0010
0000
1000
0000
,
0100
0000
0000
0000
,
0010
0000
0010
0000
,
0001
0000
0001
0000
,
1001
0000
0000
0000
,
1000
0000
0010
0000
,
1000
0000
0100
0000
,
1000
0000
1000
0000
,
0001
0000
0100
0000
,
0001
0000
0001
0000
,
0010
0000
0000
0000
,
0100
0000
1000
0000
,
0010
0000
1000
0000
,
0001
0000
0001
0000
,
0010
0000
0001
0000
,
0100
0000
0100
0000
,
0010
0000
1000
0000
,
0100
0000
0100
0000
,
0010
0000
0000
0000
,
0001
0000
1000
0000
,
0010
0000
0100
0000
,
0001
0000
0010
0000
,
0001
0000
0000
0000
,
1000
0000
0000
0000
,
0010
0000
0100
0000
,
0001
0000
0100
0000
,
0010
0000
1000
0000
,
0000
0000
0000
0000
,
0100
0000
0010
0000
,
0001
0000
0010
0000
,
0100
0000
0000
0000
,
1000
0000
0000
0000
,
0010
0000
1000
0000
,
0001
0000
0100
0000
,
0001
0000
0010
0000
,
0000
0000
0000
0000
,
0100
0000
1000
0000
,
0001
0000
0010
0000
,
0220
0000
0000
0000
,
0000
0000
0000
0000
,
0330
0000
1000
0000
,
0001
0000
1000
0000
,
0010
0000
0000
0000
,
0100
0000
0001
0000
,
0100
0000
0000
0000
,
0010
0000
1000
0000
,
0010
0000
0000
0000
,
1000
0000
0100
0000
,
1000
0000
0000
0001
,
2000
0000
0000
3000
,
0001
0000
0010
0000
,
0001
0000
0100
0000
,
0010
0000
1000
0000
,
0100
0000
0010
0000
,
0001
0000
1000
0000
,
0010
0000
1000
0000
,
0001
0000
0010
0000
,
0001
0000
0100
0000
,
0020
0000
0000
0030
,
1000
0000
0001
0000
,
0010
0000
0001
0000
,
0100
0000
0010
0000
,
2000
0000
0000
3000
,
0001
0000
1000
0000
,
0010
0000
0100
0000
,
0001
0001
0000
0000
,
1000
0000
0010
0000
,
1000
0000
0001
0000
,
0010
0000
0001
0000
,
0100
0000
0000
0000
,
0010
0000
1000
0000
,
0100
0000
0010
0000
,
0002
0000
0000
0003
,
2000
0000
0000
3000
,
0010
0000
0010
0000
,
0100
0000
0100
0000
,
0001
0000
0001
0000
,
1000
0000
1000
0000
,
0010
0000
0010
0000
,
0100
0000
0100
0000
,
0002
0000
0000
0003
,
2000
0000
0000
3000
,
0010
0000
1000
0000
,
0100
0000
0010
0000
,
0001
0000
0100
0000
,
0010
0000
1000
0000
,
0001
0000
0010
0000
,
0001
0000
0100
0000
,
0020
0000
0000
0030
,
0200
0000
0000
0300
,
0010
0000
0010
0000
,
1000
0000
1000
0000
,
0001
0000
0001
0000
,
0100
0000
0101
0000
,
0100
0000
0010
0000
,
1000
0000
0100
0000
,
0010
0000
0001
0000
,
1000
0001
1000
0000
;

//---------------dance-single - ----------------
#NOTES:
     dance-single:
     :
     Medium:
     6:
     0.471,0.476,0.036,0.217,0.009: // measure 1
0000
0000
0000
0000
,  // measure 2
0000
0000
0000
0000
,  // measure 3
0000
0000
0000
0000
,  // measure 4
0000
0000
0000
0000
,  // measure 5
1000
0000
0000
0100
0000
0000
0010
0000
,  // measure 6
0001
0100
0010
1000
,  // measure 7
0001
0000
0000
1000
0000
0000
0001
0000
,  // measure 8
0100
0010
1000
0100
,  // measure 9
0010
0000
0000
0001
0000
0000
0100
0000
,  // measure 10
0010
1000
0100
0000
,  // measure 11
0010
0010
0001
0001
,  // measure 12
1000
1000
0100
0100
,  // measure 13
0220
0000
0000
0330
,  // measure 14
0001
0000
0010
0000
0001
2000
0000
3000
,  // measure 15
0001
0000
0000
1000
0000
0000
0010
0000
,  // measure 16
0100
0000
0000
0001
0000
0000
0000
0000
,  // measure 17
0010
0000
0000
0100
0000
0000
1000
0000
,  // measure 18
0010
0000
0000
1000
0000
0000
0100
0000
,  // measure 19
0010
0001
0100
0010
,  // measure 20
1000
0100
0010
0001
,  // measure 21
1000
1000
0001
0001
,  // measure 22
1000
0000
0000
0001
0000
0000
1000
0000
,  // measure 23
0010
0000
0000
0100
0000
0000
0001
0000
,  // measure 24
0010
0000
0000
0100
0000
0000
0000
0000
,  // measure 25
1000
0000
0000
0010
0000
0000
1000
0000
,  // measure 26
0001
0000
0000
0010
0000
0000
0001
0000
,  // measure 27
0100
0010
1000
0100
,  // measure 28
0010
0001
1000
0010
,  // measure 29
0100
0100
0001
0001
,  // measure 30
0010
0000
0100
0000
0010
0100
0000
0000
,  // measure 31
1000
0000
0010
0000
1000
0001
0000
0010
,  // measure 32
0000
0001
0100
0010
,  // measure 33
1000
0000
0000
0100
0000
0000
1000
0000
,  // measure 34
0001
0000
0000
0100
0000
0000
0001
0000
,  // measure 35
0010
0000
0001
0000
0100
0010
0000
1000
,  // measure 36
0000
0010
0100
0001
,  // measure 37
0010
0010
0100
0100
,  // measure 38
1000
1000
0001
0001
,  // measure 39
1000
0000
0010
0000
1000
0010
0000
0100
,  // measure 40
0000
0001
0010
0100
,  // measure 41
1000
0000
0000
0001
0000
0000
0010
0000
,  // measure 42
0001
0000
0000
0100
0000
0000
0010
0000
,  // measure 43
1000
0000
0100
0000
0010
0001
0000
0010
,  // measure 44
0000
0100
1000
0010
,  // measure 45
0100
0100
0001
0001
,  // measure 46
0010
0000
0010
0000
0100
1000
0000
0000
,  // measure 47
2002
0000
0000
3003
,  // measure 48
1000
0000
0000
0000
1000
0000
0001
0000
0000
0000
0001
0000
,  // measure 49
1000
0000
0001
0010
,  // measure 50
0001
0100
0010
1000
,  // measure 51
0100
0100
0000
0010
,  // measure 52
0010
0000
0001
1000
,  // measure 53
0010
0010
0000
1000
,  // measure 54
1000
0000
0010
0100
,  // measure 55
0001
0001
0000
0010
,  // measure 56
0010
0000
0100
1000
,  // measure 57
0010
0010
0000
0100
,  // measure 58
0202
0000
0000
0303
,  // measure 59
0200
0300
0020
0030
,  // measure 60
2000
3000
0002
0003
,  // measure 61
0020
0030
0002
0003
,  // measure 62
0200
0300
0020
0030
,  // measure 63
1000
1000
0001
0001
,  // measure 64
0010
0010
0001
0001
,  // measure 65
0100
0100
0010
0010
,  // measure 66
1000
1000
0100
0100
,  // measure 67
0020
0030
0001
0010
,  // measure 68
0100
1000
0010
0100
,  // measure 69
0001
0000
0000
1000
0000
0000
0001
0000
,  // measure 70
0010
0000
0000
0100
0000
0000
0010
0000
,  // measure 71
0001
0100
0010
1000
,  // measure 72
0001
0001
1000
1000
,  // measure 73
0010
0010
0100
0100
,  // measure 74
0001
0010
0001
0010
0000
0000
0000
0000
,  // measure 75
0100
0000
0000
1000
0000
0000
0010
0000
,  // measure 76
1000
0000
0000
0100
0000
0000
0010
0000
,  // measure 77
0001
0000
0000
0100
0000
0000
0010
0000
,  // measure 78
1000
0001
0010
0001
,  // measure 79
0100
0000
0000
0010
0000
0000
1000
0000
,  // measure 80
0100
0000
0000
0010
0000
0000
0001
0000
,  // measure 81
1000
0000
0000
0001
0000
0000
1000
0000
,  // measure 82
0001
0001
1000
1000
,  // measure 83
0010
1000
0100
0001
,  // measure 84
0100
1000
0010
0001
,  // measure 85
0010
1000
0100
0010
,  // measure 86
0001
0100
0020
0030
,  // measure 87
1000
0001
0010
0001
,  // measure 88
0100
0010
1000
0100
,  // measure 89
0020
0030
0002
0003
,  // measure 90
2000
3000
0020
0030
,  // measure 91
0100
0001
0010
0001
,  // measure 92
0100
0010
1000
0100
,  // measure 93
0010
0001
1000
0010
,  // measure 94
1000
0001
0200
0300
,  // measure 95
0010
0010
1000
1000
,  // measure 96
0100
0100
0010
0010
,  // measure 97
0002
0000
0000
0003
,  // measure 98
2000
0000
0000
3000
,  // measure 99
0010
0000
1000
0000
,  // measure 100
0100
0000
0010
0000
,  // measure 101
0001
0100
0010
1000
,  // measure 102
0100
0010
0001
0000
,  // measure 103
1000
0010
1000
0001
,  // measure 104
0010
0001
1000
0100
,  // measure 105
1000
0001
0100
0001
,  // measure 106
1000
0001
1001
0000
;
