#TITLE:Pulse Attack;
#SUBTITLE:(DJ Stormtrooper Remix);
#ARTIST:CubeHard VS Darwin;
#TITLETRANSLIT:;
#SUBTITLETRANSLIT:;
#ARTISTTRANSLIT:;
#CREDIT:348;
#BANNER:Pulse Attack Banner.png;
#BACKGROUND:Pulse Attack Background.png;
#LYRICSPATH:;
#CDTITLE:;
#MUSIC:Pulse Attack.mp3;
#OFFSET:-0.284;
#SAMPLESTART:77.500;
#SAMPLELENGTH:15.000;
#SELECTABLE:YES;
#BPMS:0.000=174.000;
#STOPS:;
#BGCHANGES:;

//---------------dance-single - ----------------
#NOTES:
     dance-single:
     :
     Beginner:
     2:
     0.108,0.169,0.000,0.000,0.000: // measure 1
0000
0000
0000
0000
,  // measure 2
0000
0000
0000
0000
,  // measure 3
0000
0000
0000
0000
,  // measure 4
0000
0000
0000
0000
,  // measure 5
1000
0000
0000
0000
,  // measure 6
0001
0000
0000
0000
,  // measure 7
1000
0000
0000
0000
,  // measure 8
0001
0000
0000
0000
,  // measure 9
0100
0000
0000
0000
,  // measure 10
0001
0000
0010
0000
,  // measure 11
0001
0000
0000
0000
,  // measure 12
0100
0000
0000
0000
,  // measure 13
0010
0000
0000
0000
,  // measure 14
1000
0000
0100
0000
,  // measure 15
1000
0000
0000
0000
,  // measure 16
0010
0000
0000
0000
,  // measure 17
1000
0000
0000
0000
,  // measure 18
1000
0000
0000
0000
,  // measure 19
0100
0000
0000
0000
,  // measure 20
0100
0000
0000
0000
,  // measure 21
0010
0000
0000
0000
,  // measure 22
0010
0000
0000
0000
,  // measure 23
0001
0000
0000
0000
,  // measure 24
0001
0000
0000
0000
,  // measure 25
1000
0000
1000
0000
,  // measure 26
0001
0000
0001
0000
,  // measure 27
1000
0000
0000
0000
,  // measure 28
0001
0000
1000
0000
,  // measure 29
0010
0000
0010
0000
,  // measure 30
0100
0000
0100
0000
,  // measure 31
0010
0000
0000
0000
,  // measure 32
0100
0000
0010
0000
,  // measure 33
1000
0000
0000
0000
,  // measure 34
0000
0000
0000
0000
,  // measure 35
0100
0000
0000
0000
,  // measure 36
0000
0000
0000
0000
,  // measure 37
0010
0000
0000
0000
,  // measure 38
0000
0000
0000
0000
,  // measure 39
0001
0000
0000
0000
,  // measure 40
0000
0000
0000
0000
,  // measure 41
1000
0000
0000
0000
,  // measure 42
0001
0000
0000
0000
,  // measure 43
0010
0000
0000
0000
,  // measure 44
0100
0000
0000
0000
,  // measure 45
0100
0000
0000
0000
,  // measure 46
0010
0000
0000
0000
,  // measure 47
0001
0000
0000
0000
,  // measure 48
1000
0000
0000
0000
,  // measure 49
0001
0000
0000
0010
,  // measure 50
0010
0000
0000
0000
,  // measure 51
0100
0000
0000
1000
,  // measure 52
1000
0000
0000
0000
,  // measure 53
0010
0000
0000
0000
,  // measure 54
0100
0000
0000
0000
,  // measure 55
0001
0000
1000
0000
,  // measure 56
0010
0000
0100
0000
,  // measure 57
0010
0000
0000
0000
,  // measure 58
0010
0000
0010
0000
,  // measure 59
0100
0000
0000
0000
,  // measure 60
0100
0000
0100
0000
,  // measure 61
0001
0000
0000
0000
,  // measure 62
0001
0000
0001
0000
,  // measure 63
1000
0000
0000
0000
,  // measure 64
1000
0000
1000
0000
,  // measure 65
0001
0000
0000
0000
,  // measure 66
1000
0000
0100
0000
,  // measure 67
1000
0000
0000
0000
,  // measure 68
0001
0000
0010
0000
,  // measure 69
0001
0000
0000
0000
,  // measure 70
0100
0000
0000
0000
,  // measure 71
0010
0000
0000
0000
,  // measure 72
0100
0000
0000
0000
,  // measure 73
0001
0000
0000
0000
,  // measure 74
1000
0000
0000
0000
,  // measure 75
0100
0000
0000
0000
,  // measure 76
0010
0000
0000
0000
,  // measure 77
0010
0000
0000
0000
,  // measure 78
0100
0000
0000
0000
,  // measure 79
1000
0000
0000
0000
,  // measure 80
0001
0000
0000
0000
,  // measure 81
1000
0000
0000
0000
,  // measure 82
0000
0000
0000
0000
,  // measure 83
0001
0000
0000
0000
,  // measure 84
0000
0000
0000
0000
,  // measure 85
0100
0000
0000
0000
,  // measure 86
0100
0000
0000
0000
,  // measure 87
0010
0000
0100
0000
,  // measure 88
0001
0000
1000
0000
,  // measure 89
0001
0000
0000
0000
;

//---------------dance-single - ----------------
#NOTES:
     dance-single:
     :
     Easy:
     5:
     0.320,0.509,0.153,0.268,0.000: // measure 1
0000
0000
0000
0000
,  // measure 2
0000
0000
0000
0000
,  // measure 3
0000
0000
0000
0000
,  // measure 4
0000
0000
0000
0000
,  // measure 5
1000
0000
0001
0000
,  // measure 6
1000
0000
0001
0000
,  // measure 7
0100
0000
0010
0000
,  // measure 8
0100
0000
0010
0000
,  // measure 9
1000
1000
0001
0000
,  // measure 10
0001
0001
0010
0000
,  // measure 11
0010
0001
0001
1000
,  // measure 12
1000
0000
1001
0000
,  // measure 13
0100
0100
0001
0000
,  // measure 14
1000
0010
0010
0000
,  // measure 15
1000
0100
0010
0001
,  // measure 16
0110
0000
1001
0000
,  // measure 17
0002
0000
0013
0000
,  // measure 18
0002
0000
0103
0000
,  // measure 19
2000
0000
3010
0000
,  // measure 20
2000
0000
3100
0000
,  // measure 21
2000
0000
3001
1000
,  // measure 22
0200
0000
1300
0001
,  // measure 23
0020
0000
0030
0001
,  // measure 24
1002
0000
1003
0000
,  // measure 25
1000
0000
0011
0000
,  // measure 26
1000
0100
0010
0000
,  // measure 27
1000
0010
0001
0100
,  // measure 28
0010
0000
1010
0000
,  // measure 29
0001
0000
1100
0000
,  // measure 30
0010
1000
0001
0000
,  // measure 31
0001
0100
1000
0100
,  // measure 32
0001
0000
0101
0000
,  // measure 33
2000
0000
0001
0000
,  // measure 34
0001
0000
3001
0000
,  // measure 35
0002
0000
0100
0000
,  // measure 36
0100
0000
0103
0000
,  // measure 37
0200
0000
0010
0000
,  // measure 38
0010
0000
0310
0000
,  // measure 39
0020
0000
1000
0000
,  // measure 40
1000
0000
1030
0000
,  // measure 41
1000
0100
0010
0000
,  // measure 42
1000
0010
0001
0000
,  // measure 43
1000
0001
0010
0100
,  // measure 44
0010
0001
1000
0000
,  // measure 45
0001
0100
1000
0000
,  // measure 46
0001
0010
1000
0000
,  // measure 47
0001
1000
0010
0100
,  // measure 48
0010
0000
1001
0000
,  // measure 49
0001
0010
0001
0100
,  // measure 50
0001
1000
0100
0000
,  // measure 51
1000
0001
0010
1000
,  // measure 52
0010
0100
1000
0000
,  // measure 53
0001
0000
0100
0000
,  // measure 54
0010
0000
1000
0000
,  // measure 55
0002
0203
0320
2030
,  // measure 56
3001
0000
0110
0000
,  // measure 57
1000
0100
0001
0000
,  // measure 58
0001
0100
1000
0000
,  // measure 59
0001
0010
0001
1100
,  // measure 60
0001
0100
0010
0101
,  // measure 61
0001
0010
0100
0000
,  // measure 62
0001
0100
1000
0000
,  // measure 63
0100
1000
0100
0011
,  // measure 64
1010
0000
1001
0000
,  // measure 65
1000
0000
1000
1000
,  // measure 66
0010
0000
0010
0010
,  // measure 67
0100
0001
0100
1010
,  // measure 68
0001
1000
0001
1100
,  // measure 69
0001
0000
0100
1000
,  // measure 70
0010
0000
0001
1000
,  // measure 71
0020
2030
3002
0203
,  // measure 72
0310
0000
1001
0000
,  // measure 73
1000
0000
0001
0000
,  // measure 74
0100
0000
1000
0000
,  // measure 75
0010
0000
0001
0000
,  // measure 76
1000
0000
0010
0000
,  // measure 77
1000
0100
0010
0100
,  // measure 78
1000
0001
0100
0010
,  // measure 79
0100
0001
1000
0100
,  // measure 80
0001
0100
1000
0001
,  // measure 81
2000
0000
3100
0100
,  // measure 82
0020
0000
0031
0001
,  // measure 83
0002
0000
0013
0010
,  // measure 84
0200
0000
1300
1000
,  // measure 85
0002
0003
2000
3000
,  // measure 86
0020
0030
0200
0300
,  // measure 87
0002
2003
3002
2003
,  // measure 88
3020
0000
0130
0110
,  // measure 89
2002
0000
3003
0000
;

//---------------dance-single - ----------------
#NOTES:
     dance-single:
     :
     Medium:
     7:
     0.489,0.509,0.276,0.422,0.000: // measure 1
0000
0000
0000
0000
,  // measure 2
0000
0000
0000
0000
,  // measure 3
0000
0000
0000
0000
,  // measure 4
0000
0000
0000
0000
,  // measure 5
1000
0100
0010
0001
,  // measure 6
1000
0001
0100
0010
,  // measure 7
1000
0001
1000
0110
,  // measure 8
1001
0000
0011
1010
,  // measure 9
1000
0000
0100
0000
1000
0010
1000
0000
,  // measure 10
0001
0010
0002
1003
,  // measure 11
0100
0000
1000
0000
0001
0010
0001
0000
,  // measure 12
0100
0000
0002
0000
1003
0000
0001
0010
,  // measure 13
0001
0000
1000
0000
0010
1000
0010
0000
,  // measure 14
1000
0100
0020
0031
,  // measure 15
0001
0000
1000
0000
0010
0100
0010
0000
,  // measure 16
2002
0000
0000
3003
,  // measure 17
0010
0000
0010
0000
0010
1000
0000
0000
,  // measure 18
1000
0000
1000
0000
1000
0001
0000
0000
,  // measure 19
0001
0000
0001
0000
0001
0100
0000
0000
,  // measure 20
0100
0000
0100
0000
0100
0001
0000
0000
,  // measure 21
0001
0000
1000
0001
0000
1000
0000
0000
,  // measure 22
0001
0000
0010
1000
0000
0010
0000
0000
,  // measure 23
0001
0000
1000
0100
0000
0100
0000
0000
,  // measure 24
2000
0000
0002
3003
,  // measure 25
0011
0000
0000
2000
0000
3100
0000
0000
,  // measure 26
1100
0000
0000
0020
0000
0130
0000
0000
,  // measure 27
1001
0000
0000
0020
0000
1030
0000
0000
,  // measure 28
0110
0000
0000
0200
0000
0301
0000
0000
,  // measure 29
1000
0000
0001
0000
0100
0010
0100
0000
,  // measure 30
0001
0000
0010
0000
0100
1000
0100
0000
,  // measure 31
1000
0000
0001
0000
0010
0001
0010
0000
,  // measure 32
0200
0000
2000
3300
,  // measure 33
0002
1000
0100
0023
,  // measure 34
0230
1000
0010
1300
,  // measure 35
2000
0100
0010
3002
,  // measure 36
0023
0001
1000
0031
,  // measure 37
0002
0103
0200
1300
,  // measure 38
2000
3100
0200
0301
,  // measure 39
0002
0103
0200
1300
,  // measure 40
2000
3010
0020
0031
,  // measure 41
0001
0000
1100
0000
0000
0001
1000
0000
,  // measure 42
0010
0000
1001
0000
0000
0100
0001
0000
,  // measure 43
1000
0000
0101
0000
0000
0010
0001
0000
,  // measure 44
0100
0000
0110
0000
0000
0001
0010
0000
,  // measure 45
0001
1000
1000
0011
,  // measure 46
1000
0100
0100
1010
,  // measure 47
0010
0100
0100
1001
,  // measure 48
2002
3003
0220
0330
,  // measure 49
0001
1000
0011
1100
,  // measure 50
0010
1000
0101
1100
,  // measure 51
0001
0100
0011
1010
,  // measure 52
0010
0100
0101
1010
,  // measure 53
0001
0000
0010
0000
0001
1000
0001
0000
,  // measure 54
1000
0000
0100
0000
0010
0001
0010
0000
,  // measure 55
0001
1000
0001
0000
0100
0010
0100
0000
,  // measure 56
0001
0010
0100
1000
0001
0000
1001
0000
,  // measure 57
0100
0000
0010
0000
0100
0001
0100
0000
,  // measure 58
0001
0000
1000
0000
0010
1000
0010
0000
,  // measure 59
1000
0000
0100
0000
0001
0010
0001
0000
,  // measure 60
0200
2300
3002
0023
,  // measure 61
0031
0000
1000
0000
0100
0010
0100
0000
,  // measure 62
1000
0000
0001
0000
1000
0001
1000
0000
,  // measure 63
0001
1100
1000
0011
,  // measure 64
0220
0000
0330
1001
,  // measure 65
0001
0000
0010
1000
0010
0000
0001
0000
,  // measure 66
1000
0000
0010
0001
0010
0000
1000
0000
,  // measure 67
0001
1000
1000
0001
,  // measure 68
1000
0100
1000
0000
0001
0010
0001
0000
,  // measure 69
1000
0000
0001
0010
0100
0000
0010
0000
,  // measure 70
0001
0000
1000
0100
0010
0000
0100
0000
,  // measure 71
2000
3002
0203
0320
,  // measure 72
2030
0000
0001
0002
0000
0000
3003
0000
,  // measure 73
0100
0001
0100
0000
0010
0000
1100
0000
,  // measure 74
0010
1000
0010
0000
1000
0000
1001
0000
,  // measure 75
0001
0000
0100
0000
0001
0100
0001
0000
,  // measure 76
1000
0010
1000
0000
0001
0000
1001
0000
,  // measure 77
0100
0001
0100
0000
0010
1000
0010
0000
,  // measure 78
1000
0001
1000
0000
0001
0000
1000
0000
,  // measure 79
0002
0013
0200
1300
,  // measure 80
0001
1000
0010
0110
,  // measure 81
1000
0000
0001
0000
0010
0001
0010
0000
,  // measure 82
0001
2000
3100
0010
,  // measure 83
0001
0000
1000
0000
0010
1000
0010
0000
,  // measure 84
1000
0200
0310
0001
,  // measure 85
1000
0000
0001
0000
1000
0100
1000
0000
,  // measure 86
0001
0010
0001
0000
0100
0010
0100
0000
,  // measure 87
0020
2030
3002
0203
,  // measure 88
0320
0000
0100
0200
0000
0000
0330
0000
,  // measure 89
2002
0000
3003
0000
;

//---------------dance-single - ----------------
#NOTES:
     dance-single:
     :
     Hard:
     8:
     0.625,0.577,0.437,0.322,0.084: // measure 1
0000
0000
0000
0000
,  // measure 2
0000
0000
0000
0000
,  // measure 3
0000
0000
0000
0000
,  // measure 4
0000
0000
0000
0000
,  // measure 5
1000
0000
0001
0000
1000
0100
0010
0000
,  // measure 6
0001
0000
0010
0000
0001
0100
0010
0000
,  // measure 7
1000
0001
0100
0000
0010
1000
0001
0000
,  // measure 8
1000
0100
0010
0100
1000
0000
0110
0000
,  // measure 9
0001
0000
1001
0000
1000
0100
0001
0100
,  // measure 10
1000
0001
0010
0001
1000
0000
0011
0000
,  // measure 11
0001
1100
1001
0110
,  // measure 12
1000
0100
0010
1000
0010
0001
1000
0001
,  // measure 13
1000
1010
0101
0001
,  // measure 14
1000
0010
0001
0000
1000
0010
0001
0000
,  // measure 15
1000
0100
0010
0001
1000
0100
0010
0001
,  // measure 16
0220
0330
1001
0110
,  // measure 17
0002
0000
0200
0303
0000
0101
0000
0000
,  // measure 18
2000
0000
0020
3030
0000
1010
0000
0000
,  // measure 19
0020
0000
0200
0330
0000
0110
0000
0000
,  // measure 20
0001
0000
0010
0000
0100
1000
0100
0001
,  // measure 21
0200
0000
2000
3300
0000
1100
0000
0000
,  // measure 22
0002
0000
0020
0033
0000
0011
0000
0000
,  // measure 23
2000
0000
0002
3003
0000
1001
0000
0000
,  // measure 24
0110
0000
0001
1000
0100
1000
0001
0000
,  // measure 25
2000
0000
3200
0000
0301
0100
0010
0000
,  // measure 26
0002
0000
0100
0000
0103
1000
0100
0000
,  // measure 27
0020
0230
0310
1001
,  // measure 28
0110
0000
1000
0100
0010
1000
0100
0010
,  // measure 29
2000
0000
3002
0000
0103
0010
0001
0000
,  // measure 30
0020
0000
0230
0000
0301
1000
0100
0000
,  // measure 31
1000
0001
0010
0000
0100
1000
0001
0000
,  // measure 32
2200
3300
1001
0011
,  // measure 33
1000
0000
0000
0100
0000
0000
1000
0000
0001
0000
0010
0000
0100
0000
0001
0000
,  // measure 34
0010
0000
0000
1000
0000
0000
0001
0000
1000
0000
0010
0000
0100
0000
0000
0000
,  // measure 35
0100
0000
0000
0100
0000
0000
0100
0000
0001
0000
0010
0000
0100
0000
1000
0000
,  // measure 36
0001
0000
0000
0001
0000
0000
0001
0000
1000
0000
0100
0000
0010
0000
0000
0000
,  // measure 37
1000
0000
0000
0010
0000
0000
0001
0000
1000
0000
0100
0000
0010
0000
0100
0000
,  // measure 38
1000
0000
0000
0001
0000
0000
1000
0000
0001
0000
0010
0000
0100
0000
0000
0000
,  // measure 39
0010
0000
0000
0010
0000
0000
0010
0000
0001
0000
1000
0000
0001
0000
0100
0000
,  // measure 40
1000
0000
0000
1000
0000
0000
1000
0000
0100
0000
0001
0000
1000
0000
0000
0000
,  // measure 41
0001
0010
0000
0000
1100
0000
0000
0000
0001
0000
0010
0000
0001
0000
0100
0000
,  // measure 42
0010
0000
0101
0000
1000
0100
1000
0000
,  // measure 43
0010
1000
0000
0000
0011
0000
0000
0000
1000
0000
0100
0000
0001
0000
0100
0000
,  // measure 44
1000
0000
1010
0000
0001
0100
0001
0000
,  // measure 45
1000
0100
0000
0000
1001
0000
0000
0000
0100
0000
0001
0000
1000
0000
0001
0000
,  // measure 46
0100
0000
1001
0000
1000
0100
0010
0000
,  // measure 47
0010
0001
0000
0000
0110
0000
0000
0000
1000
0000
0010
0000
1000
0000
0000
0000
,  // measure 48
0220
0330
0011
1100
,  // measure 49
0001
0010
0100
0000
1000
0010
0001
0100
,  // measure 50
1000
0000
0011
0000
0100
0001
1000
0001
,  // measure 51
0100
0000
1010
0000
0001
0010
1000
0010
,  // measure 52
0001
0000
1001
0000
0100
0010
1000
0010
,  // measure 53
0100
0000
0110
0000
0001
1000
0001
0000
,  // measure 54
1000
0100
0010
0000
0001
0010
0100
0000
,  // measure 55
2000
0000
3200
0000
0310
0001
0020
0000
,  // measure 56
0031
1000
0100
0002
0000
0103
1000
0000
,  // measure 57
0001
0000
0000
0010
0000
0000
0001
0000
1000
0000
0100
0000
1000
0000
0000
0000
,  // measure 58
0001
0000
0000
1000
0000
0000
0200
0000
1300
0000
0000
0000
1001
0000
0000
0000
,  // measure 59
0100
0000
0000
0010
0000
0000
0001
0000
1000
0000
0100
0000
1000
0000
0000
0000
,  // measure 60
0100
0000
0000
1000
0000
0000
0002
0000
0013
0000
0000
0000
0110
0000
0000
0000
,  // measure 61
1000
0000
0000
1000
0000
0000
1000
0000
0001
0000
0010
0000
0100
0000
0000
0000
,  // measure 62
0010
0000
0000
0010
0000
0000
0010
0000
0001
0000
0100
0000
0010
0000
0000
0000
,  // measure 63
1000
0100
0001
0000
1000
0100
0001
0000
,  // measure 64
1000
0100
0010
0002
0000
1003
0001
0000
,  // measure 65
1000
0000
0000
0200
0000
0000
0301
0000
0100
0000
1000
0000
0001
0000
0010
0000
,  // measure 66
0001
0000
0000
0010
0000
0000
1000
0000
0010
0000
0001
0000
1000
0000
0100
0000
,  // measure 67
1000
0000
0000
2000
0000
0000
3001
0000
1000
0000
0100
0000
1000
0000
0001
0000
,  // measure 68
0010
0000
0000
0010
0000
0000
0001
0000
0100
0000
1000
0000
0010
0000
0001
0000
,  // measure 69
1000
0100
1000
0000
1000
0100
0010
0000
,  // measure 70
0010
0001
0010
0000
0001
0010
0100
0000
,  // measure 71
1001
0110
0110
1001
,  // measure 72
0100
0001
1000
0020
0000
1030
0001
0000
,  // measure 73
1010
0000
0101
0000
1000
0001
0100
0000
,  // measure 74
0100
0001
0010
1000
0010
0001
0100
0000
,  // measure 75
0011
0000
1100
0000
0010
1000
0100
0000
,  // measure 76
0100
1000
0010
0001
0010
1000
0100
0000
,  // measure 77
1000
0100
0001
0000
0001
0100
1000
0000
,  // measure 78
0001
0010
0100
0010
0001
0000
0110
0000
,  // measure 79
1000
0001
0100
0000
0001
1000
0010
0000
,  // measure 80
1000
0100
1000
0010
1000
0001
1000
0000
,  // measure 81
0001
0011
0100
1001
,  // measure 82
0010
1010
1000
1100
,  // measure 83
0001
0010
1000
0000
1000
0010
0001
0000
,  // measure 84
2000
0001
3001
0000
0002
1000
1003
0000
,  // measure 85
0001
0010
0100
0010
0001
0010
0100
1000
,  // measure 86
0010
0100
0001
1000
0100
1000
0001
0000
,  // measure 87
1100
1010
0101
0011
,  // measure 88
1000
0001
0100
0020
0000
0130
0010
0000
,  // measure 89
2002
0000
3003
0000
;

//---------------dance-single - ----------------
#NOTES:
     dance-single:
     :
     Challenge:
     9:
     0.756,0.916,0.314,0.537,0.272: // measure 1
0000
0000
0000
0000
,  // measure 2
0000
0000
0000
0000
,  // measure 3
0000
0000
0000
0000
,  // measure 4
0000
0000
0000
0000
,  // measure 5
1000
1010
0001
0101
,  // measure 6
1000
0100
0010
0000
0001
0010
0100
0000
,  // measure 7
1000
0100
0010
0100
0001
0100
1000
0100
,  // measure 8
0010
0001
0100
0010
1000
0001
1000
0000
,  // measure 9
0001
0000
0000
1000
0100
0000
0000
0000
1000
0000
0000
0001
0010
0000
0000
0000
,  // measure 10
0001
0010
0001
0100
0010
1000
0100
1000
,  // measure 11
0010
0000
0000
1000
0001
0000
0000
0000
0100
0000
0000
0001
1000
0000
0000
0000
,  // measure 12
0001
0000
0100
0000
1000
0000
0100
0000
0001
0000
0010
0000
0100
0000
1000
0001
,  // measure 13
1000
0000
0000
0001
0010
0000
0000
0000
0100
0000
0000
1000
0001
0000
0000
0000
,  // measure 14
1000
0100
0010
0000
1000
0010
0001
0000
,  // measure 15
0010
0001
1000
0100
1000
0001
1000
0100
,  // measure 16
2002
0000
0000
3003
,  // measure 17
0200
0000
0301
0010
1000
0010
0001
0000
,  // measure 18
2000
0000
3010
1000
0100
1000
0001
0000
,  // measure 19
0020
0000
0031
1000
0100
1000
0001
0000
,  // measure 20
1000
0000
0100
0000
0010
0000
0100
0000
1000
0000
0001
0000
0010
0000
0001
0010
,  // measure 21
0002
0000
1003
0100
0001
0010
1000
0000
,  // measure 22
0020
0000
0130
0001
0100
0010
1000
0000
,  // measure 23
0200
0000
1300
0100
0010
0001
0010
0100
,  // measure 24
2000
0000
0000
3200
0000
0000
0302
0000
0000
0203
0000
0000
1300
0000
0000
0000
,  // measure 25
1000
0000
2000
0001
0000
3001
0010
0100
,  // measure 26
0010
0000
0020
0001
0000
0031
1000
0001
,  // measure 27
0100
0000
0200
0010
0000
0310
1000
0001
,  // measure 28
0100
0000
1000
0000
0100
0000
0001
0000
1000
0000
0001
0000
0100
0000
0010
1000
,  // measure 29
0010
0000
0020
1000
0000
1030
0100
0001
,  // measure 30
0100
0000
0200
1000
0000
1300
0001
0010
,  // measure 31
0001
0000
0000
0000
0002
0000
1000
0000
0000
0000
1003
0001
1000
0000
0001
0000
,  // measure 32
2000
3002
0203
0320
,  // measure 33
1030
0100
0000
0100
0000
0000
1000
0000
0100
0000
0010
0000
0100
0000
1000
0001
,  // measure 34
1000
0000
0000
0110
0000
0000
0001
0000
1000
0000
0010
0000
0001
0000
0010
0000
,  // measure 35
1000
0001
0000
0001
0000
0000
0100
0000
0010
0000
1000
0000
0010
0000
0100
0001
,  // measure 36
0100
0000
0000
1001
0000
0000
0010
0000
1000
0000
0001
1000
0000
1000
0001
0000
,  // measure 37
0100
0010
0000
0010
0000
0000
1000
0000
0100
0000
1000
0000
0010
0000
1000
0001
,  // measure 38
1000
0000
0000
0011
0000
0000
1000
0000
0010
0000
0001
0000
1000
0000
0100
0000
,  // measure 39
0001
1000
0000
1000
0000
0000
0001
0000
0010
0000
0100
0000
0010
0000
0001
0100
,  // measure 40
0001
0000
0000
1100
0000
0000
0001
1000
0001
0000
2000
0002
0000
0000
3003
0000
,  // measure 41
0011
0000
0000
0000
1100
0000
0000
0001
0010
0000
0001
0000
0100
0000
0001
0000
,  // measure 42
1010
0000
0000
0000
0101
0000
0000
1000
0100
0000
0001
0000
0100
0000
1000
0000
,  // measure 43
0110
0000
0000
0000
1001
0000
0000
0100
0001
0000
1000
0000
0001
0000
0100
0000
,  // measure 44
1001
0000
0000
0000
0110
0000
0000
0001
1000
0000
0100
0000
0010
0000
0001
0000
,  // measure 45
1001
0000
0000
0000
1001
0000
0000
1000
0010
0000
0100
0000
0001
0000
0000
0000
,  // measure 46
0110
0000
0000
0000
0110
0000
0000
0001
1000
0000
0100
0000
0010
0000
0000
0000
,  // measure 47
0100
1000
0001
0000
0100
0001
1000
0000
,  // measure 48
0001
1000
0100
0020
0000
0130
1000
0000
,  // measure 49
0001
0000
0010
0000
0100
0000
1000
0100
0000
0100
1000
0000
0100
0000
0010
0000
,  // measure 50
0001
0000
1000
0000
0100
0000
1000
0001
1000
0000
0100
0000
1000
0000
0001
0000
,  // measure 51
0010
0000
0001
0000
1000
0000
0100
1000
0000
1000
0100
0000
0010
0000
0001
0000
,  // measure 52
0100
0000
0010
0000
0100
0000
0001
1000
0001
0000
1000
0000
0001
0000
0100
0000
,  // measure 53
0010
1000
0010
0100
0010
0001
0010
0100
,  // measure 54
0001
0010
0001
0100
0010
1000
0100
1000
,  // measure 55
0002
0010
0100
1003
2000
0100
0010
3001
,  // measure 56
0200
0010
0010
0320
0000
0100
0130
0000
,  // measure 57
0001
1000
0000
0001
1000
0000
0100
0000
0010
0000
0100
0000
2000
0000
0001
0000
,  // measure 58
3001
0010
0000
0001
0010
0000
0001
1000
0001
0000
0100
0000
0020
0000
0000
0000
,  // measure 59
1030
0100
0000
0010
0001
0000
1000
0000
0100
0000
0001
0000
0100
0000
1000
0000
,  // measure 60
0001
0100
0000
0010
1000
0000
0010
0100
0010
0000
1000
0000
0002
0000
0000
0000
,  // measure 61
0013
0001
0000
1000
0100
0000
1000
0000
0100
0000
0020
0000
0031
0000
0000
0000
,  // measure 62
1000
0001
0000
0100
0010
0000
0100
0000
0001
0000
2000
0000
3010
0000
0000
0000
,  // measure 63
1000
0100
0020
0000
0031
0010
0200
0000
,  // measure 64
2300
0000
3001
0020
0000
0031
0200
0000
,  // measure 65
0301
0000
0000
1100
0000
0000
0001
0010
0100
0000
0010
0000
0001
0000
1000
0000
,  // measure 66
0010
0000
0000
0101
0000
0000
0100
0001
0010
0000
0001
0000
0010
0000
1000
0000
,  // measure 67
0010
0000
0000
0011
0000
0000
1000
0100
0010
0000
0001
0000
0100
0000
0001
0000
,  // measure 68
1000
0000
0000
1010
0000
0000
0001
0010
0001
0000
1000
0000
0100
0000
1000
0000
,  // measure 69
0002
0000
0000
0010
0000
0000
1003
0100
0001
0000
0100
0000
1000
0000
0000
0000
,  // measure 70
0020
0000
0000
1000
0000
0000
0130
0001
0100
0000
0001
0000
1000
0000
0000
0000
,  // measure 71
0022
0000
0000
0033
2020
0000
0000
3030
2200
0000
0000
3300
0202
0000
0000
0303
,  // measure 72
2002
0000
0000
3003
0110
0000
0220
0000
0000
0000
0000
0000
0330
0000
0000
0000
,  // measure 73
0001
0010
0200
0000
1300
0010
0001
1000
,  // measure 74
0100
0001
1000
0100
1000
0010
2000
0000
,  // measure 75
3010
1000
0002
0000
1003
0100
0010
1000
,  // measure 76
0100
0000
0001
0000
1000
0000
0100
0000
1000
0000
0100
0000
0010
0000
0001
0010
,  // measure 77
0002
2003
3001
1001
,  // measure 78
0010
0001
0010
1000
0010
0001
1000
0010
,  // measure 79
0200
0320
0130
0110
,  // measure 80
0001
1000
0100
0010
0100
1000
0001
0000
,  // measure 81
1100
1001
0011
1001
,  // measure 82
0101
0110
0110
1010
,  // measure 83
0001
0010
2000
0000
3010
0001
2000
0000
,  // measure 84
3010
0100
0002
0000
1003
0100
0002
0000
,  // measure 85
0103
1000
0100
0010
0001
1000
0100
0001
,  // measure 86
1000
0010
0001
1000
0001
0010
0001
1000
,  // measure 87
0020
1000
0100
1030
0200
0001
0010
0301
,  // measure 88
0002
0010
0100
2003
0000
3001
1000
0000
,  // measure 89
2002
0000
3003
0000
;
