#TITLE:Phantom;
#SUBTITLE:;
#ARTIST:capsule;
#TITLETRANSLIT:;
#SUBTITLETRANSLIT:;
#ARTISTTRANSLIT:;
#GENRE:Electronica;
#CREDIT:AznPunk07/Frozen_Heat/GuardianFrozen;
#MENUCOLOR:#873a6e;
#METERTYPE:DDR;
#BANNER:Phantom-bn.png;
#BACKGROUND:Phantom-bg.png;
#LYRICSPATH:;
#CDTITLE:!cdtitle.png;
#MUSIC:Phantom.mp3;
#OFFSET:-0.076;
#SAMPLESTART:43.700;
#SAMPLELENGTH:14.540;
#SELECTABLE:YES;
#LISTSORT:;
#DISPLAYBPM:132;
#BPMS:0.000=132.000,160.000=264.000,168.000=132.000,174.000=66.000,174.500=264.000,175.000=132.000,175.500=264.000,176.000=132.000,191.000=264.000,192.000=132.000,256.000=264.000,264.000=132.000;
#STOPS:160.000=0.220
,161.000=0.227
,162.000=0.228
,163.000=0.227
,164.000=0.228
,165.000=0.227
,166.000=0.228
,167.000=0.227
,191.000=0.230
,256.000=0.228
,257.000=0.227
,258.000=0.228
,259.000=0.227
,260.000=0.228
,261.000=0.227
,262.000=0.228
,263.000=0.227
;
#BGCHANGES:;
#ATTACKS:;

//---------------dance-single - ----------------
#NOTES:
     dance-single:
     :
     Hard:
     8:
     0.547,0.547,0.333,0.095,0.774: // measure 1
0000
0000
0000
0000
,  // measure 2
0000
0000
0000
0000
,  // measure 3
0000
0000
0000
0000
,  // measure 4
0000
0000
0000
0000
,  // measure 5
0001
0000
0000
0100
0000
0001
0010
0000
0001
0100
0000
0000
,  // measure 6
0010
1000
0010
1000
0000
0100
0010
0000
0010
0100
0000
0000
,  // measure 7
1100
0000
1000
0001
0000
0000
1010
0000
1000
0001
0000
0000
,  // measure 8
0001
0100
0001
1000
0000
0000
1000
0000
0000
1010
0000
0000
,  // measure 9
0101
0000
0000
0010
0000
0000
0100
0000
0100
1000
0000
1000
,  // measure 10
0010
0100
0000
0010
0000
0100
0001
0000
0001
0010
0000
0000
,  // measure 11
0100
0000
0010
0001
0000
0001
1000
0010
0000
1000
0000
0010
,  // measure 12
0100
0000
0000
0001
0000
0000
1000
0000
0001
0010
0000
0010
,  // measure 13
0100
0010
0000
1100
0000
0000
0011
0000
0000
0100
0000
0000
,  // measure 14
0101
0000
0000
1010
0000
0000
1000
0000
0001
1000
0000
0001
,  // measure 15
0100
0000
0000
0011
0000
0010
1000
0000
0000
0101
0000
0100
,  // measure 16
1000
0000
1000
0100
0000
0100
0010
0000
0010
0001
1000
0001
,  // measure 17
1000
0000
1000
0100
0000
1000
0010
0000
1000
0010
0100
0000
,  // measure 18
0100
0000
0001
0100
0000
0100
0001
0000
0001
0010
0100
0000
,  // measure 19
1000
0000
0000
0010
0000
0001
1000
0100
0000
0010
0000
0001
,  // measure 20
0100
0000
0010
1000
0000
0010
0100
0000
0100
1000
0100
0001
,  // measure 21
0010
1100
1001
0101
,  // measure 22
1010
0000
0000
1001
0000
0000
0010
0000
1000
0100
0000
1100
,  // measure 23
0000
0000
0000
0101
0000
0010
0000
0000
0000
1001
0000
0100
,  // measure 24
0001
1000
0010
0001
1000
0100
0001
0010
1000
0001
0100
1000
,  // measure 25
0100
0000
0000
1000
0000
0100
0000
0000
0100
0000
0000
0100
,  // measure 26
0010
0000
0000
0001
0000
0100
0001
0000
0000
0010
0000
0100
,  // measure 27
0000
0000
0100
0000
0000
1000
0100
0000
0000
0100
0000
0010
,  // measure 28
0001
0000
0100
0000
0000
0010
1000
0000
0100
0000
0000
1000
,  // measure 29
0010
0000
0100
0001
0000
1000
0010
0000
0100
0001
0000
0001
,  // measure 30
0010
0000
0100
1000
0000
0001
0000
0000
1000
0101
0000
0000
,  // measure 31
1010
0000
0000
0100
0001
0001
1000
0100
1000
0010
0000
0010
,  // measure 32
0100
0000
0100
0001
0000
0001
1000
0000
1000
0100
0010
0001
,  // measure 33
1000
0000
0010
1000
0000
0010
0100
0000
0001
0000
0000
0010
,  // measure 34
0001
0000
0010
0000
0000
0110
0000
0000
1000
0100
0000
1000
,  // measure 35
0001
0000
0101
0000
0000
1010
0000
0000
1000
0001
0000
0001
,  // measure 36
0010
0000
0001
0100
0000
0010
1000
0000
1100
0000
0000
0100
,  // measure 37
0010
0000
0010
0001
0000
0010
0100
0000
0010
1000
0000
0010
,  // measure 38
0001
0000
0001
1000
0000
1000
0000
0000
0100
0100
0010
0001
,  // measure 39
1000
0000
0001
0010
0000
0001
0100
0000
0001
1000
0000
1000
,  // measure 40
0100
0000
0100
0010
0000
0010
0001
0000
0001
1000
0100
0010
,  // measure 41
0002
0000
0000
0000
0000
0000
0000
0000
0000
0003
0000
0000
0000
0000
0000
0000
1010
0000
0000
0000
0000
0000
0000
0000
0000
0000
0000
0000
0000
0000
0000
0000
2000
0000
0000
0000
0000
0000
0000
0000
0000
3000
0000
0000
0000
0000
0000
0000
0011
0000
0000
0000
0000
0000
0000
0000
0000
0000
0000
0000
0000
0000
0000
0000
,  // measure 42
0200
0000
0000
0000
0000
0000
0000
0000
0000
0300
0000
0000
0000
0000
0000
0000
1001
0000
0000
0000
0000
0000
0000
0000
0000
0000
0000
0000
0000
0000
0000
0000
0020
0000
0000
0000
0000
0000
0000
0000
0000
0030
0000
0000
0000
0000
0000
0000
1100
0000
0000
0000
0000
0000
0000
0000
0000
0000
0000
0000
0000
0000
0000
0000
,  // measure 43
0010
0000
0010
0100
1000
0100
0010
0000
0010
0001
0010
0100
,  // measure 44
1000
0000
0001
0000
0000
0000
2002
0000
0000
3003
0000
0000
,  // measure 45
0010
1000
0100
0001
,  // measure 46
0100
0010
0001
0100
,  // measure 47
1000
0100
0010
1000
,  // measure 48
0001
0011
1010
1001
,  // measure 49
0010
0000
0000
0100
0000
0010
0001
0000
1000
0100
0000
0000
,  // measure 50
1000
0010
0000
0010
0000
0100
0001
0000
0000
0011
0000
0000
,  // measure 51
0100
0000
1000
0100
0000
1000
0010
0000
0000
0100
0000
0100
,  // measure 52
0001
1000
0000
0010
0000
0000
0001
0000
0001
0100
0000
0100
,  // measure 53
0010
0100
0000
1000
0000
0000
1010
0000
0000
0100
0000
0000
,  // measure 54
0001
0010
0000
0001
0000
0100
0001
0000
0010
0100
0000
1000
,  // measure 55
0000
0000
0100
1000
0000
0010
0000
0000
0100
0001
0000
0010
,  // measure 56
0100
0000
0100
1000
0000
1000
0001
0000
0001
0100
0000
0100
,  // measure 57
0010
0000
1000
0001
0000
0001
0100
0000
0100
0001
0000
0001
,  // measure 58
0010
0000
0010
0001
0000
0001
1000
0000
1000
0010
0000
0010
,  // measure 59
0100
0000
1000
0001
0000
0001
1000
0000
1000
0100
0000
0100
,  // measure 60
1000
0000
1000
0001
0000
0001
0100
1000
0001
0010
1000
0100
,  // measure 61
0001
0000
0001
0100
0000
1000
0100
0000
0010
0100
0000
0100
,  // measure 62
1000
0000
1000
0010
0000
0010
0100
0000
0100
0001
0000
0001
,  // measure 63
0010
0000
0100
1000
0000
1000
0010
0000
0001
0100
0000
0010
,  // measure 64
0100
0000
0100
1000
0000
0100
0010
0100
0010
1000
0001
1000
,  // measure 65
0002
0003
1100
0000
0020
0030
0101
0000
,  // measure 66
0200
0300
1001
0000
2000
3000
0110
0000
,  // measure 67
1001
0000
1000
0100
0010
0001
1001
0000
0001
0100
0010
1000
,  // measure 68
1001
0000
0010
0000
0000
0000
0220
0000
0000
0000
0000
0000
,  // measure 69
0000
0000
0000
0000
,  // measure 70
0330
0000
0000
0000
;

//---------------dance-single - ----------------
#NOTES:
     dance-single:
     :
     Medium:
     7:
     0.409,0.411,0.262,0.024,0.353:
0000
0000
0000
0000
,
0000
0000
0000
0000
,
0000
0000
0000
0000
,
0000
0000
0000
0000
,
1000
0000
1000
0100
0000
0000
0010
0000
0000
0001
0000
0000
,
0100
0000
0100
0001
0000
0000
0001
0000
0001
0010
0000
0010
,
0100
0000
0000
1000
0000
0001
0100
0000
0000
1000
0000
0001
,
0010
0000
1001
0010
,
0110
0000
0000
0001
0000
0000
1000
0000
0001
1000
0000
0100
,
1000
0000
0000
0100
0000
0100
0010
0000
0000
0011
0000
0000
,
0100
0000
0000
0010
0000
1000
0001
0000
0000
0010
0000
0001
,
1000
0010
0100
0101
,
1010
0100
0001
1001
,
0010
0000
0000
0100
0000
0000
0001
0000
0000
0010
0000
0010
,
0000
0000
0000
0100
0000
0100
0000
0000
0000
1000
0000
0000
,
0001
1001
1010
0101
,
1000
0000
0100
1000
0000
0000
0010
0000
0100
0010
0000
0000
,
0100
0001
0011
0100
,
0001
0000
0001
0100
0000
0000
0010
0000
0000
1000
0000
1000
,
0100
0000
0000
0010
0000
0000
0001
0000
0001
0010
0000
0010
,
0100
1100
0010
0011
,
1001
0000
0000
0100
0000
0000
0010
0000
0000
1000
0000
1000
,
0000
0000
0000
0001
0000
0001
0000
0000
0000
0010
0000
0010
,
0100
1100
0010
0011
,
2000
0000
0000
0010
0000
0000
0100
0000
0000
3001
0000
0001
,
0100
0000
0000
0000
0000
0100
0010
0000
0000
1000
0000
0000
,
0001
0000
0000
0001
0000
0010
0001
0000
0100
0000
0000
0010
,
1000
0000
0100
0000
0000
0010
0001
0000
0100
0000
0000
0010
,
1000
0000
0000
0100
0000
0000
0010
0000
0000
0001
0000
0001
,
0100
0000
0001
0010
0000
0010
0100
0000
0000
1100
0000
0000
,
1010
0000
0000
0100
0000
0100
0010
0000
0010
0000
0000
1000
,
0001
1000
1001
0101
,
0010
0000
0000
1000
0000
1000
0100
0000
0000
0010
0000
0000
,
0001
0000
0000
1000
0000
0001
0100
0000
0001
0010
0000
0010
,
0100
0000
0000
0011
0000
0000
1100
0000
0100
0010
0000
0001
,
1000
0000
0001
0000
0000
1000
0001
0000
1000
0000
0000
0010
,
0100
0000
0001
0100
0000
0010
0100
0000
0001
0100
0000
0010
,
1000
0000
0000
0001
0000
0000
0010
0000
0000
0100
0010
0000
,
0000
1000
0001
0000
,
0100
0000
0000
0100
0000
0000
0010
0000
0000
0100
0010
0100
,
0001
1000
0001
0010
,
0100
1000
0010
0100
,
0001
0010
0001
1000
,
0010
0000
0010
0000
0000
0000
0010
0000
0000
0000
0000
0000
,
0001
1000
0001
1000
,
0001
1000
0001
1000
,
0001
0010
0100
1000
,
0001
0001
1000
1000
,
0010
0000
0000
0100
0000
0000
0001
0000
0010
0001
0000
0001
,
0100
0000
0000
0010
0000
1000
0100
0000
0000
0100
0000
0000
,
1000
0000
1000
0010
0000
1000
0010
0000
0000
0100
0000
0001
,
0010
0000
0000
0010
0000
0000
0001
0000
0001
0010
0000
0010
,
0100
1100
0010
0011
,
1001
0000
0000
0100
0000
0000
0001
0000
1000
0001
0000
1000
,
0000
0000
0010
0100
0000
0010
0000
0000
1000
0100
0000
0010
,
0001
1001
0100
0110
,
1000
0000
1000
0100
0000
0000
1000
0000
0010
1000
0000
0000
,
0001
0000
0001
0100
0000
0100
0001
0000
0001
0010
0000
0000
,
0100
0000
0000
0010
0000
0010
0001
0000
0000
0100
0000
0001
,
1000
0000
0010
1000
0000
0001
0010
0000
0010
0100
0000
0100
,
1000
1010
0100
0101
,
1001
0010
1100
1010
,
0001
0000
0001
0100
0000
1000
0100
0000
0010
0100
0000
0010
,
0100
0000
0000
1000
0000
0000
0010
0000
0000
0100
0010
0100
,
0001
1000
0100
1000
,
0010
0100
0001
0010
,
0100
0000
0100
1000
0000
0000
0001
0000
0001
1000
0000
0000
,
1001
0000
0010
0000
0000
0000
0220
0000
0000
0000
0000
0000
,
0000
0000
0000
0000
,
0330
0000
0000
0000
;

//---------------dance-single - ----------------
#NOTES:
     dance-single:
     :
     Easy:
     4:
     0.233,0.321,0.159,0.016,0.000:
0000
0000
0000
0000
,
0000
0000
0000
0000
,
0000
0000
0000
0000
,
0000
0000
0000
0000
,
0010
1000
0001
0000
,
0010
0000
0100
0000
,
0010
0001
0100
0000
,
0010
0000
1000
1000
,
1100
0000
0010
0000
,
0001
1000
0001
0000
,
0100
0000
0010
0000
,
1000
0001
0100
0001
,
0010
0000
0100
0000
,
1000
0100
0010
0110
,
0000
1100
0000
0011
,
0000
0001
1000
0000
,
0001
0000
0100
0000
,
0010
1000
0001
0010
,
0100
0000
1000
0000
,
1000
0010
0100
0010
,
1000
0001
0000
1000
,
0000
0010
0000
0101
,
0000
1001
0000
1100
,
0000
0110
0001
1000
,
0010
0000
0100
0000
,
0001
0100
0000
1000
,
0000
0100
0000
0010
,
0100
1000
0000
0001
,
0000
0100
0000
0010
,
1000
0001
0010
0000
,
0110
0001
1000
0000
,
0010
0010
0010
0000
,
0000
0001
0000
0100
,
0001
1000
0000
1000
,
0100
0000
0010
0000
,
0010
0100
1000
0001
,
0000
0100
0000
0010
,
1000
0001
0010
0001
,
0000
1000
0001
0000
,
0010
0010
0100
0000
,
1000
0000
0100
0000
,
0001
0000
0100
0000
,
1000
0100
0001
0100
,
1000
0000
0000
0000
,
0010
0010
0000
0010
,
0000
0010
0000
0010
,
0100
0100
0000
0100
,
0000
1001
0000
1001
,
0010
1000
0100
0010
,
0001
0100
0010
0000
,
0100
0001
0010
0100
,
1000
0010
0100
0000
,
0001
0010
1000
0010
,
0001
0100
1000
0100
,
0000
0110
0000
1001
,
0010
0100
1000
0000
,
1000
0010
0001
0010
,
1000
0010
0001
0010
,
1000
0100
0001
0100
,
1000
0100
0001
0100
,
1000
1000
0100
0100
,
0010
0001
0100
0010
,
1000
0010
0100
1001
,
0110
0010
0001
1000
,
0101
0000
1100
0000
,
0011
0000
1010
0000
,
0001
0100
0010
1000
,
2002
0000
3003
0000
;

//---------------dance-single - ----------------
#NOTES:
     dance-single:
     :
     Beginner:
     1:
     0.135,0.187,0.040,0.087,0.000:
0000
0000
0000
0000
,
0000
0000
0000
0000
,
0000
0000
0000
0000
,
0000
0000
0000
0000
,
0001
0000
0000
0000
,
1000
0000
0000
0000
,
0100
0000
0010
0000
,
0110
0000
1001
0000
,
0001
0000
0100
0000
,
1000
0000
0000
0000
,
1000
0000
0100
0000
,
0001
0000
0000
0000
,
0001
0000
0010
0000
,
1000
0000
0000
0000
,
1000
0000
0010
0000
,
0001
0000
0000
0000
,
1000
0000
0100
0000
,
0010
0000
0001
0000
,
0100
0000
0010
0000
,
1000
0000
0001
0000
,
0010
0010
0010
0000
,
0100
0100
0100
0000
,
1000
0000
0001
0000
,
1001
0000
0010
0010
,
0020
0000
0030
0000
,
0200
0000
0300
0000
,
0002
0000
0003
0000
,
2000
0000
3000
0000
,
0100
0000
0010
0000
,
0002
0000
0003
0000
,
0100
0000
0010
0000
,
2000
0000
3000
0000
,
0000
0001
0000
0000
,
0000
1000
1000
0000
,
0000
0010
0010
0000
,
0000
0100
0100
0000
,
0001
0000
0010
0000
,
0100
0100
0000
1000
,
0000
0001
0000
0100
,
0000
0010
0000
1000
,
1000
0000
0000
0000
,
0000
0000
0000
0000
,
1001
0000
0000
0000
,
0010
0000
0010
0000
,
0000
0000
0000
0000
,
0000
0000
0000
0000
,
0000
0000
0000
0000
,
0100
0100
0100
0100
,
0000
0000
0001
0000
,
1000
0000
0100
0000
,
0010
0000
0100
0000
,
1000
0000
0001
0000
,
0100
0000
0010
0000
,
0001
0000
1000
0000
,
0100
0000
0010
0000
,
1000
0000
0100
0000
,
0002
0000
0003
0000
,
2000
0000
3000
0000
,
0020
0000
0030
0000
,
0200
0000
0300
0000
,
0001
0001
0000
1000
,
0000
0100
0000
0010
,
0010
0000
0100
0000
,
1000
0000
0001
0001
,
0001
0000
0000
0000
,
0000
0000
0000
0000
,
1001
0000
0000
0000
,
0020
0000
0030
0000
;
