#TITLE:No More;
#SUBTITLE:;
#ARTIST:Darwin Vs. Rampant Feat. Ant Johnson;
#TITLETRANSLIT:;
#SUBTITLETRANSLIT:;
#ARTISTTRANSLIT:;
#CREDIT:;
#BANNER:;
#BACKGROUND:;
#LYRICSPATH:;
#CDTITLE:;
#MUSIC:No More.mp3;
#OFFSET:-0.060;
#SAMPLESTART:43.380;
#SAMPLELENGTH:10.840;
#SELECTABLE:YES;
#BPMS:0.000=88.600,64.000=177.200;
#STOPS:;
#BGCHANGES:;

//---------------dance-single - xRGTMx----------------
#NOTES:
     dance-single:
     xRGTMx:
     Hard:
     8:
     0.457,0.485,0.246,0.430,0.097:
0000
0000
0000
0000
,
0000
0000
0000
0000
,
0000
0000
0000
0000
,
0000
0000
0000
0000
,
0020
2030
3200
0302
,
0023
0000
2030
0000
3100
0100
0200
0000
,
0320
0032
0203
2300
,
3002
0023
2030
3002
,
0023
0000
0000
0000
,
0230
0000
0000
0000
,
2300
0000
0000
0000
,
3002
0000
0000
0000
,
2003
0010
3200
0010
,
0302
0203
2300
3002
,
2003
0100
3020
0230
,
2300
0000
3200
0000
0302
0000
1003
0001
,
1000
0000
0000
0000
1100
0000
0000
0010
0000
0000
0000
0000
0000
0000
0010
0000
,
0001
0000
0000
0000
0101
0000
0000
0100
0000
0000
0000
0000
0000
0000
0010
0000
,
1000
0000
0000
0000
1001
0000
0000
0001
0000
0000
0000
0000
0000
0000
0100
0000
,
0010
0000
0000
0000
0110
0000
0000
0100
0000
0000
0000
0000
0000
0000
0001
0000
,
0010
0000
0000
0000
1100
0000
0000
0010
0000
0000
0000
0000
0000
0000
0001
0000
,
1000
0000
0000
0000
0110
0000
0000
0100
0000
0000
0000
0000
0000
0000
0001
0000
,
1000
0000
0000
0000
0110
0000
0000
0010
0000
0000
0000
0000
0000
0000
0001
0000
,
1000
0000
0000
0000
0110
0000
0000
0010
0000
0000
0010
0000
0001
0000
0100
0000
,
1000
0000
0000
0000
1100
0000
0000
0100
0000
0001
0000
0000
0000
0000
1000
0000
,
0100
0000
0000
0000
1100
0000
0000
0100
0000
0001
0000
0000
0000
0000
1000
0000
,
0010
0000
0000
0000
1010
0000
0000
0010
0000
0001
0000
0000
0000
0000
1000
0000
,
0010
0000
0000
0000
1010
0000
0000
0010
0000
0001
0000
0000
0000
0000
1000
0000
,
0100
0000
0000
0000
0101
0000
0000
0010
0000
1000
0000
0000
0000
0000
0001
0000
,
0010
0000
0000
0000
1100
0000
0000
0010
0000
0001
0000
0000
0000
0000
1000
0000
,
0010
0000
0000
0000
0110
0000
0000
1000
0000
1000
0000
0000
0000
0000
0001
0000
,
0002
0010
0100
1003
,
1001
0000
1000
0100
0001
0100
1000
0002
,
0000
0000
0103
0010
1000
0000
0100
0020
,
0000
0032
0000
0000
2003
0000
0000
0000
,
3001
0000
0011
0000
0010
0100
1000
0020
,
0000
0000
0130
0001
0010
1000
0010
0002
,
0000
0000
0103
0010
1000
0100
0001
0200
,
0000
2300
0000
0000
3001
0000
0000
0000
,
0011
0000
0110
0000
0100
1000
0001
0100
,
0010
0110
0101
1001
,
1000
0000
0100
0010
1000
0001
0100
1000
,
0001
0101
1010
1100
,
0110
0000
0010
0001
0100
1000
0001
0010
,
1000
0000
0001
0010
0100
1000
0010
0100
,
0010
0000
0100
0001
1000
0100
0010
0001
,
0100
0000
0010
1000
0100
0001
1000
0010
,
0001
0100
1000
0001
0010
1000
0100
0010
,
0002
0010
0100
1000
,
0203
0010
1000
0001
,
0320
1000
0100
0001
,
2030
0001
0010
0100
,
3002
0010
0100
1000
,
0023
0100
1000
0001
,
0230
1000
0001
0010
,
2300
0001
0010
0100
,
3001
0000
1000
0010
0100
0010
1000
0100
,
0010
0000
0001
0010
0100
1000
0001
0100
,
0010
0000
0100
0001
0010
0100
0001
0100
,
1000
0000
0001
0100
0010
1000
0001
0000
,
1000
0000
0100
1000
0010
0100
0010
1000
,
0100
0000
0010
0100
1000
0001
0100
0010
,
0100
0000
0001
0010
0100
1000
0001
0100
,
0010
0000
1010
0000
0000
0110
0000
0100
,
0002
0000
0000
0000
,
0003
0000
0000
0000
;

//---------------dance-single - xRGTMx----------------
#NOTES:
     dance-single:
     xRGTMx:
     Beginner:
     1:
     0.102,0.141,0.044,0.000,0.000:
0000
0000
0000
0000
,
0000
0000
0000
0000
,
0000
0000
0000
0000
,
0000
0000
0000
0000
,
1000
0000
0000
0000
,
0001
0000
0000
0000
,
0100
0000
0000
0000
,
0010
0000
0000
0000
,
1001
0000
0000
0000
,
0000
0000
0000
0000
,
0100
0000
0000
0000
,
0010
0000
0000
0000
,
1000
0000
0000
0000
,
1000
0000
0000
0000
,
0001
0000
0000
0000
,
0001
0000
0001
0000
,
0100
0000
0000
0000
,
0100
0000
0000
0000
,
0010
0000
0000
0000
,
0010
0000
0000
0000
,
1000
0000
0000
0000
,
1000
0000
0000
0000
,
0001
0000
0000
0000
,
0001
0000
0000
0000
,
1000
0000
0000
0000
,
1000
0000
0000
0000
,
0100
0000
0000
0000
,
0100
0000
0000
0000
,
0010
0000
0000
0000
,
0010
0000
0000
0000
,
0001
0000
0000
0000
,
0001
0000
0000
0000
,
1001
0000
0000
0000
,
0000
0000
0000
0000
,
0110
0000
0000
0000
,
0000
0000
0000
0000
,
1001
0000
0000
0000
,
0000
0000
0000
0000
,
0110
0000
0000
0000
,
0000
0000
0000
0000
,
1000
0000
1000
0000
,
1000
0000
0000
0000
,
0001
0000
0001
0000
,
0001
0000
0000
0000
,
0100
0000
0100
0000
,
0100
0000
0000
0000
,
0010
0000
0010
0000
,
0010
0000
0000
0000
,
1000
0000
1000
0000
,
0100
0000
0100
0000
,
0010
0000
0010
0000
,
0001
0000
0001
0000
,
1000
0000
1000
0000
,
0010
0000
0010
0000
,
0100
0000
0100
0000
,
0001
0000
0001
0000
,
1000
0000
1000
0000
,
0100
0000
0100
0000
,
0010
0000
0010
0000
,
0001
0000
0001
0000
,
1000
0000
1000
0000
,
0010
0000
0010
0000
,
0100
0000
0100
0000
,
0001
0000
0000
0000
,
1000
0000
0000
0000
;

//---------------dance-single - xRGTMx----------------
#NOTES:
     dance-single:
     xRGTMx:
     Easy:
     4:
     0.204,0.257,0.035,0.079,0.000:
0000
0000
0000
0000
,
0000
0000
0000
0000
,
0000
0000
0000
0000
,
0000
0000
0000
0000
,
0010
0010
1000
0000
,
0001
0000
1000
0000
,
0100
0100
0010
0000
,
0001
0000
1000
0000
,
0020
0000
0030
0000
,
0200
0000
0300
0000
,
0002
0000
0003
0000
,
2000
0000
3001
0000
,
1000
0000
0100
0000
,
0001
0000
0100
0000
,
2000
3000
0002
0003
,
0200
0300
0020
0030
,
1000
0000
1000
0000
,
0010
0010
0010
0000
,
0100
0000
0100
0000
,
0001
0001
0001
0000
,
0010
0000
0010
0000
,
0100
1000
0100
0000
,
0010
0000
0010
0000
,
0001
0100
0001
0000
,
1000
0000
1000
0000
,
0001
0000
0001
0000
,
0100
0010
0100
0000
,
0010
0100
0010
0000
,
1000
0000
1000
0000
,
0100
0000
0100
0000
,
0001
0001
0100
0000
,
1000
1000
0010
0000
,
0100
0000
0001
0000
,
0010
0000
0100
0000
,
1000
0100
0010
0000
,
0001
0100
0010
0000
,
1000
0000
1000
0000
,
0001
0000
0001
0000
,
0100
0100
0100
0100
,
0010
0010
0010
0010
,
1000
0000
0001
0000
,
0100
0000
0010
0000
,
0100
0010
1000
0000
,
0100
0010
0001
0000
,
0100
0000
0010
0000
,
0100
0000
0001
0000
,
0010
0010
0010
0010
,
0100
0100
0100
0100
,
1000
0000
1000
0000
,
0001
0000
0001
0000
,
0110
0000
0110
0000
,
1001
0000
1001
0000
,
1000
0000
0100
0000
,
0010
0000
0001
0000
,
0100
0100
0100
0100
,
0010
0010
0010
0010
,
1000
0000
0100
0000
,
0010
0000
0001
0000
,
0100
0100
0100
0000
,
0010
0010
0010
0000
,
1000
0000
0001
0000
,
0100
0000
0010
0000
,
1000
1000
1000
1000
,
0001
0001
0001
0001
,
0200
0000
0000
0000
,
0300
0000
0000
0000
;

//---------------dance-single - xRGTMx----------------
#NOTES:
     dance-single:
     xRGTMx:
     Medium:
     6:
     0.376,0.428,0.316,0.299,0.000:
0000
0000
0000
0000
,
0000
0000
0000
0000
,
0000
0000
0000
0000
,
0000
0000
0000
0000
,
0200
0302
0023
0230
,
2300
0001
3002
1000
,
2003
3020
0230
0302
,
0023
0000
0230
0000
,
2300
0000
0000
0000
,
3002
0000
0000
0000
,
0203
0000
0000
0000
,
0320
0000
0000
0000
,
2030
0001
3002
0100
,
0203
0000
0320
0000
,
2030
3200
0320
0032
,
0103
0010
0110
1001
,
1000
1000
0001
0000
,
0101
0110
0010
0000
,
0100
0100
0001
0000
,
1100
0110
0011
0000
,
1000
0001
1000
0000
,
0110
0110
1001
0000
,
1000
0001
0100
0000
,
0010
0100
0010
0000
0100
0010
0100
0000
,
0001
0000
1000
0000
0001
0000
0000
0100
,
0010
0000
0100
0000
0010
0000
0000
1000
,
0100
0000
0010
0000
0100
0000
0000
1000
,
0001
0000
0100
0000
0010
0000
0000
0100
,
0001
0000
0011
0000
1100
0000
0000
1000
,
0001
0000
0110
0000
0011
0000
0000
0010
,
0100
0000
0110
0000
1001
0000
0000
0001
,
2000
3020
0032
2003
,
3100
0001
0010
0100
,
2000
3002
0203
0302
,
0013
0100
1000
0001
,
1100
0000
0110
0000
0010
0001
0010
0000
,
0100
1000
0001
0100
,
1000
0001
0010
1000
,
0100
0010
1000
0010
,
0011
0000
0110
0000
0010
0100
1000
0000
,
0001
1000
0010
0100
,
0001
0010
0100
1000
,
1100
0110
0011
0000
,
0001
0010
0100
0000
2000
0000
0000
0000
,
3001
0100
0010
0100
,
0001
0010
0100
1000
,
0110
0110
1001
0000
,
0100
0010
1000
0000
0100
0010
0001
0000
,
1000
0100
0010
0001
,
1000
0010
0100
0010
,
0101
0110
1001
1000
,
0100
0010
0100
1000
0100
0000
0010
0000
,
0001
1000
0001
0100
,
0010
0010
0100
0100
,
0001
0010
0100
1000
,
1100
0000
0110
0000
0010
0001
0100
0010
,
1000
0001
1000
0010
,
0100
0100
0010
0010
,
0100
0001
0010
0100
,
1000
1100
0110
0011
,
0001
0000
0010
0100
1000
0000
0001
0000
,
1000
0000
0010
0100
0001
0000
1000
0000
,
0100
0010
0100
0000
1000
0001
0100
0000
,
0110
0000
0101
0000
0000
1000
0000
1000
,
0002
0000
0000
0000
,
0003
0000
0000
0000
;
