#TITLE:NeoMax;
#SUBTITLE:;
#ARTIST:DM Ashura;
#TITLETRANSLIT:;
#SUBTITLETRANSLIT:;
#ARTISTTRANSLIT:;
#GENRE:;
#CREDIT:;
#MENUCOLOR:;
#METERTYPE:DDR;
#BANNER:NeoMax.png;
#BACKGROUND:NeoMax-BG.png;
#LYRICSPATH:;
#CDTITLE:;
#MUSIC:neoMAX.mp3;
#OFFSET:-0.043;
#SAMPLESTART:17.578;
#SAMPLELENGTH:12.000;
#SELECTABLE:YES;
#LISTSORT:;
#BPMS:0.000=340.000,368.000=170.000,370.000=85.000,371.000=42.500,372.000=85.000,404.000=170.000,408.000=255.000,414.000=340.000,606.000=170.000,608.000=127.500,611.000=170.000,613.000=340.000,642.729=340.000;
#STOPS:;
#BGCHANGES:;
#ATTACKS:;

//---------------dance-single - ----------------
#NOTES:
     dance-single:
     :
     Beginner:
     4:
     0.251,0.512,0.144,0.029,0.000:
0000
0000
0000
0000
,
0000
0000
0000
0000
,
0000
0000
0000
0000
,
0000
0000
0000
0000
,
0000
0000
0000
0000
,
0000
0000
0000
0000
,
0000
0000
0000
0000
,
0000
0000
0000
0000
,
0000
0000
0000
0000
,
0000
0000
0000
0000
,
0000
0000
0000
0000
,
0000
0000
0000
0000
,
1000
0000
0000
0000
,
1000
0000
0000
0000
,
0001
0000
0000
0000
,
0001
0000
0000
0000
,
0100
0000
0100
0000
,
0010
0000
0010
0000
,
1000
0000
1000
0000
,
0001
0001
0001
0000
,
0010
0000
0000
0000
,
0000
0000
0000
0000
,
0010
0000
0000
0000
,
0000
0000
0000
0000
,
0100
0000
0000
0000
,
0000
0000
0000
0000
,
0100
0000
0000
0000
,
0000
0000
0000
0000
,
1000
0000
1000
0000
,
1000
0000
0000
0000
,
0001
0000
0001
0000
,
0001
0000
0000
0000
,
0100
0000
0100
0000
,
0100
0000
0000
0000
,
0010
0000
0010
0000
,
0010
0000
0000
0000
,
1000
0000
0001
0000
,
1000
0000
0000
0000
,
0001
0000
1000
0000
,
0001
0000
0000
0000
,
0100
0000
0000
0000
,
0100
0000
0000
0000
,
0100
0000
0010
0000
,
0100
0000
0000
0000
,
1001
0000
0000
0000
,
0000
0000
0000
0000
,
0001
0000
0000
1000
,
0000
0000
0010
0000
,
0100
0000
0000
0000
,
0000
0000
0000
0000
,
0100
0000
0000
0001
,
0000
0000
1000
0000
,
0010
0000
0000
0000
,
0000
0000
0000
0000
,
0010
0000
0000
1000
,
0000
0000
0100
0000
,
0001
0000
0000
0000
,
0000
0000
0000
0000
,
0100
0000
0000
0010
,
0000
0000
0001
0000
,
1000
0000
1000
0000
,
0000
0100
0000
0010
,
0000
0000
0001
0000
,
1000
0000
0001
0000
,
0001
0000
0001
0000
,
0000
0100
0000
0010
,
0000
0000
1000
0000
,
0001
0000
1000
0000
,
0100
0000
0100
0000
,
0000
0010
0000
0001
,
0000
0000
1000
0000
,
0010
0000
0000
0000
,
0100
0000
0001
0000
,
0000
1000
0000
0100
,
0000
0000
0010
0000
,
0010
0000
0000
0000
,
1001
0000
0000
0000
,
0100
0000
0000
0000
,
1000
0000
0100
0000
,
0001
0000
0000
0000
,
1001
0000
0000
0000
,
0010
0000
0000
0000
,
1000
0000
0010
0000
,
0001
0000
0000
0000
,
1001
0000
0000
0000
,
1000
0000
0000
0000
,
0001
0000
0100
0000
,
0010
0000
0000
0000
,
1001
0000
0000
0000
,
0100
0000
0000
0000
,
0001
0000
0100
0000
,
0010
0000
0000
0000
,
2002
0000
0000
3003
,
1000
0100
0010
0000
,
0001
0000
0100
0000
,
0010
0000
1000
0000
,
0001
1000
0100
0000
,
1001
0100
0100
0000
,
1001
0010
0010
0000
,
1000
0100
0001
0010
,
0001
1000
0001
1000
0001
0000
0000
0000
,
1000
0000
0100
0000
,
1000
0000
0000
1000
0000
0000
0100
0000
,
0000
0100
0000
0000
1000
0000
0000
0000
,
0000
0000
0010
0000
,
0000
0000
0100
0000
,
0001
0000
1000
0000
,
0000
0000
0001
0000
,
0000
0000
1000
0000
,
0010
0000
0100
0000
,
0000
0000
0000
0000
,
0100
0000
0001
0000
,
1000
0000
0100
0000
,
0010
0000
0001
0000
,
1000
0000
0010
0000
,
1000
0000
0001
0000
,
0000
0000
0100
0000
,
0100
0000
0010
0000
,
0000
0000
0000
0000
,
0010
0000
1001
0000
,
0000
0000
0110
0000
,
0000
0000
1001
0000
,
0001
0000
1000
0000
,
0000
0000
0110
0000
,
0000
0000
1001
0000
,
0000
0000
1001
0000
,
0001
0000
1000
0000
,
0000
0000
0010
0000
,
1000
0000
0100
0000
,
0000
0000
0010
0000
,
0001
0000
0100
0000
,
0000
0000
0001
0000
,
0100
0000
1000
0000
,
0000
0000
0001
0000
,
0010
0000
1000
0000
,
0000
0000
0100
0000
,
1000
0000
0100
0000
,
1000
0000
0100
0000
,
1000
0000
0100
0000
,
1000
0000
0001
0000
,
0100
0000
0001
0000
,
0100
0000
0001
0000
,
0100
0000
0001
0000
,
0100
0000
0010
0000
,
1000
0000
0010
0000
,
1000
0000
0010
0000
,
1000
0000
0010
0000
,
1000
0000
0001
0000
,
0010
0000
0001
0000
,
0010
0000
0001
0000
,
0010
0000
0001
0000
,
0010
0000
1001
0000
,
0010
0000
0000
0010
0000
0000
0010
0000
,
0000
1001
0000
0000
,
0000
0110
0000
0000
,
0000
1001
0000
0110
,
0000
2002
0000
0000
,
0000
0000
0000
0000
,
0000
3003
0000
0000
;

//---------------dance-single - ----------------
#NOTES:
     dance-single:
     :
     Medium:
     8:
     0.539,1.000,0.316,0.172,0.029:
0000
0000
0000
0000
,
0000
0000
0000
0000
,
0000
0000
0000
0000
,
0000
0000
0000
0000
,
0000
0000
0000
0000
,
0000
0000
0000
0000
,
0000
0000
0000
0000
,
0000
0000
0000
0000
,
0000
0000
0000
0000
,
0000
0000
0000
0000
,
0000
0000
0000
0000
,
0000
0000
0000
0000
,
1001
0000
0000
0100
0000
0000
0000
0000
,
0100
1000
0010
0000
,
0100
0000
0000
0001
0000
0000
1000
0000
,
0000
0001
0000
0000
0100
0000
0010
0000
,
1000
0000
0000
0001
0000
0000
0000
0000
,
1000
0000
0100
0000
,
1000
0100
1000
0100
,
0010
0000
0001
0000
0010
0001
0010
0001
,
1000
0100
0010
0000
,
0001
0100
0010
0000
,
1000
0100
0001
0100
,
1000
0100
0001
0000
,
0100
1000
0010
0000
,
0100
0001
0010
0000
,
1000
0010
0001
0010
,
1000
0010
0001
0000
,
0100
1000
0010
0000
,
0100
0001
0010
0000
,
0100
1000
0001
0100
,
1000
0100
0001
0000
,
0100
0001
0010
0000
,
0100
1000
0010
0000
,
1000
0100
0010
0001
,
0010
1000
0010
0001
,
1000
0010
0100
0000
,
0001
0010
0100
0000
,
1000
0100
0001
0100
,
1000
0010
0001
0000
,
0010
0100
0001
0000
,
0100
0010
1000
0000
,
0001
1000
0100
1000
,
0001
0100
0010
0000
,
1100
0000
0001
0100
,
0001
0000
1000
0000
,
1100
0000
0001
0100
,
0000
0010
1000
0001
,
0011
0000
1000
0100
,
1000
0000
0001
0000
,
0101
0000
0010
1000
,
0000
0100
0010
0000
,
1001
0000
0010
0100
,
0010
0000
1000
0000
,
1001
0000
0100
0010
,
0000
0100
1000
0000
,
0101
0000
0100
0001
,
0010
0000
0100
0000
,
1000
0010
1000
0010
,
0100
0001
0100
0001
0100
0000
0001
0000
,
1000
0100
1100
0000
,
0001
0101
0000
0110
,
0000
1000
0010
0100
,
0110
0000
0101
0000
,
1001
0001
0010
0000
,
0100
0010
0000
1100
,
0000
0101
0010
1000
,
0001
0000
0100
0000
,
0001
0100
0101
0000
,
0000
1001
0000
1100
,
0000
1000
0100
0010
,
0110
0000
1100
0000
,
1001
0001
0100
0000
,
0100
0001
1000
1001
,
0000
1000
0010
0100
,
0110
0000
0100
0001
,
1001
0000
1000
0100
,
0010
0000
0000
0001
0000
0000
1000
0000
,
0001
0000
0000
0100
0000
0000
0010
0000
,
1000
0000
0000
0000
0001
0000
1000
0100
,
1000
0000
0001
0100
,
0001
0000
0000
1000
0000
0000
0100
0000
,
0010
0000
0000
0001
0000
0000
1000
0000
,
0010
0000
1000
0000
0001
0000
0100
0010
,
0100
0000
0001
1000
,
0100
0000
0000
0001
0000
0000
0100
0000
,
1000
0000
0000
0010
0000
0000
0011
0000
,
0000
0000
1000
0000
,
1001
0000
0001
0100
,
0010
0000
0000
0100
0000
0000
0001
0000
,
1000
0000
0000
0100
0000
0000
0010
0000
,
0100
0000
1000
0000
,
2002
0000
0000
3003
,
1100
0000
0101
0000
1000
0100
0010
0000
,
0002
0000
1003
0010
0001
0000
0000
0000
,
0010
0000
1100
0100
0001
0100
1000
0100
,
0002
0000
0013
0100
1000
0000
0000
0000
,
1100
0100
0010
0001
0100
0010
0100
0000
,
0101
0100
0010
1000
0100
0010
0100
0000
,
1100
0001
0100
0010
1010
1000
0001
0010
,
0011
0100
1000
0002
2000
0000
0000
3003
,
2002
3003
2002
3003
,
2000
0000
0000
3200
0000
0000
0320
0000
,
0000
0032
0000
0000
1003
0000
0000
0000
,
0001
0100
0010
0000
,
1000
0000
0100
0000
0010
0000
0000
0001
,
0000
0100
0001
0000
,
0010
0100
1000
0000
,
0001
0000
0100
0000
1000
0000
0000
0100
,
0000
0001
0010
1000
,
0010
0100
1000
0000
,
0010
1000
0100
0000
,
1000
0100
0010
0000
,
0010
0000
0001
0000
1000
0000
0000
0001
,
0000
0100
0010
0000
,
0100
0001
1000
0000
,
0001
0000
1000
0000
0001
0000
0000
0010
,
0000
0001
1000
0000
,
0100
0000
1000
0000
,
0001
0000
0100
0000
0101
0000
0000
0010
,
0000
0000
1000
0000
0100
0000
0000
0010
,
0000
0000
0100
0000
1000
0000
0000
0001
,
0000
0100
0010
0000
,
0100
0000
0001
0000
0010
0000
0000
1000
,
0000
0000
0010
0000
0100
0000
0000
1000
,
0000
0000
0010
0000
0100
0000
0000
0001
,
0000
0100
0010
0000
,
0100
0000
0000
0000
0110
0000
0000
0001
,
0000
0000
1000
0000
0100
0000
0000
0010
,
0000
0000
0100
0000
1000
0000
0000
0001
,
0000
0000
0100
0000
0010
0000
0000
0100
,
0000
0000
0001
0000
1000
0000
0000
0010
,
0000
0000
1000
0000
0100
0000
0000
0010
,
0000
0000
0001
0000
0100
0000
0000
0001
,
0000
0000
0010
0000
0100
0000
0000
1000
,
0000
0000
0001
0000
0100
0000
0000
0100
,
0000
0000
0100
0000
0000
0100
0000
0000
,
0010
0000
1000
0000
0001
0000
0000
0001
,
0000
0000
0001
0000
0000
0001
0000
0000
,
1000
0000
0010
0000
0100
0000
0000
0100
,
0000
0000
0100
0000
0000
0100
0000
0000
,
0010
0000
1000
0000
0001
0000
0000
0001
,
0000
0000
0001
0000
0000
0001
0000
0000
,
1000
0000
0010
0000
0100
0000
0000
0001
,
0000
0000
0010
0000
0000
0100
0000
0000
,
1000
0000
0010
0000
1000
0000
0000
0100
,
0000
0000
0010
0000
0000
0001
0000
0000
,
0100
0000
0010
0000
1000
0000
0000
0001
,
0000
0000
1000
0000
0000
0100
0000
0000
,
0010
0000
0001
0000
1000
0000
0000
0001
,
0000
0000
0100
0000
0000
0010
0000
0000
,
0100
0001
2002
3003
,
2200
0000
3300
0202
0000
0303
2002
0000
,
3003
0000
0000
1000
0000
0100
0000
1000
0000
0000
0000
0000
,
0000
0000
0000
0001
0000
0100
0000
0001
0000
0000
0000
0000
,
0000
0000
0000
1000
0000
0100
0000
1000
0000
0001
0000
0100
,
0000
0002
0000
2000
0000
0000
0000
0000
0000
0000
0000
0000
,
0000
0000
0000
0000
,
0000
3003
0000
0000
;

//---------------dance-single - ----------------
#NOTES:
     dance-single:
     :
     Hard:
     10:
     0.929,1.000,0.985,0.417,0.237:
0000
0000
0000
0000
,
0000
0000
0000
0000
,
0000
0000
0000
0000
,
0000
0000
0000
0000
,
0000
0000
0000
0000
,
0000
0000
0000
0000
,
0000
0000
0000
0000
,
0000
0000
0000
0000
,
0000
0000
0000
0000
,
0000
0000
0000
0000
,
0000
0000
0000
0000
,
0000
0000
0000
0000
,
1000
0100
0000
0010
0001
0000
1000
0000
,
0010
0000
1000
0000
0001
0100
0001
0000
,
0101
0000
0000
1001
0000
0000
1100
0000
,
0000
1001
0000
0000
0101
0000
0010
0000
,
1100
0000
0000
0001
0100
0000
0010
0000
,
0100
0001
1000
0100
,
0010
0001
0100
0010
1000
0100
0001
0100
,
1000
0010
0001
0010
1000
0001
0100
0010
,
0100
0000
0100
0000
0001
0010
0000
0001
,
0010
0100
1000
0010
1000
0010
0000
1000
,
0010
0100
0001
1000
0001
0100
0001
1000
,
1000
0100
1001
0000
,
0100
0000
0100
0000
1000
0100
0000
1000
,
0100
0010
0001
0100
0001
0100
0000
0001
,
0100
0010
1000
0001
1000
0010
1000
0001
,
0001
0010
1001
0100
,
1200
0000
0310
0000
0000
0001
0000
0001
,
0100
0000
0102
0000
0000
1003
0000
1000
,
0100
0000
2100
0000
0000
3001
0000
0001
,
0101
1100
0010
1001
,
2010
0000
0001
0000
0000
3001
0000
0001
,
0010
0000
0012
0000
0000
0100
0000
0103
,
0010
0000
0120
0000
0000
1030
0000
1000
,
1100
0101
0010
1001
,
1100
0000
0102
0000
0000
1003
0000
1000
,
0100
0000
2100
0000
0000
3001
0000
0001
,
0100
0000
0210
0000
0000
0301
0000
0001
,
1001
1100
0101
1001
,
0010
0000
2010
0000
0000
3100
0000
0100
,
0010
0000
0012
0000
0000
1000
0000
1003
,
0100
0000
0021
0000
0000
0100
0000
0130
,
0110
1010
0110
0011
,
1001
0100
0001
1000
,
0100
0000
1000
0000
0001
0010
0001
0000
,
0012
0100
0103
2010
,
0100
0000
3100
0000
0010
0100
1000
0000
,
0101
0000
0000
0001
0100
0000
0010
0000
,
1010
0000
0000
1000
0100
0000
0010
0000
,
0012
1000
1003
2100
,
0001
0000
3001
0000
0110
0000
0001
1000
,
0100
0000
0000
0100
0010
0000
0001
0000
,
0101
0000
0000
0001
0100
0000
0010
0000
,
2010
0001
3001
0012
,
1000
0000
1003
0000
0110
0000
1000
0010
,
0100
0001
0100
0001
0100
0001
0100
0001
,
1000
0010
1000
0010
1000
0010
1000
0010
,
1000
0100
0010
0001
1000
0010
0100
0001
,
1000
0100
1000
0001
0010
0001
1000
0010
,
0100
0001
1001
0000
,
0000
1100
0010
0101
,
1000
1001
1001
0001
,
0120
0000
1030
0000
,
1100
0001
0102
0000
,
0000
1003
0000
1100
,
0000
0110
0001
1100
,
0021
0000
0130
0000
,
1100
0000
0010
0100
0001
0000
0000
0000
,
0000
0011
0001
1100
,
1000
0000
0001
0100
0010
0000
0010
0000
,
0202
0303
2002
3003
,
1100
0000
1000
0100
0010
0000
0011
0000
,
0000
0101
0000
1001
,
1000
0000
1000
0010
0100
0000
0001
0000
,
0102
0000
0003
0000
2100
0000
3001
0100
,
1000
0000
0100
0000
0100
0000
0001
0010
,
0001
0000
1000
0100
0000
0100
0001
0000
,
0100
0000
0100
1000
0000
1000
0010
0000
,
0000
0000
0000
0000
0110
0000
0001
1000
,
0020
0000
0100
0000
0130
0000
0100
0001
,
1000
0000
0100
0001
0000
0001
0100
0000
,
1000
0010
0000
0010
1000
0000
0102
0000
,
0000
0000
1003
0000
0010
0000
0100
0001
,
1000
0001
0000
0011
0000
0000
0010
0100
,
1000
0100
0000
1100
0000
0000
1001
0000
,
1100
0000
1000
0001
0010
0000
0011
0000
,
0001
0000
1100
0000
1000
0000
0010
0100
,
0001
0000
1001
0000
0101
0000
0001
1000
,
0100
0000
1001
0000
1100
0000
1000
0100
,
0010
0001
0100
0000
0010
0100
0001
0000
,
0100
0010
1000
0001
0010
0100
1000
0010
,
2002
0000
0000
3003
,
1001
0000
0000
0000
1000
0000
0100
0000
0001
0000
0000
0100
0000
0000
1000
0000
0010
0000
0000
0100
0000
0000
0001
0000
0000
0000
1000
0000
0010
0000
0100
0000
,
0002
0000
0000
0000
0003
0000
0010
0000
0100
0000
0000
1000
0000
0000
0001
0000
0100
0000
1000
0000
0100
0000
0010
0000
0100
0000
0001
0000
1000
0000
0001
0000
,
0010
0000
0000
0000
0010
0000
0100
0000
1000
0000
0000
1000
0000
0000
0001
0000
0100
0000
0000
0010
0000
0000
0100
0000
0000
0000
0100
0000
0001
0000
1000
0000
,
1002
0000
0000
0000
0000
0000
1003
0001
1000
0000
0000
0010
0000
0000
0100
0000
0001
0000
0000
0000
0000
0000
0000
0000
0000
0000
0000
0000
0001
0000
0010
0000
,
0011
0000
0000
1000
0000
0000
0100
0000
1000
0000
0000
0001
0000
0000
0100
0000
0010
0000
0000
0100
0000
0000
1001
0000
0000
0000
0000
0000
0000
0000
1000
0000
,
1100
0000
0000
0001
0000
0000
0100
0000
0010
0000
0000
0100
0000
0000
0001
0000
1000
0000
0000
0010
0000
0000
0100
0000
0000
0000
0000
0000
0000
0000
0000
0000
,
0101
0000
0000
0001
0000
0000
1000
0000
1100
0000
0000
1000
0000
0000
0001
0000
0011
0000
0000
0001
0000
0000
1000
0000
1010
0000
0000
1000
0000
0000
0100
0000
,
0110
0000
0010
0001
0100
0010
1000
0100
0010
0001
1000
0001
1000
0010
0100
0002
2000
0000
0000
0000
0000
0000
0000
0000
3003
0000
0000
0000
0000
0000
0000
0000
,
2100
0000
0200
3300
,
0012
0000
0000
2003
0000
0000
3020
0000
,
0000
0230
0000
0000
0301
0000
0010
0001
,
0000
0001
0100
0000
0010
0000
1000
0100
,
0000
0100
0010
0000
0011
0000
0000
1001
,
0000
1100
0000
1000
,
0010
0100
0001
0000
2001
0000
0001
0000
,
3001
0000
0001
0100
0010
0000
0100
0000
,
0001
1000
2200
0000
,
3300
0000
0000
0100
,
0010
0000
0001
0000
1001
0000
0000
0001
,
0100
0000
0010
0000
1010
0000
0000
1001
,
0000
0000
0101
0000
0010
0100
0001
0000
,
2000
0200
3000
0301
,
0100
0000
1100
0000
0101
0000
0100
0001
,
1000
0000
0010
0100
0001
0000
0010
0000
,
1100
0101
2002
3003
,
0001
0000
1000
0000
,
0010
0000
0100
0000
0101
0000
0000
0001
,
0010
0000
0100
0000
0110
0000
0000
0010
,
0100
0000
1000
0000
1100
0000
0000
1001
,
0000
0101
0010
1000
,
0001
0000
0100
0010
1000
0000
0000
0100
,
0010
0000
0001
0000
0011
0000
0000
0010
,
0001
0000
1000
0000
1001
0000
0000
1100
,
0000
0000
0101
0000
0001
0000
1000
0010
,
0100
0000
0001
0000
1000
0000
0100
0010
,
0100
0000
1000
0000
0010
0000
0100
0010
,
0100
0000
0001
0000
1000
0000
0100
1000
,
0100
0000
1000
0000
0001
0000
0100
0001
,
0100
0000
0010
0000
1100
0000
0010
0100
,
0001
0000
1000
0000
0011
0000
0100
1000
,
0010
0000
0100
0000
0001
1000
0100
0010
,
0001
1000
0010
0100
0001
1000
0100
1000
,
0010
1000
0100
0010
0001
0010
0000
1000
,
0010
0000
0010
0001
0000
0010
0001
0000
,
1000
0000
0100
0000
0001
0100
0000
0100
,
1000
0000
1000
0010
0000
0010
0001
0000
,
0011
0000
1010
0000
0001
0100
0000
0100
,
0010
0000
0010
1000
0000
1000
0100
0000
,
1100
0000
0110
0000
0010
0100
0000
0100
,
1000
0000
1000
0001
0000
0001
0100
0000
,
0110
0000
0101
0000
0001
1000
0000
1000
,
0010
0000
0010
0100
0000
0100
0001
0000
,
1100
0000
0110
0000
1000
0100
0000
0100
,
0010
0000
0010
0001
0000
0001
1000
0000
,
1010
0000
0101
0000
0001
0100
0001
0000
,
1000
0100
1000
0000
0010
0100
0010
0000
,
1000
0010
1000
0000
0010
1000
0001
0100
,
0010
1000
0100
0001
0100
0010
0001
1000
,
0010
0100
1000
0100
2002
0000
3003
0000
,
2200
0000
3300
0202
0000
0303
2002
0000
,
3003
0000
0000
1000
0000
0100
0000
1100
0000
0000
0000
0000
,
0000
0000
0000
0001
0000
0100
0000
0101
0000
0000
0000
0000
,
0000
0000
0000
1000
0000
0100
0000
0001
0000
1000
0000
0010
,
0000
0001
0000
2002
0000
0000
0000
0000
0000
0000
0000
0000
,
0000
0000
0000
0000
,
0000
3003
0000
0000
;

//---------------dance-single - ----------------
#NOTES:
     dance-single:
     :
     Challenge:
     10:
     0.929,1.000,0.661,0.158,0.252:
0000
0000
0000
0000
,
0000
0000
0000
0000
,
0000
0000
0000
0000
,
0000
0000
0000
0000
,
0000
0000
0000
0000
,
0000
0000
0000
0000
,
0000
0000
0000
0000
,
0000
0000
0000
0000
,
0000
0000
0000
0000
,
0000
0000
0000
0000
,
0000
0000
0000
0000
,
0000
0000
0000
0000
,
1000
0100
0000
0010
0100
0000
1000
0000
,
0010
0000
0001
0000
0010
0100
0001
0000
,
1200
0000
0000
0001
0000
0000
1300
0000
,
1000
0100
0010
0001
0100
0010
1000
0000
,
0001
0100
0000
0010
1000
0000
0010
0000
,
0100
0000
0001
0000
1000
0100
0010
0100
,
1000
0100
0001
0100
0010
0001
0100
0010
,
0100
0001
0100
1000
0100
0001
1000
0100
,
0010
0000
0011
0000
1000
0100
0000
0010
,
0001
0100
0010
1000
0001
0100
0000
1000
,
0100
0010
1000
0100
0001
0100
0010
0001
,
1000
0011
1100
0000
,
0101
0000
1010
0000
0001
0100
0000
0010
,
1000
0001
1000
0100
0010
0001
0100
1000
,
0100
0010
1000
0010
0100
0001
0010
0100
,
1000
0100
0001
0100
0010
0001
1000
0010
,
0100
0000
0101
0000
1000
0100
0000
0010
,
0001
0000
1010
0000
0001
0100
0000
0010
,
1000
0000
0101
0000
1000
0100
0000
0010
,
0100
1010
0011
1001
,
1000
0000
0100
0000
0010
0001
0000
0001
,
1000
0000
0110
0000
1000
0001
0000
0001
,
0100
0000
0011
0000
1000
0100
0000
0100
,
0010
0011
1001
1100
,
0001
0000
0010
0000
0100
1000
0010
0000
,
1000
0000
0010
0000
0100
0001
0010
0000
,
0001
0000
0010
0000
0100
1000
0010
0100
,
0001
0010
0001
0100
0010
1000
0100
1000
,
0010
0000
0100
0000
0001
0010
0001
0000
,
0100
0000
0010
0000
1000
0100
1000
0000
,
0010
0000
0100
0000
0001
0010
0100
0010
,
0001
0010
0100
1000
0100
0010
0100
1000
,
0001
0100
0001
0000
0100
0000
0001
0000
,
1000
0100
0010
0001
,
2010
0010
3010
0012
,
0010
0013
0210
0310
,
1001
0000
1000
0000
0100
0010
0001
0000
,
0001
0000
0100
0000
0001
0100
0010
0000
,
2100
0100
3100
0102
,
0100
0103
0120
0130
,
1001
0000
0001
0000
0100
0010
1000
0000
,
0001
0000
1000
0000
0010
0100
0001
0000
,
1200
1000
1300
1002
,
1000
1003
1020
1030
,
1001
0000
0010
0000
0100
0001
1000
0000
,
0100
0000
0010
0000
0100
1000
0001
0000
,
0001
0100
0001
0100
1000
0100
1000
0100
,
0001
0010
0001
0010
1000
0010
1000
0010
,
0001
0000
0100
0010
1000
0000
0001
0000
,
0100
0000
0010
0100
0001
0000
1000
0000
,
0100
0000
0010
0100
1000
0000
0001
0100
,
0010
1000
0001
0010
,
0100
0000
1000
0010
0100
0000
1000
0000
,
0100
0000
0010
0000
1000
0000
0001
0100
,
0010
0000
1000
0100
0010
0000
0001
1000
,
0010
0100
0001
1000
,
0100
0000
0010
0001
0010
0000
0100
0000
,
1000
0000
0010
1000
0010
0000
0100
0001
,
0100
0000
0010
1000
0100
0000
0010
0000
,
0001
1000
0010
0001
,
0010
0000
0100
0001
0010
0000
0100
0000
,
0010
0000
0100
1000
0010
0000
0100
0001
,
1000
0000
0010
1000
0001
0000
0010
0000
,
0100
1000
0001
0100
0010
0000
1000
0000
,
0110
0000
0000
0000
0001
0000
1000
0010
,
1000
0000
0000
0001
0000
0000
0101
0000
,
1000
0000
0000
1100
0000
0000
0001
0000
,
0010
0000
0100
1000
0010
0000
1000
0001
,
0100
0000
0010
0000
1000
0000
0001
0010
,
0100
0000
0000
0110
0000
0000
0001
0000
,
1000
0000
0000
1010
0000
0000
0001
0000
,
0100
0000
0010
0100
0001
0000
1000
0100
,
0010
0000
0000
0000
0001
0000
0010
0001
,
0010
0000
0000
0011
0000
0000
0100
0000
,
1000
0000
0000
1100
0000
0000
1000
0000
,
0010
0000
0100
0010
0100
0000
0001
1000
,
0001
0000
0100
0000
0010
0000
1000
0100
,
1000
0000
0000
0110
0000
0000
0001
0000
,
0010
0001
0010
0100
1000
0100
0010
0000
,
0001
1000
0010
0100
0001
1000
0100
0010
,
2002
0000
0000
3003
,
1001
0000
0000
0000
0001
0000
0100
0000
0010
0000
0000
0001
0000
0000
0010
0000
1000
0000
0000
0100
0000
0000
0001
0000
0000
0000
0100
0000
1000
0000
0010
0000
,
0100
0000
0000
0000
0000
0000
0001
0000
0010
0000
0001
0100
0001
0000
1000
0000
0100
0000
0001
0000
0100
0000
1000
0000
0010
0000
0000
0000
0010
0000
1000
0000
,
0001
0000
0000
0000
0010
0000
0100
0000
1000
0000
0000
0001
0000
0000
0100
0000
0010
0000
0000
1000
0000
0000
0100
0000
0000
0000
0010
0000
0100
0000
1000
0000
,
1001
0000
0000
0000
0010
0000
0100
0001
0100
0000
0000
0010
0000
0000
1000
0000
0100
0000
0001
0000
0100
0000
1000
0000
0010
0000
0000
0000
0100
0000
0001
0000
,
0011
0000
0000
0100
0000
0000
1000
0000
0001
0000
0000
0100
0000
0000
1000
0000
0100
0000
0000
0001
0000
0000
1000
0000
0000
0000
0000
0000
0010
0000
1000
0000
,
1100
0000
0000
0001
0000
0000
0100
0000
0010
0000
0000
1000
0000
0000
0001
0000
0010
0000
0000
1000
0000
0000
0010
0000
0000
0000
0000
0000
0000
0000
0000
0000
,
1100
0000
0000
0001
0000
0000
0100
0000
0101
0000
0000
0010
0000
0000
1000
0000
0011
0000
0000
0001
0000
0000
1000
0000
1100
0000
0000
1000
0000
0000
0010
0000
,
1000
0100
0010
0001
0100
1000
0100
0001
0010
1000
0010
0100
1000
0001
0100
0020
0200
0000
0000
0000
0000
0000
0000
0000
0000
0000
0000
0000
0000
0000
0330
0000
,
1001
0000
0001
0100
0101
0000
1000
0100
,
1100
0000
0000
0011
0000
0000
1001
0000
,
0000
0000
0010
0000
0000
0100
0000
0000
1001
0000
0000
0000
0000
0000
0000
0000
,
0001
0000
0100
0000
0101
0000
0000
1001
,
0000
0000
1100
0000
0100
0000
0010
0100
,
0010
0100
1000
0010
,
0001
0010
1010
0001
,
0100
0000
0010
0000
1000
0000
0100
0010
,
0100
0000
1000
0000
0010
1000
0100
0010
,
0001
0000
0100
0000
0001
0100
0001
0010
,
0100
0000
1000
0000
0001
0000
0100
0010
,
0100
0000
0001
0000
1000
0000
0010
0100
,
0010
0000
1000
0000
1100
0000
0000
0101
,
0000
1001
0000
0010
,
1000
0000
0100
0010
0100
0000
1000
0000
,
0010
0000
0100
0001
0010
0000
0001
1000
,
0010
0000
0100
0001
1000
0000
0100
0000
,
0010
0000
0100
0000
1000
0100
0010
0001
,
0010
0000
0100
0000
1000
0000
0001
0100
,
0001
0000
1000
0000
0010
0000
1000
0100
,
1000
0000
0001
0000
0101
0000
0000
1001
,
0000
0000
1100
0000
0100
0000
0010
0001
,
0010
0000
0100
0000
1010
0000
0001
0100
,
0010
0000
1000
0000
0110
0000
0100
1000
,
0010
0000
0100
0000
0101
0000
0010
1000
,
0001
0010
0100
1000
,
0001
0000
0100
0000
1100
0000
0001
0100
,
0010
0000
1000
0000
0110
0000
0001
1000
,
0010
0000
0100
0000
0101
0000
0010
1000
,
0001
0000
0010
0000
1100
0000
0001
0100
,
0010
0000
1000
0000
1010
0000
0001
0100
,
0010
0000
1000
0000
0011
0000
0100
1000
,
0001
0000
0100
0000
0001
0100
0010
1000
,
0100
0010
0001
0100
1000
0100
0001
0010
,
1000
0010
0100
1000
0010
0100
0000
0001
,
1000
0000
0100
0010
0000
1000
0010
0000
,
0011
0000
1010
0000
0010
1000
0000
0100
,
0001
0000
0100
1000
0000
0010
0001
0000
,
0110
0000
1001
0000
0001
0100
0000
1000
,
0100
0000
0001
0010
0000
1000
0010
0000
,
0101
0000
1100
0000
0010
0100
0000
0001
,
1000
0000
0010
0100
0000
0001
1000
0000
,
1100
0000
0011
0000
0001
0010
0000
1000
,
0010
0000
0100
0001
0000
0100
1000
0000
,
0011
0000
1100
0000
0001
0100
0000
1000
,
0100
0000
0010
0001
0000
0010
1000
0000
,
0101
0000
1010
0000
0100
1000
0000
0010
,
1000
0000
0100
0010
0000
0001
0100
0000
,
0011
0000
1100
0000
0001
0010
1000
0010
,
0100
0001
0100
1000
0010
0100
1000
0100
,
0010
0100
0001
1000
0110
0000
0000
0000
,
2200
0000
3300
0202
0000
0303
2002
0000
,
0000
0000
0000
3003
0000
0000
1000
0000
0000
0000
0100
0000
0000
0000
0101
0000
0000
0000
0000
0000
0000
0000
0000
0000
,
0000
0000
0000
0001
0000
0100
0000
1100
0000
0000
0000
0000
,
0000
0000
0000
0010
0000
1000
0000
0100
0000
0001
0000
0100
,
0000
0010
0000
2002
0000
0000
0000
0000
0000
0000
0000
0000
,
0000
0000
0000
0000
,
0000
3003
0000
0000
;

//---------------dance-double - K. Pearman----------------
#NOTES:
     dance-double:
     K. Pearman:
     Challenge:
     10:
     0.878,1.000,0.654,0.172,0.230: // measure 1
00000000
00000000
00000000
00000000
,  // measure 2
00000000
00000000
00000000
00000000
,  // measure 3
00000000
00000000
00000000
00000000
,  // measure 4
00000000
00000000
00000000
00000000
,  // measure 5
00000000
00000000
00000000
00000000
,  // measure 6
00000000
00000000
00000000
00000000
,  // measure 7
00000000
00000000
00000000
00000000
,  // measure 8
00000000
00000000
00000000
00000000
,  // measure 9
00000000
00000000
00000000
00000000
,  // measure 10
00000000
00000000
00000000
00000000
,  // measure 11
00000000
00000000
00000000
00000000
,  // measure 12
00000000
00000000
00000000
00000000
,  // measure 13
11000000
00000000
00000000
00010000
01000000
00000000
00100000
00000000
,  // measure 14
10000000
01000000
00010000
00001000
,  // measure 15
00011000
00000000
00000000
00010100
00000000
00000000
00011000
00000000
,  // measure 16
00000000
01001000
00000000
00000000
00011000
00000000
00010100
00000000
,  // measure 17
00001100
00000000
00000000
00000001
00000100
00000000
00000010
00000000
,  // measure 18
00000100
00000001
00000010
00000100
,  // measure 19
00001000
00000010
00001000
00000000
00000001
00000100
00000001
00000000
,  // measure 20
00000100
00000010
00001000
00000100
00010000
00001000
00100000
00010000
,  // measure 21
01000000
00000000
00100000
00000000
10000000
01000000
00000000
00100000
,  // measure 22
00010000
01000000
00001000
01000000
00010000
00100000
00000000
01000000
,  // measure 23
10000000
00100000
10000000
00010000
10000000
00001000
10000000
01000000
,  // measure 24
00010000
00001000
00000100
00000000
00000001
00000000
00000000
00000000
,  // measure 25
00000001
00000000
00000010
00000000
00000100
00001000
00000000
00000010
,  // measure 26
00001000
00000010
00010000
00000010
00001000
00000100
00000000
00000010
,  // measure 27
00000001
00000100
00000001
00001000
00000001
00000100
00000001
00000100
,  // measure 28
00001000
00010000
01000000
10000000
00010000
01000000
00100000
10000000
,  // measure 29
01000000
00000000
01000000
00000000
10000000
00100000
00000000
00100000
,  // measure 30
00010000
00000000
00100000
00000000
00100000
00010000
00000000
00010000
,  // measure 31
00001000
00000000
00010000
00000000
00001000
00000100
00000000
00000100
,  // measure 32
00000010
00001001
00000100
00001001
,  // measure 33
00000001
00000000
00000010
00000000
00000100
00001000
00000000
00000100
,  // measure 34
00001000
00000000
00000010
00000000
00010000
00001000
00000000
00010000
,  // measure 35
00001000
00000000
01000000
00000000
00010000
00100000
00000000
00010000
,  // measure 36
00100000
11000000
00100000
01010000
,  // measure 37
10000000
00000000
01000000
00000000
00100000
00010000
00000000
10000000
,  // measure 38
01000000
00000000
00010000
00000000
01000000
10000000
00000000
00100000
,  // measure 39
00010000
00000000
01000000
00000000
00001000
00010000
00000000
00010000
,  // measure 40
00000100
00000011
00000100
00001010
,  // measure 41
00001001
00000000
00000001
00000000
00000100
00000010
00000000
00000100
,  // measure 42
00000010
00000000
00001000
00000000
00000100
00000001
00000000
00000100
,  // measure 43
00000001
00000000
00000100
00000000
00001000
00000100
00000000
00010000
,  // measure 44
00001000
00100000
01010000
11000000
,  // measure 45
10100000
01000000
00100000
10000000
,  // measure 46
00100000
01000000
00100000
10000000
,  // measure 47
10100000
00000000
00010000
01000000
00010000
00000000
10100000
00000000
,  // measure 48
00010000
00100000
00010000
00000000
11000000
00000000
00100000
00000000
,  // measure 49
01010000
00000000
10000000
01000000
,  // measure 50
00100000
00001000
00010000
00000100
,  // measure 51
00001100
00000000
00000001
00000010
00000001
00000000
00001100
00000000
,  // measure 52
00000001
00000010
00000001
00000000
00001100
00000000
00000001
00000000
,  // measure 53
00001010
00000000
00000001
00000100
,  // measure 54
00001000
00000100
00000001
00000000
,  // measure 55
00000110
00000000
00000001
00001000
00000001
00000000
00000110
00000000
,  // measure 56
00000001
00001000
00000001
00000000
00000110
00000000
00000001
00000000
,  // measure 57
00001001
00001000
00000010
00010000
,  // measure 58
00001000
00100000
01000000
00100000
,  // measure 59
01100000
00000000
10000000
00010000
10000000
00000000
01100000
00000000
,  // measure 60
10000000
00010000
10000000
00000000
01100000
00000000
00010000
00000000
,  // measure 61
10010000
00000000
10000000
01000000
00010000
00000000
00000000
00000000
,  // measure 62
00000000
00000000
00100000
00010000
01000000
00000000
00010000
00000000
,  // measure 63
00000000
00000000
01000000
00001000
00010000
00000000
00001000
00010000
,  // measure 64
00000100
00001000
00000010
00000100
,  // measure 65
00000001
00000000
00001000
00000100
00000001
00000000
00000000
00000000
,  // measure 66
00000000
00000000
00000100
00001000
00000010
00000000
00000100
00000000
,  // measure 67
00000000
00000000
00000001
00000010
00000001
00000000
00001000
00000100
,  // measure 68
00001000
00000001
00000100
00000010
,  // measure 69
00001000
00000000
00000001
00000010
00001000
00000000
00000000
00000000
,  // measure 70
00000000
00000000
00000010
00001000
00010000
00000000
00001000
00000000
,  // measure 71
00010000
00000000
00100000
00010000
00100000
00000000
01000000
00100000
,  // measure 72
01000000
00010000
10000000
01000000
,  // measure 73
10000000
00100000
00010000
00000000
00100000
00000000
00000000
00000000
,  // measure 74
00000000
00000000
01000000
00010000
01000000
00000000
00100000
00000000
,  // measure 75
10000000
00000000
01000000
00100000
01000000
00000000
10000000
00010000
,  // measure 76
10000000
00000000
00100000
00000000
01000000
00000000
00010000
00100000
,  // measure 77
00001000
00000000
00010000
00000000
00000010
00000000
00001000
00000100
,  // measure 78
00000010
00000000
00000000
00000101
00000000
00000000
00000010
00000000
,  // measure 79
00001100
00000000
00000000
00000010
00000000
00000000
00001001
00000000
,  // measure 80
00000010
00000000
00000100
00000000
00000001
00000000
00000100
00000010
,  // measure 81
00001000
00000000
00000100
00000000
00010000
00000000
00001000
00100000
,  // measure 82
00010000
00000000
00000000
01100000
00000000
00000000
00010000
00000000
,  // measure 83
11000000
00000000
00000000
00010000
00000000
00000000
01010000
00000000
,  // measure 84
10000000
00000000
01000000
00000000
00010000
00000000
01000000
10000000
,  // measure 85
01000000
00000000
00100000
00000000
00010000
00000000
01000000
00001000
,  // measure 86
00010000
00000000
00000000
00001000
00000000
00000000
00000010
00000000
,  // measure 87
00001100
00000000
00000000
00000001
00000000
00000000
00000110
00000000
,  // measure 88
00000001
00000000
00001000
00000000
00000010
00000000
00000100
00000010
,  // measure 89
00000100
00000000
00001001
00000000
00001100
00000000
00000001
00000100
,  // measure 90
00000001
00000000
00000101
00000000
00001001
00000000
00000001
00000010
,  // measure 91
00000100
00000000
00001000
00000001
00000100
00010000
00001000
00010000
,  // measure 92
01000000
00100000
10000000
01000000
00010000
01000000
10000000
00100000
,  // measure 93
20020000
00000000
00000000
00000000
00000000
00000000
00000000
30030000
,  // measure 94
11000000
00000000
00000000
00000000
10000000
00000000
01000000
00000000
00100000
00000000
00000000
00010000
00000000
00000000
01000000
00000000
00001000
00000000
00000000
00010000
00000000
00000000
00000100
00000000
00000000
00000000
00001000
00000000
00000100
00000000
00000001
00000000
,  // measure 95
00000100
00000000
00000000
00000000
00000000
00000000
00001000
00000000
00000010
00000000
00000000
00000100
00000000
00000000
00000001
00000000
00001000
00000000
00000010
00000000
00000100
00000000
00000001
00000000
00001000
00000000
00000100
00000000
00001000
00000000
00000010
00000000
,  // measure 96
00001000
00000000
00000000
00000000
00000001
00000000
00000100
00000000
00000001
00000000
00000000
00001000
00000000
00000000
00000001
00000000
00000100
00000000
00000000
00000010
00000000
00000000
00001000
00000000
00000000
00000000
00000001
00000000
00000010
00000000
00001000
00000000
,  // measure 97
00010000
00000000
00000000
00000000
00000000
00000000
00100000
00010000
00100000
00000000
00000000
10000000
00000000
00000000
01000000
00000000
00100000
00000000
00000000
00000000
00000000
00000000
00000000
00000000
00000000
00000000
00000000
00000000
00000000
00000000
00000000
00000000
,  // measure 98
10010000
00000000
00000000
00000000
00010000
00000000
01000000
00000000
10000000
00000000
00000000
01000000
00000000
00000000
00010000
00000000
10000000
00000000
00000000
01000000
00000000
00000000
00100000
00000000
00000000
00000000
00000000
00000000
00000000
00000000
00000000
00000000
,  // measure 99
01100000
00000000
00000000
01000000
00000000
00000000
10000000
00000000
00100000
00000000
00000000
01000000
00000000
00000000
00010000
00000000
00100000
00000000
00000000
00001000
00000000
00000000
00010000
00000000
00000000
00000000
00000000
00000000
00000000
00000000
00000000
00000000
,  // measure 100
00001100
00000000
00000000
00000001
00000000
00000000
00000100
00000000
00000101
00000000
00000000
00000010
00000000
00000000
00001000
00000000
00001010
00000000
00000000
00000100
00000000
00000000
00010000
00000000
00011000
00000000
00000000
00001000
00000000
00000000
00100000
00000000
,  // measure 101
00010000
01000000
00100000
10000000
01000000
00100000
00010000
01000000
00100000
10000000
01000000
00100000
00010000
01000000
00100000
10000000
01000000
00000000
00000000
00000000
00000000
00000000
00000000
00000000
00000000
00000000
00000000
00000000
00000000
00000000
00000000
00000000
,  // measure 102
22000000
33000000
00220000
00330000
,  // measure 103
20020000
00000000
30030000
02200000
00000000
03300000
00022000
00000000
,  // measure 104
00033000
00000220
00000000
00000330
00001001
00000000
00000000
00000001
,  // measure 105
00000100
00000000
00000010
00000000
00000101
00000000
00000000
00001000
,  // measure 106
00000100
00000000
00000010
00000000
00001100
00000000
00000000
00001001
,  // measure 107
00000000
00000000
00000110
00000000
00000010
00000000
00001000
00000100
,  // measure 108
00001000
00000000
00000010
00000000
00010000
00000000
00001000
00100000
,  // measure 109
00001000
00000000
00010000
00000010
00010000
00000000
00001000
00100000
,  // measure 110
00001000
00000000
00010000
00000010
00010000
00000000
00001000
00000000
,  // measure 111
00100000
00010000
01000000
00100000
,  // measure 112
10000000
00000000
01000000
00000000
11000000
00000000
00000000
00010000
,  // measure 113
01000000
00000000
00100000
00000000
10100000
00000000
00000000
10000000
,  // measure 114
01000000
00000000
00100000
00000000
00110000
00000000
00000000
11000000
,  // measure 115
00000000
10010000
00100000
10000000
,  // measure 116
01000000
00000000
00100000
00010000
00100000
00000000
01000000
00000000
,  // measure 117
10000000
00000000
00100000
10000000
00010000
00000000
01000000
00010000
,  // measure 118
01000000
00000000
00100000
10000000
00100000
00000000
01000000
00010000
,  // measure 119
01000000
00100000
10000000
01000000
,  // measure 120
00010000
00000000
00001000
00000000
00011000
00000000
00000100
00001000
,  // measure 121
00000010
00000000
00000100
00000000
00001001
00000000
00000001
00000100
,  // measure 122
00000010
00000000
00001000
00000000
00001100
00000000
00000010
00010000
,  // measure 123
00001000
00100000
00010000
01000000
,  // measure 124
00100000
00000000
10000000
00000000
11000000
00000000
00010000
00100000
,  // measure 125
00010000
00000000
01000000
00000000
00011000
00000000
00001000
00010000
,  // measure 126
00000100
00010000
00001000
00000100
,  // measure 127
00000010
00001000
00000001
00000010
,  // measure 128
00001000
00000000
00000010
00000000
00000101
00000000
00000010
00001000
,  // measure 129
00000001
00000000
00000100
00000000
00001010
00000000
00000100
00010000
,  // measure 130
00001000
00000000
00010000
00000000
00101000
00000000
00010000
01000000
,  // measure 131
00100000
00000000
10000000
00000000
01010000
00000000
01000000
10000000
,  // measure 132
01000000
00000000
10000000
00000000
00100000
00000000
01000000
00010000
,  // measure 133
01000000
00000000
00100000
00000000
10000000
01000000
10000000
00000000
,  // measure 134
00100000
01000000
00100000
00000000
10000000
01000000
00100000
00010000
,  // measure 135
01000000
00100000
00010000
00001000
00000010
00000001
00000100
00000010
,  // measure 136
00000100
00000001
00000010
00000100
00001000
00000010
00000000
00000100
,  // measure 137
00000001
00000000
00000001
00000010
00000000
00000010
00001000
00000000
,  // measure 138
00010000
00000000
01000000
00000000
00100000
10000000
00000000
10000000
,  // measure 139
01000000
00000000
00100000
00010000
00000000
00001000
00000010
00000000
,  // measure 140
00000001
00000000
00000100
00000000
00000010
00001000
00000000
00000100
,  // measure 141
00000010
00000000
00001000
00010000
00000000
00010000
01000000
00000000
,  // measure 142
00100000
00000000
10000000
00000000
01000000
00010000
00000000
00010000
,  // measure 143
00001000
00000000
00001000
00000100
00000000
00000100
00000001
00000000
,  // measure 144
00000010
00000000
00001001
00000000
00000001
00000100
00000010
00001000
,  // measure 145
00000100
00000000
00000010
00000100
00001000
00000001
00000100
00000000
,  // measure 146
00001100
00000000
00110000
00000000
00010000
01000000
00100000
10000000
,  // measure 147
01000000
00000000
00100000
01000000
10000000
00010000
01000000
00000000
,  // measure 148
10100000
00000000
01010000
00000000
10000000
01000000
00100000
00001000
,  // measure 149
00010000
00000000
00000100
00001000
00000001
00000100
00000010
00000000
,  // measure 150
00000101
00000000
00001010
00000000
00000010
00000100
00000001
00001000
,  // measure 151
00000100
00010000
00001000
00100000
00010000
01000000
10000000
01000000
,  // measure 152
00010000
00100000
01000000
10000000
20020000
00000000
30030000
00000000
,  // measure 153
22000000
00000000
33000000
00220000
00000000
00330000
00002002
00000000
,  // measure 154
00000000
00000000
00000000
00003003
00000000
00000000
00000010
00000000
00000000
00000000
00001000
00000000
00000000
00000000
00000000
00000000
00000100
00000000
00000000
00000000
00000000
00000000
00000000
00000000
,  // measure 155
00000000
00000000
00000000
00000010
00000000
00000001
00000000
00000100
00000000
00000000
00000000
00000000
,  // measure 156
00000000
00000000
00000000
00000010
00000000
00001000
00000000
00000100
00000000
00000010
00000000
00001000
,  // measure 157
00000000
00010000
00000000
20200000
00000000
00000000
00000000
00000000
00000000
00000000
00000000
00000000
,  // measure 158
00000000
00000000
00000000
00000000
,  // measure 159
00000000
00000000
30300000
00000000
;

//---------------dance-double - K. Pearman----------------
#NOTES:
     dance-double:
     K. Pearman:
     Hard:
     10:
     0.811,1.000,0.568,0.086,0.226: // measure 1
00000000
00000000
00000000
00000000
,  // measure 2
00000000
00000000
00000000
00000000
,  // measure 3
00000000
00000000
00000000
00000000
,  // measure 4
00000000
00000000
00000000
00000000
,  // measure 5
00000000
00000000
00000000
00000000
,  // measure 6
00000000
00000000
00000000
00000000
,  // measure 7
00000000
00000000
00000000
00000000
,  // measure 8
00000000
00000000
00000000
00000000
,  // measure 9
00000000
00000000
00000000
00000000
,  // measure 10
00000000
00000000
00000000
00000000
,  // measure 11
00000000
00000000
00000000
00000000
,  // measure 12
00000000
00000000
00000000
00000000
,  // measure 13
11000000
00000000
00000000
00010000
01000000
00000000
00100000
00000000
,  // measure 14
01000000
00010000
00100000
00001000
,  // measure 15
00010000
00000000
00000000
00001000
00000000
00000100
00000000
00000000
,  // measure 16
00000000
00001000
00000000
00000000
00010000
00000000
00001000
00000000
,  // measure 17
00000100
00000000
00000000
00000001
00000010
00000000
00000100
00000000
,  // measure 18
00001000
00000100
00000001
00000100
,  // measure 19
00001000
00000010
00001000
00000000
00000001
00000100
00000001
00000000
,  // measure 20
00001000
00000100
00000010
00000001
00000100
00000010
00001000
00000001
,  // measure 21
00000100
00000000
00000010
00000000
00001000
00000010
00000000
00000100
,  // measure 22
00000001
00000010
00000100
00001000
00000001
00000001
00000000
00001000
,  // measure 23
00000100
00000010
00000100
00001000
00000100
00000010
00000001
00000100
,  // measure 24
00000010
00000101
00001001
00000000
,  // measure 25
00010000
00000000
01000000
00000000
00010000
01000000
00000000
00100000
,  // measure 26
10000000
01000000
00100000
00010000
10000000
10000000
00000000
00010000
,  // measure 27
00100000
01000000
00100000
00010000
00100000
01000000
10000000
00100000
,  // measure 28
01000000
10100000
10010000
00000000
,  // measure 29
10000000
00000000
01000000
00000000
00100000
01000000
00100000
00000000
,  // measure 30
01000000
00000000
10000000
00000000
00010000
01000000
00010000
00000000
,  // measure 31
10000000
00000000
00100000
00000000
01000000
00100000
01000000
00000000
,  // measure 32
10100000
01100000
01010000
01100000
,  // measure 33
00100000
00000000
10000000
00000000
01000000
00100000
01000000
00000000
,  // measure 34
00100000
00000000
00010000
00000000
01000000
00001000
01000000
00000000
,  // measure 35
00001000
00000000
00010000
00000000
00000100
00001000
00000100
00000000
,  // measure 36
00001100
00000110
00001100
00000110
,  // measure 37
00000001
00000000
00000010
00000000
00000100
00000010
00000100
00000000
,  // measure 38
00000010
00000000
00000001
00000000
00000010
00000001
00000010
00000000
,  // measure 39
00000001
00000000
00000100
00000000
00000010
00000100
00000010
00000000
,  // measure 40
00000101
00000110
00000101
00000110
,  // measure 41
00000010
00000000
00001000
00000000
00000100
00001000
00000010
00000000
,  // measure 42
00001000
00000000
00000100
00000000
00010000
00001000
00100000
00000000
,  // measure 43
00001000
00000000
00010000
00000000
00100000
00010000
00100000
00000000
,  // measure 44
01100000
10010000
01100000
10010000
,  // measure 45
11000000
00000000
00010000
00000000
,  // measure 46
01000000
00000000
00010000
00000000
,  // measure 47
11000000
00010000
00100000
11000000
,  // measure 48
00010000
01000000
10100000
01000000
,  // measure 49
00110000
00000000
01010000
00000000
,  // measure 50
00011000
00000000
00001100
00000000
,  // measure 51
00001100
00000001
00000010
00001100
,  // measure 52
00000001
00000100
00001010
00000001
,  // measure 53
00000110
00000000
00001001
00000000
,  // measure 54
00010100
00000000
00011000
00000000
,  // measure 55
00101000
00001000
00010000
00010010
,  // measure 56
00001000
00100000
00011000
00000000
,  // measure 57
01001000
00000000
01010000
00000000
,  // measure 58
10100000
00000000
01010000
00000000
,  // measure 59
11000000
00010000
00100000
11000000
,  // measure 60
00010000
01000000
10100000
00000000
,  // measure 61
10000000
01000000
00010000
01000000
,  // measure 62
10000000
00100000
00010000
00001000
,  // measure 63
00000010
00000000
00000001
00000000
00000100
00000000
00000010
00001000
,  // measure 64
00000010
00000000
00000100
00000001
00000100
00000000
00000010
00001000
,  // measure 65
00000100
00000010
00001000
00010000
,  // measure 66
00100000
01000000
00010000
10000000
,  // measure 67
01000000
00000000
00100000
00010000
01000000
00000000
00100000
10000000
,  // measure 68
01000000
00000000
10000000
01000000
00010000
00000000
01000000
00000000
,  // measure 69
10000000
00100000
00010000
00001000
,  // measure 70
00000100
00000001
00000010
00001000
,  // measure 71
00000010
00000000
00000001
00000100
00000010
00000000
00001000
00000100
,  // measure 72
00000010
00000000
00000001
00001000
00000010
00000000
00000100
00000000
,  // measure 73
00000010
00001000
00000100
00000010
,  // measure 74
00001000
00000000
00010000
00000000
00100000
00000000
01000000
00010000
,  // measure 75
00100000
00000000
01000000
10000000
00100000
00000000
10000000
01000000
,  // measure 76
00100000
00000000
00010000
01000000
00100000
00000000
10000000
01000000
,  // measure 77
00100000
00000000
10000000
00000000
00100000
00000000
00010000
01000000
,  // measure 78
00010000
00000000
00000000
00100000
00000000
00000000
00001000
00000000
,  // measure 79
00010000
00000000
00000000
00000100
00000000
00000000
00001000
00000000
,  // measure 80
00000001
00000000
00000100
00000000
00001000
00000000
00000100
00000001
,  // measure 81
00000100
00000000
00000010
00000000
00001000
00000000
00000100
00000010
,  // measure 82
00000100
00000000
00000000
00001000
00000000
00000000
00000001
00000000
,  // measure 83
00000010
00000000
00000000
00001000
00000000
00000000
00000010
00000000
,  // measure 84
00000001
00000000
00000010
00000000
00000100
00000000
00001000
00000010
,  // measure 85
00001000
00000000
00000100
00000000
00010000
00000000
00001000
00100000
,  // measure 86
00001000
00000000
00010000
00000000
00100000
00000000
01000000
00100000
,  // measure 87
01000000
00000000
00000000
10010000
00000000
00000000
11000000
00000000
,  // measure 88
00000000
00000000
01000000
00000000
00100000
00000000
00010000
00100000
,  // measure 89
00010000
00000000
10000000
01000000
10000000
00000000
00010000
01000000
,  // measure 90
00010000
00000000
10000000
00100000
10000000
00000000
01000000
10000000
,  // measure 91
00010000
01000000
00100000
00000000
10000000
01000000
00100000
00000000
,  // measure 92
00010000
01000000
00001000
00010000
00000100
00001000
00000010
00000100
,  // measure 93
00002002
00000000
00000000
00000000
00000000
00000000
00000000
00003003
,  // measure 94
00001001
00000000
00000000
00000000
00000001
00000000
00000100
00000000
00000010
00000000
00000000
00001000
00000000
00000000
00000100
00000000
00000010
00000000
00000000
00001000
00000000
00000000
00010000
00000000
00000000
00000000
00100000
00000000
00010000
00000000
00100000
00000000
,  // measure 95
00010000
00000000
00000000
00000000
00000000
00000000
00100000
00000000
10000000
00000000
00000000
01000000
00000000
00000000
00100000
00000000
01000000
00000000
10000000
00000000
01000000
00000000
00010000
00000000
00001000
00000000
00000000
00000000
00010000
00000000
00000100
00000000
,  // measure 96
00001000
00000000
00000000
00000000
00000001
00000000
00000100
00000000
00000010
00000000
00000000
00001000
00000000
00000000
00000100
00000000
00000010
00000000
00000000
00001000
00000000
00000000
00000010
00000000
00000000
00000000
00000001
00000000
00000100
00000000
00000010
00000000
,  // measure 97
00001000
00000000
00000000
00000000
00000000
00000000
00000001
00000100
00000001
00000000
00000000
00001000
00000000
00000000
00000100
00000000
00000010
00000000
00000000
00000000
00000000
00000000
00000000
00000000
00000000
00000000
00000000
00000000
00000000
00000000
00000000
00000000
,  // measure 98
00001100
00000000
00000000
00000000
00000001
00000000
00000100
00000000
00000010
00000000
00000000
00001000
00000000
00000000
00000100
00000000
00000010
00000000
00000000
00000100
00000000
00000000
00001000
00000000
00000000
00000000
00000000
00000000
00000000
00000000
00000000
00000000
,  // measure 99
00011000
00000000
00000000
00001000
00000000
00000000
00100000
00000000
00010000
00000000
00000000
10000000
00000000
00000000
00100000
00000000
00010000
00000000
00000000
00100000
00000000
00000000
10000000
00000000
00000000
00000000
00000000
00000000
00000000
00000000
00000000
00000000
,  // measure 100
11000000
00000000
00000000
00010000
00000000
00000000
01000000
00000000
00011000
00000000
00000000
00001000
00000000
00000000
00010000
00000000
00001100
00000000
00000000
00000100
00000000
00000000
00000010
00000000
00000011
00000000
00000000
00000001
00000000
00000000
00001000
00000000
,  // measure 101
00000010
00001000
00000010
00000100
00000001
00000100
00000010
00001000
00000010
00000100
00000010
00000001
00000010
00001000
00000100
00000010
00000001
00000000
00000000
00000000
00000000
00000000
00000000
00000000
00000000
00000000
00000000
00000000
00000000
00000000
00000000
00000000
,  // measure 102
00001100
00000000
00010100
00000000
,  // measure 103
00011000
00000000
00000000
01001000
00000000
00000000
00011000
00000000
,  // measure 104
00000000
00010100
00000000
00000000
00011000
00000000
00000000
00010000
,  // measure 105
00001000
00000000
00100000
00000000
00010000
00000000
00000000
10000000
,  // measure 106
01000000
00000000
00100000
00000000
00010000
00000000
00000000
10100000
,  // measure 107
00000000
01010000
00000000
00100000
,  // measure 108
01000000
00010000
00100000
00001000
,  // measure 109
00010000
00000000
00000100
00001000
00000100
00000000
00001000
00000010
,  // measure 110
00000100
00000001
00001000
00000100
,  // measure 111
00000010
00000001
00000100
00000010
,  // measure 112
00001000
00000000
00000100
00000010
00000100
00000000
00001000
00000000
,  // measure 113
00000010
00000000
00000100
00000001
00000100
00000000
00000010
00001000
,  // measure 114
00000000
00000001
00000100
00000000
00000010
00000000
00001000
00000100
,  // measure 115
00001000
00000010
00010000
00001000
,  // measure 116
00100000
00000000
00010000
01000000
00100000
00000000
10000000
00000000
,  // measure 117
01000000
00000000
00100000
00010000
10000000
00000000
00100000
01000000
,  // measure 118
00000000
00010000
10000000
00000000
01000000
00000000
00100000
00010000
,  // measure 119
01000000
00000000
00100000
10000000
01000000
00000000
01000000
00000000
,  // measure 120
00010000
00100000
00011000
00000000
,  // measure 121
00010100
00001000
00010000
00000000
,  // measure 122
00001010
00000000
00000100
00000000
00000010
00000000
00000000
00000101
,  // measure 123
00000000
00001010
00000100
00000010
,  // measure 124
00000001
00000000
00000100
00000010
00001000
00000000
00000100
00000010
,  // measure 125
00000000
00000001
00000100
00000000
00000010
00000000
00001000
00000100
,  // measure 126
00000000
00010000
00001000
00000000
00100000
00000000
00000000
00010000
,  // measure 127
00000000
01000000
00100000
10000000
,  // measure 128
01000000
00000000
00100000
00000000
00110000
00000000
00000000
01000000
,  // measure 129
00000000
00000000
10000000
00000000
01010000
00000000
00000000
00001000
,  // measure 130
00000000
00000000
00010000
00000000
00001100
00000000
00000000
00000010
,  // measure 131
00000000
00000000
00000100
00000000
00000101
00000000
00000000
00000010
,  // measure 132
00000000
00000000
00001000
00000000
00000001
00000010
00000100
00001000
,  // measure 133
00000001
00000100
00000010
00001000
00000001
00000010
00000100
00001000
,  // measure 134
00000001
00000100
00000010
00001000
00000001
00000010
00000100
00001000
,  // measure 135
00000010
00010000
00001000
00100000
00001000
00010000
00001000
00100000
,  // measure 136
00001000
00010000
00001000
00100000
00010000
00100000
00000000
01000000
,  // measure 137
10000000
00000000
00010000
00100000
00000000
01000000
10000000
00000000
,  // measure 138
00100000
00000000
01000000
00000000
00010000
01000000
00000000
00001000
,  // measure 139
00010000
00000000
00000100
00001000
00000000
00000010
00000100
00000000
,  // measure 140
00000001
00000000
00001000
00000000
00000001
00000010
00000000
00001000
,  // measure 141
00000010
00000000
00000001
00000100
00000000
00001000
00000100
00000000
,  // measure 142
00000001
00000000
00000010
00000000
00000100
00001000
00000000
00000010
,  // measure 143
00010000
00000000
00001000
00100000
00000000
00010000
01000000
00000000
,  // measure 144
00100000
00000000
01000000
00000000
00010000
10000000
00000000
01000000
,  // measure 145
00010000
00000000
01000000
10000000
00000000
00100000
00010000
00000000
,  // measure 146
00001000
00000000
00100000
00000000
00001000
00010000
00000000
00000010
,  // measure 147
00001000
00000000
00000100
00000010
00000000
00000001
00000100
00000000
,  // measure 148
00000010
00000000
00001000
00000000
00000001
00000100
00000000
00000100
,  // measure 149
00001000
00000000
00001000
00010000
00000000
00010000
01000000
00000000
,  // measure 150
10000000
00000000
00100000
00000000
10000000
00100000
00000000
00100000
,  // measure 151
00010000
00000000
00010000
00001000
00000000
00001000
00000010
00000000
,  // measure 152
00000001
00000000
00000100
00000000
00000202
00000000
00000000
00000303
,  // measure 153
00002200
00000000
00003300
00002002
00000000
00003003
00000202
00000000
,  // measure 154
00000303
00000000
00000000
00000001
00000000
00000100
00000000
00001000
00000000
00000000
00000000
00000000
,  // measure 155
00000000
00000000
00000000
00010000
00000000
01000000
00000000
10000000
00000000
00000000
00000000
00000000
,  // measure 156
00000000
00000000
00000000
10000000
00000000
00100000
00000000
00010000
00000000
00001000
00000000
00000010
,  // measure 157
00000000
00000001
00000000
00002200
00000000
00000000
00000000
00000000
00000000
00000000
00000000
00000000
,  // measure 158
00000000
00000000
00000000
00000000
,  // measure 159
00000000
00003300
00000000
00000000
;

//---------------dance-double - K. Pearman----------------
#NOTES:
     dance-double:
     K. Pearman:
     Medium:
     8:
     0.530,0.852,0.230,0.029,0.025:
00000000
00000000
00000000
00000000
,
00000000
00000000
00000000
00000000
,
00000000
00000000
00000000
00000000
,
00000000
00000000
00000000
00000000
,
00000000
00000000
00000000
00000000
,
00000000
00000000
00000000
00000000
,
00000000
00000000
00000000
00000000
,
00000000
00000000
00000000
00000000
,
00000000
00000000
00000000
00000000
,
00000000
00000000
00000000
00000000
,
00000000
00000000
00000000
00000000
,
00000000
00000000
00000000
00000000
,
10000000
00000000
00000000
01000000
00000000
00000000
10000000
00000000
,
00100000
00010000
00100000
00000000
,
01000000
00000000
00000000
00001000
00000000
00000000
00010000
00000000
,
00000000
00000100
00000000
00000000
00001000
00000000
00000001
00000000
,
00000100
00000000
00000000
00000010
00000000
00000000
00001000
00000000
,
00000100
00000010
00000001
00000000
,
00001000
00000100
00001000
00000100
,
00000010
00000000
00000001
00000000
00000010
00000001
00000010
00000000
,
00000001
00000100
00000010
00000000
,
00000100
00000010
00001000
00000000
,
00000100
00010000
00001000
01000000
,
00100000
01000000
00100000
00000000
10000000
00000000
00000000
00000000
,
01000000
10000000
00010000
00000000
,
00100000
00010000
01000000
00000000
,
00001000
00010000
00000100
00001000
,
00000010
00000100
00000010
00000000
00001000
00000000
00000000
00000000
,
00000001
00000100
00001000
00000100
,
00000001
00000100
00001000
00000100
,
00000001
00000100
00001000
00000100
,
00000001
00000001
00000010
00000010
,
00000100
00001000
00000010
00001000
,
00000100
00001000
00000010
00001000
,
00000100
00001000
00000010
00001000
,
00000100
00000100
00010000
00010000
,
00001000
00100000
00001000
00010000
,
00001000
00100000
00001000
00010000
,
00001000
00100000
00001000
00010000
,
00001000
00001000
00010000
00010000
,
00100000
01000000
00100000
00010000
,
00100000
01000000
00100000
00010000
,
00100000
01000000
00100000
00010000
,
00100000
00100000
10000000
10000000
,
11000000
00000000
00010000
00000000
,
01000000
00000000
00010000
00000000
,
11000000
00000000
00010000
01000000
,
00000000
00010000
01000000
00000000
,
00011000
00000000
00000100
00000000
,
00000100
00000000
00000100
00000000
,
00001001
00000000
00000001
00000010
,
00000000
00000001
00000010
00000000
,
00000110
00000000
00001000
00000000
,
00001000
00000000
00001000
00000000
,
00010100
00000000
00001000
00010000
,
00000000
00000100
00010000
00000000
,
00011000
00000000
00101000
00000000
,
00011000
00000000
00101000
00000000
,
00110000
00000000
00100000
01000000
,
00000000
10000000
01000000
00000000
,
10000000
01000000
00010000
01000000
,
10000000
01000000
00010000
01000000
,
00000000
10000000
00100000
00010000
,
00100000
00000000
01001000
00000000
,
00010000
00001000
00000100
00000000
,
00001000
00000100
00000001
00000010
,
00000000
00000100
00001000
00000010
,
00000100
00000001
00001000
00000000
,
00000100
00001000
00000001
00000000
,
00000010
00000001
00001000
00000100
,
00000000
00010000
00001000
00000100
,
00000010
00000000
00001000
00000000
,
00000001
00000010
00001000
00000000
,
00000010
00000100
00001000
00000001
,
00000000
00000100
00000010
00000001
,
00000010
00000000
00001000
00000001
,
00000101
00000000
00000001
00001000
,
00000100
00000000
00000000
00000010
00000000
00000000
00000100
00000000
,
00001000
00000000
00000000
00000100
00000000
00000000
00010000
00000000
,
00001000
00000000
00010000
00001000
,
01000000
00000000
00010000
01000000
,
00100000
00000000
00000000
01000000
00000000
00000000
00010000
00000000
,
10000000
00000000
00000000
01000000
00000000
00000000
00100000
00000000
,
01000000
00000000
10000000
00010000
,
01000000
00000000
00100000
10000000
,
00010000
00000000
01000000
00001000
,
00010000
00000000
00000000
00000100
00000000
00000000
00001000
00000000
,
00000000
00000001
00000100
00000000
,
00000110
00000000
00000010
00001000
,
00000001
00000000
00000000
00000100
00000000
00000000
00001000
00000000
,
00000100
00000000
00000000
00000001
00000000
00000000
00000010
00000000
,
00000100
00001000
00000001
00000100
,
00002002
00000000
00000000
00000000
00000000
00000000
00000000
00003003
,
00001001
00000001
00000100
00000010
00001000
00000100
00000010
00001000
,
00010000
00000000
00100000
00010000
00001000
00000000
00000000
00010000
,
00100000
10000000
01000000
00010000
01000000
10000000
00010000
01000000
,
01010000
00000000
10000000
01000000
00010000
00000000
00000000
00000000
,
00000101
00001000
00010000
00000000
,
11000000
00010000
00001000
00000000
,
00000101
00011000
11000000
00011000
,
00000001
00000010
00001000
00010000
00100000
00000000
00000000
00000000
,
11000000
00000000
01010000
00000000
,
00011000
00000000
00000000
00011000
00000000
00000000
00011000
00000000
,
00000000
00011000
00000000
00000000
00001000
00000000
00010000
00000000
,
00100000
00010000
00001000
00010000
,
00100000
00000000
00010000
00000000
00001000
00000000
00000000
00100000
,
00000000
01000000
00000000
10000000
,
01000000
00010000
01000000
10000000
,
00010000
00000000
01000000
00000000
00001000
00000000
00000000
00010000
,
00000000
00000100
00001000
00000001
,
00000100
00000010
00001000
00000100
,
00000010
00000001
00000010
00010000
,
00000010
00000001
00000010
00010000
,
00000010
00000000
00000001
00000000
00001000
00000000
00000000
00000100
,
00000000
00010000
00000000
00001000
,
00000100
00000010
00001000
00000000
,
00000001
00000000
00001000
00000100
00001000
00000000
00000000
00000001
,
00000000
00000100
00000010
00000000
,
00001000
00000000
00000100
00000000
,
00010000
00000000
00001000
00000000
01001000
00000000
00000000
01000000
,
00000000
00000000
00010000
00000000
10000000
00000000
00000000
01000000
,
00000000
00000000
00100000
00000000
01000000
00000000
00000000
10000000
,
00000000
00010000
01000000
00000000
,
00001000
00000000
00010000
00000000
00000100
00000000
00000000
00001000
,
00000000
00000000
00000001
00000000
00000100
00000000
00000000
00000010
,
00000000
00000000
00000100
00000000
00000001
00000000
00000000
00000010
,
00000000
00000100
00000000
00000000
,
00001000
00000000
00000010
00001000
,
00000100
00001000
00000010
00001000
,
00000100
00001000
00000010
00000100
,
00000001
00000010
00000001
00000100
,
00000001
00000010
00000001
00000100
,
00001000
00000100
00000001
00000100
,
00001000
00000100
00000001
00000010
,
00001000
00000010
00000001
00000010
,
00001000
00000000
00000010
00000000
00000101
00000000
00000000
00000010
,
00000000
00000000
00001000
00000000
00000000
00000100
00000000
00000000
,
00000010
00000000
00000000
00000000
00001000
00000000
00000000
00010000
,
00000000
00000000
00100000
00000000
00000000
00010000
00000000
00000000
,
00001000
00000000
00000000
00000000
00110000
00000000
00000000
10000000
,
00000000
00000000
01000000
00000000
00000000
00010000
00000000
00000000
,
01000000
00000000
00000000
00000000
10000000
00000000
00000000
00100000
,
00000000
00000000
01000000
00000000
00000000
00010000
00000000
00000000
,
00100000
00000000
00000000
00000000
00001000
00000000
00000000
00010000
,
00000000
00000000
00000010
00000000
00000000
00000100
00000000
00000000
,
00000001
00000000
00000010
00000000
00001000
00000000
00000000
00000010
,
00000000
00000000
00000100
00000000
00000000
00010000
00000000
00000000
,
00001000
00000000
00100000
00000000
01000000
00000000
00000000
00100000
,
00000000
00000000
00010000
00000000
00000000
01000000
00000000
00000000
,
00100000
00000000
00000000
10000000
01000000
10000000
01000000
10000000
,
01000000
10000000
01000000
10000000
01000000
10000000
01000000
10000000
,
01000000
10000000
01000000
10000000
00010000
00000000
00000000
00000000
,
01000000
00000000
00000000
00100000
00000000
00000000
00010000
00000000
,
00000000
00000000
00000000
00100000
00000000
00010000
00000000
01000000
00000000
00000000
00000000
00000000
,
00000000
00000000
00000000
00100000
00000000
10000000
00000000
01000000
00000000
00000000
00000000
00000000
,
00000000
00000000
00000000
00100000
00000000
00010000
00000000
10000000
00000000
00100000
00000000
20000000
,
00020000
00000000
00000000
00000000
,
00000000
00000000
00000000
00000000
,
30030000
00000000
00000000
00000000
;

//---------------dance-double - ----------------
#NOTES:
     dance-double:
     :
     Easy:
     6:
     0.408,0.738,0.367,0.057,0.000:
00000000
00000000
00000000
00000000
,
00000000
00000000
00000000
00000000
,
00000000
00000000
00000000
00000000
,
00000000
00000000
00000000
00000000
,
00000000
00000000
00000000
00000000
,
00000000
00000000
00000000
00000000
,
00000000
00000000
00000000
00000000
,
00000000
00000000
00000000
00000000
,
00000000
00000000
00000000
00000000
,
00000000
00000000
00000000
00000000
,
00000000
00000000
00000000
00000000
,
00000000
00000000
00000000
00000000
,
10000000
00000000
01000000
00000000
,
00100000
00000000
00010000
00000000
,
01000000
00000000
00001000
00000000
,
00010000
00000000
00000100
00000000
,
00000010
00000001
00000100
00000000
,
00000010
00001000
00000100
00000000
,
00000010
00000001
00001000
00000010
,
00000100
00000001
00001000
00000000
,
00000100
00000000
00000000
00000000
,
00010000
00000000
00000000
00000000
,
00001000
00000000
00000000
00000000
,
01000000
00000000
00000000
00000000
,
01000000
00000000
00000000
00000000
,
00001000
00000000
00000000
00000000
,
00010000
00000000
00000000
00000000
,
00000100
00000000
00000000
00000000
,
00000010
00000001
00000000
00001000
,
00000100
00000010
00000000
00000001
,
00000100
00000010
00000000
00000100
,
00000010
00001000
00000001
00000100
,
00000010
00001000
00000000
00000100
,
00010000
00001000
00000000
01000000
,
00010000
00100000
00000000
01000000
,
10000000
00010000
00100000
01000000
,
10000000
00100000
00000000
10000000
,
00100000
01000000
00000000
00010000
,
01000000
10000000
00000000
01000000
,
00010000
00100000
00001000
00010000
,
00000100
00001000
00000000
00000010
,
00001000
00000001
00000000
00000100
,
00000001
00001000
00000000
00000100
,
00001000
00000001
00000010
00000000
,
00000110
00000000
00000100
00000000
,
00000100
00000000
00000100
00000000
,
00011000
00000000
00000000
00010100
,
00000000
00000000
00011000
00000000
,
01001000
00000000
01000000
00000000
,
01000000
00000000
01000000
00000000
,
10010000
00000000
00000000
10100000
,
00000000
00000000
10010000
00000000
,
00110000
00000000
00100000
00000000
,
00100000
00000000
00100000
00000000
,
01100000
00000000
00000000
11000000
,
00000000
00000000
01100000
00000000
,
00110000
00000000
00010000
00000000
,
00010000
00000000
00010000
00000000
,
00011000
00000000
00000000
00010100
,
00000000
00000000
00011000
00000000
,
00010000
00000100
00001000
00000000
,
00000000
00001000
00000000
00000001
,
00000000
00000100
00000010
00001000
,
00000010
00000000
00000100
00000000
,
00000001
00001000
00000100
00000000
,
00000000
00001000
00000000
00000100
,
00000000
00010000
00001000
01000000
,
00010000
00000000
10000000
00000000
,
01000000
10000000
00010000
00000000
,
00000000
00100000
00000000
00010000
,
00000000
10000000
00100000
01000000
,
00010000
00000000
10000000
00000000
,
01000000
10000000
00010000
00000000
,
00000000
01000000
00000000
00001000
,
00000000
00010000
00000100
00001000
,
00000010
00000000
00000100
00000000
,
00001001
00000000
00000000
00000000
,
00001000
00000000
00000100
00000010
,
00000001
00000000
00000100
00000010
,
00001000
00000000
00000001
00000100
,
00000010
00000000
00000000
00000000
,
00010000
00000000
00000000
00001000
,
00100000
00010000
00000000
10000000
,
01000000
10000000
00000000
10000000
,
00010000
00000000
00000000
00000000
,
01000000
00000000
00000000
00000000
,
00100000
00000000
01000000
00000000
,
10010000
00000000
00000000
00000000
,
10100000
00000000
00000000
00000000
,
00110000
00000000
00000000
00000000
,
10000000
00000000
01000000
00000000
,
00010000
00000000
00001000
00000000
,
00002002
00000000
00000000
00003003
,
00001001
00000001
00001000
00000000
,
00000100
00010000
00001000
00000000
,
01000000
00000000
00010000
00000000
10000000
00100000
01000000
00000000
,
00010000
00000000
00100000
00001000
00010000
00000000
00000000
00000000
,
00001100
00000000
00000001
00000000
00000100
00000010
00001000
00000000
,
00000011
00000000
00000100
00000000
00010000
00001000
00000100
00000000
,
00011000
01000000
10010000
00100000
,
01000000
00010000
00001000
00000100
00000010
00000000
00000000
00000000
,
00000101
00000000
00001100
00000000
,
00000010
00000000
00000000
00001001
00000000
00000000
00000100
00000000
,
00000000
00001001
00000000
00000000
00000010
00000000
00000000
00000000
,
00001001
00000000
00001100
00000000
,
00001001
00000000
00000100
00000000
,
00000010
00000000
00000001
00000000
,
00000000
00000000
00000010
00000000
,
00001001
00000000
00000101
00000000
,
00001001
00000000
00000010
00000000
,
00001000
00000000
00000100
00000000
,
00000000
00000000
00010000
00000000
,
01001000
00000000
00010000
00000000
,
00010100
00000000
00001000
00000000
,
01000000
00000000
00100000
00000000
,
10000000
01000000
00010000
00000000
,
01000000
00000000
10000000
00000000
,
00100000
00000000
01000000
00000000
,
00000000
00000000
00000000
00000000
,
00010000
01000000
10000000
00000000
,
01000000
00010000
00100000
00000000
,
01000000
10000000
00100000
00000000
,
01000000
00000000
00001000
00000000
,
00010000
00000000
00001100
00000000
,
00000010
00000000
00000101
00000000
,
00000010
00000000
00001001
00000000
,
00000100
00000000
00001001
00000000
,
00000000
00000000
00001020
00000000
,
00000031
00000000
00001000
00000000
,
00000100
00000000
00000201
00000000
,
00001300
00000000
00010000
00000000
,
01000000
00000000
12000000
00000000
,
03010000
00000000
01000000
00000000
,
10000000
00000000
10200000
00000000
,
00010000
00300000
00100000
00000000
,
10000000
00000000
00100000
10000000
,
00100000
10000000
00100000
00000000
,
01000000
00000000
00010000
00100000
,
00010000
00100000
00010000
00000000
,
01000000
00000000
00001000
00010000
,
00001000
00010000
00001000
00000000
,
00000100
00000000
00000010
00001000
,
00000010
00001000
00000010
00000000
,
00000001
00000000
00000010
00000100
,
00000001
00000100
00000010
00000000
,
00000001
00000000
00000010
00001000
,
00000001
00000010
00001000
00000000
,
00000010
00000000
00000100
00001000
,
00000001
00000100
00000001
00000000
,
00001000
00000000
00000100
00010000
,
00001000
01000000
00010000
00100000
,
01000000
10000000
00010000
00000000
,
00000000
00000000
00000000
00000000
,
00000000
11000000
00000000
00000000
,
00000000
01010000
00000000
00000000
,
00000000
01100000
00000000
00011000
,
00000000
00000220
00000000
00000000
,
00000000
00000000
00000000
00000000
,
00000330
00000000
00000000
00000000
;

//---------------dance-single - ----------------
#NOTES:
     dance-single:
     :
     Easy:
     6:
     0.429,0.796,0.244,0.137,0.000:
0000
0000
0000
0000
,
0000
0000
0000
0000
,
0000
0000
0000
0000
,
0000
0000
0000
0000
,
0000
0000
0000
0000
,
0000
0000
0000
0000
,
0000
0000
0000
0000
,
0000
0000
0000
0000
,
0000
0000
0000
0000
,
0000
0000
0000
0000
,
0000
0000
0000
0000
,
0000
0000
0000
0000
,
1001
0000
0000
0100
0000
0000
0000
0000
,
0000
0000
0000
0000
,
1000
0000
0000
0100
0000
0000
1000
0000
,
0000
0000
0001
0000
,
1001
0000
0000
0100
0000
0000
0000
0000
,
0000
0000
0000
0000
,
0001
0000
0000
0100
0000
0000
0001
0000
,
0000
0000
0000
0000
,
1001
0000
0000
0000
,
0001
0000
0000
0000
,
1000
0000
0000
0000
,
0010
0000
0000
0000
,
0100
0000
0001
0000
,
1000
0000
0010
0000
,
0100
0001
1000
0010
,
0100
0001
1000
0000
,
0100
1000
0100
1000
,
0100
0010
0100
0010
,
0100
0001
0100
0000
,
1000
0000
0001
0000
,
0100
0001
0100
0001
,
0100
1000
0100
1000
,
0100
0010
0100
0010
,
0100
0000
0001
0000
,
0010
0100
0010
0100
,
0010
1000
0010
1000
,
0010
0001
0010
0001
,
0010
0000
0100
0000
,
0010
0001
0010
0001
,
0010
1000
0010
1000
,
0010
0100
0010
0100
,
1000
0000
0001
0000
,
1100
0000
0001
0000
,
0001
0000
0001
0000
,
2010
0000
0000
0001
,
0000
0000
3100
0000
,
0101
0000
0001
0000
,
0001
0000
0001
0000
,
0012
0000
0000
1000
,
0000
0000
0103
0000
,
1100
0000
1000
0000
,
1000
0000
1000
0000
,
0210
0000
0000
0001
,
0000
0000
1000
0300
,
0110
0000
0010
0000
,
0010
0000
0010
0000
,
1001
0000
0000
1100
,
0000
0000
0101
0000
,
0010
1000
0001
0000
,
1000
0001
0100
0010
,
0000
0010
0100
0001
,
1000
0100
1000
0000
,
0001
0010
0100
0000
,
0010
0100
1000
0001
,
0000
1000
0001
0100
,
0010
0000
0010
0000
,
0100
0001
1000
0000
,
1000
0001
0010
0100
,
0000
0010
0100
0001
,
0100
1000
0100
0000
,
0010
1000
0010
0000
,
0010
0001
1000
0010
,
0000
0100
0001
1000
,
0100
0000
1000
0000
,
2200
0000
3300
0000
,
0001
0000
0000
0100
0000
0000
0010
0000
,
0100
0000
0000
0001
0000
0000
1000
0000
,
0000
0000
0000
1000
,
0100
0000
0000
0010
,
0100
0000
0000
1000
0000
0000
0100
0000
,
0010
0000
0000
0001
0000
0000
1000
0000
,
0000
0000
0010
0000
,
1001
0000
0010
1000
,
0001
0000
0100
0001
,
1000
0000
0000
0001
0000
0000
0100
0000
,
0000
0000
0010
0000
,
1000
0000
0100
0000
,
0010
0000
0001
0000
,
1000
0010
0100
0001
,
1000
0100
0010
0001
,
2002
0000
0000
3003
,
1000
0100
0010
0001
,
2000
0000
3010
0100
0001
0000
0000
0000
,
0001
0100
0010
1000
,
0002
0000
1003
0001
0100
0000
0000
0000
,
0102
1000
0013
0000
,
2100
0001
3010
0000
,
0210
0301
0210
1300
,
1000
0001
0100
0000
,
0100
0000
0100
0000
,
0100
0000
0000
0100
0000
0000
0100
0000
,
0000
0100
0000
0000
1001
0000
0000
0000
,
0001
1000
0100
0000
,
1000
0000
0000
0000
0100
0000
0000
0100
,
0000
0100
0000
1000
,
0001
0000
0100
0000
,
0010
0000
1000
0010
,
0100
0001
1000
0000
,
1000
0000
0001
0000
,
0001
0010
0100
0000
,
0010
0100
1000
0000
,
1000
0000
0000
0000
0001
0000
0000
0001
,
0000
0001
0000
1000
,
0100
0000
0110
0000
,
0100
0000
0000
0000
1000
0000
0000
0010
,
0000
1000
0010
0000
,
0100
0000
0100
0000
,
0100
0001
1001
0000
,
1000
0000
0101
0000
,
0001
0000
1100
0000
,
1000
0000
0010
0000
,
0100
0001
0010
0000
,
0010
0000
0100
0000
,
0100
0000
1000
0000
,
0001
0000
0100
0000
,
0010
0000
1010
0000
,
0100
0000
0011
0000
,
0100
0000
1001
0000
,
0100
0000
1001
0000
,
0010
0000
0100
0000
,
1000
0000
0010
0000
,
0001
0000
0010
0000
,
0100
0000
0001
0000
,
1000
0000
0001
0000
,
1000
0000
0100
1000
,
0001
0000
1000
0000
,
0001
0000
0100
0001
,
1000
0000
0001
0000
,
1000
0000
0010
1000
,
0001
0000
1000
0000
,
0001
0000
0010
0001
,
1000
0000
0100
1000
,
0010
1000
0100
1000
,
0010
0000
0100
0001
,
0010
0001
0100
0001
,
0010
0000
0100
1000
,
0100
1000
0100
0001
,
0100
0000
0010
1000
,
0010
1000
0010
0001
,
0010
0000
0200
0000
,
2300
0000
0000
3002
0000
0000
0203
0000
,
0300
0110
0000
0000
,
0000
1100
0000
0000
,
0000
0101
0000
1001
,
0000
0220
0000
0000
,
0000
0000
0000
0000
,
0000
0330
0000
0000
;
