#TITLE:L'erisia;
#SUBTITLE:(Primary Logic);
#ARTIST:Zektbach;
#TITLETRANSLIT:;
#SUBTITLETRANSLIT:;
#ARTISTTRANSLIT:;
#GENRE:;
#CREDIT:;
#BANNER:Lerisia-bn.png;
#BACKGROUND:Lerisia-bg.png;
#LYRICSPATH:;
#CDTITLE:;
#MUSIC:Lerisia.ogg;
#OFFSET:-0.400;
#SAMPLESTART:57.810;
#SAMPLELENGTH:12.000;
#SELECTABLE:YES;
#BPMS:0.000=234.000,128.000=117.000,176.000=234.000,332.000=117.000;
#STOPS:;
#BGCHANGES:;
#KEYSOUNDS:;

//---------------dance-single - TaroNuke DDR----------------
#NOTES:
     dance-single:
     TaroNuke DDR:
     Hard:
     8:
     0.577,0.725,0.300,0.155,0.019:
0000
0000
0000
0000
,
0000
0000
0000
0000
,
0000
0000
0000
0000
,
0000
0000
0000
0000
,
1000
0100
0010
1000
,
0010
0100
1000
0001
,
0010
0100
0001
0100
,
0010
0000
0001
0000
1000
0001
1000
0000
,
0001
0000
0100
0000
0010
1000
0010
0000
,
1000
0000
0100
0000
0010
0001
0010
0000
,
0001
0000
1000
0000
0001
1000
0001
0000
,
0100
0000
0010
0000
0100
0010
0100
0000
,
0001
0100
0101
0000
,
1000
0100
1100
0000
,
0001
0100
0001
0100
,
0010
0000
1000
0000
0010
1000
0001
0000
,
1000
0000
0100
0000
0001
0100
1000
0000
,
0001
0000
0010
0000
1000
0010
0001
0000
,
1000
0000
0010
0000
0001
0010
1000
0000
,
0001
0000
0100
0000
1000
0100
0001
0000
,
1000
0010
1010
1000
,
0001
0100
0101
0100
,
0001
0100
0010
1000
,
0100
0000
0010
0000
0001
1000
0001
1000
,
0010
0000
1010
0000
0000
0101
0000
0000
,
0010
0000
0011
0000
0000
1100
0000
0000
,
1000
0000
1001
0000
0000
0110
0000
0000
,
0001
0000
0101
0000
0000
0110
0000
0000
,
1100
0000
1000
0010
0100
0001
0010
0000
,
0011
0000
0001
0100
0010
1000
0100
0000
,
1100
0000
1000
0010
0100
0001
0010
0000
,
0001
0010
0001
0100
0010
1000
0100
0000
,
1000
0010
1000
0010
,
1000
0001
1000
0001
,
0200
0010
0000
0010
,
0000
0010
0000
0010
,
0302
0010
0000
0010
,
2003
0100
0000
3002
,
1000
0010
0000
0010
,
1000
0010
0203
1000
,
0320
0000
1000
0000
0000
0001
0000
0000
1000
0000
0000
0000
0000
1000
0000
0000
,
1000
0000
1000
0000
0000
0001
0000
0000
1000
0000
0000
0000
0000
1000
0030
0000
,
2020
0000
0000
0000
,
0000
0000
0030
0000
0010
0010
3010
0010
,
2020
3030
0000
1010
0000
1100
0000
2002
,
0000
3003
0000
0202
0000
0303
0000
0011
,
0000
1001
0000
0001
0100
0001
0000
1000
,
0100
1000
0010
0100
0000
0001
1000
0000
,
0000
0000
1100
0000
0000
0101
0000
0000
,
1100
0000
0000
0101
0000
1000
0100
0010
,
0001
0100
0010
0000
1000
0100
1000
0000
,
0001
0010
0100
1000
0000
0100
0010
0000
,
0000
0011
0000
0000
0110
0000
0000
1100
,
0000
1000
0100
1000
0001
0010
0001
0000
,
1000
0010
0000
0100
0010
0100
0000
0001
,
0000
1000
0010
0100
0000
0100
0001
0000
,
0000
0000
0001
0100
0010
1000
0100
1000
,
0000
0001
0100
0010
1000
0100
1000
0000
,
0001
0100
0010
1000
0100
0000
0010
0100
,
1000
0000
0001
1000
0100
1000
0001
0000
,
1000
0000
0010
0000
0100
0010
0100
0000
,
0001
0000
1000
0000
0010
1000
0010
0000
,
1000
0000
0100
0000
0010
0001
0010
0000
,
0001
0000
0010
0000
0100
1000
0100
1000
,
0001
0000
0100
0000
1000
0100
0001
0000
,
0100
0000
0010
0000
0001
0010
1000
0001
,
0100
0010
1000
0001
0100
0010
1000
0000
,
0001
0010
1000
0010
0001
0100
0010
0000
,
1000
0000
0100
0000
0010
0001
0010
0000
,
0001
0000
0010
0000
0100
1000
0100
0000
,
1000
0010
0100
0001
,
0010
0100
0010
0001
,
0010
0000
0010
0000
0100
0000
0100
0010
,
0001
0000
0001
0000
1000
0000
1000
0100
,
0010
0001
0100
0010
,
1000
0001
0010
0100
,
1000
0000
1000
0000
0001
0100
0010
0000
,
0100
0000
0100
0000
0001
0010
0100
0000
,
0010
0000
0010
0000
0001
1000
0100
0000
,
0001
0000
0001
0000
0100
1000
0001
0000
,
0001
0010
0001
0000
0100
0010
0100
0000
,
0010
1000
0010
0000
1000
0100
1000
0000
,
0001
0100
1000
0000
0001
0010
1000
0000
,
2020
3030
0000
0000
0000
0000
0000
0000
;

//---------------dance-single - TaroNuke ITG----------------
#NOTES:
     dance-single:
     TaroNuke ITG:
     Challenge:
     9:
     0.721,0.747,0.358,0.155,0.078:
0000
0000
0000
0000
,
0000
0000
0000
0000
,
0000
0000
0000
0000
,
0000
0000
0000
0000
,
1000
0100
1000
0000
0001
0100
0010
0100
,
0001
0000
1000
0100
1000
0000
0001
0100
,
0010
1000
0100
1000
0001
0000
0100
0010
,
0100
0000
0001
0100
0010
1000
0100
1000
,
0001
0100
0010
0100
0001
0000
1000
0100
,
1000
0000
0010
0100
0001
0100
0010
0000
,
1000
0001
0100
0010
1000
0100
1000
0001
,
0100
0010
0100
0001
1000
0100
1000
0000
,
0001
0100
0001
0100
0010
1000
0010
1000
,
0100
1000
0100
1000
0010
0100
0010
0100
,
0001
0100
0010
1000
0100
1000
0001
0100
,
0010
1000
0010
0100
0001
0010
0100
1000
,
0001
0100
0001
0000
1000
0010
0100
0010
,
1000
0000
0001
0100
0010
1000
0100
1000
,
0001
0000
0100
0010
0100
0001
0100
0010
,
1000
0100
1000
0010
0100
0001
1000
0001
,
0100
0001
0100
0001
1000
0010
1000
0010
,
0100
0010
0100
0010
0100
0001
0100
0001
,
1000
0100
0010
0001
0100
0010
0100
0001
,
1000
0010
0100
0010
1000
0100
1000
0100
,
1000
0000
1100
0000
0000
1M10
0000
0010
,
0100
0000
0110
0000
0000
01M1
0000
0001
,
0010
0000
0011
0000
0000
11M0
0000
1000
,
0001
0000
1001
0000
0000
011M
0000
0100
,
01M1
0000
1000
0100
0001
0100
1000
0000
,
1001
0000
0001
0100
1000
0100
0001
0000
,
1001
0000
1000
0100
0001
0100
1000
0000
,
0001
0100
1000
0100
0010
0100
0001
0000
,
1MM1
0000
0000
0000
,
M000
00M0
M000
00M0
,
0202
0010
0000
0010
,
0000
0010
0000
0310
,
2000
0010
0000
3010
,
0200
0010
0303
2200
,
0010
0010
0000
0001
,
0000
3310
0202
0303
,
0012
0000
0010
0000
0000
0100
0000
0000
0010
0000
0000
0000
0000
0010
0000
0000
,
0010
0000
0010
0000
0000
1000
0000
0000
0010
0000
0000
0000
0000
0010
0000
0000
,
0203
0000
1000
0000
0000
0010
0000
0000
0001
0000
0000
0000
0000
0001
0000
0000
,
0010
0000
1000
0000
0000
0010
0000
0000
0301
0000
0000
0000
0001
0100
0001
0000
,
2020
0000
3030
1100
0000
1010
0000
2002
,
0000
3003
0000
0202
0000
0303
0000
0011
,
0000
1001
0000
0001
0100
0001
0000
1000
,
0100
1000
0010
0100
0000
0001
1000
0000
,
0000
0000
1100
0000
0000
0101
0000
0000
,
1100
0000
0000
0101
0000
1000
0100
0010
,
0001
0100
0010
0100
0001
1000
0010
0100
,
0001
0010
0100
1000
0000
0100
0010
0000
,
0000
0101
0000
0000
0101
0000
0000
1100
,
0000
1000
0100
0001
0100
0010
0100
1000
,
0001
0100
0000
0010
0100
0010
0000
1000
,
0000
0001
0100
0010
0000
0100
0001
0000
,
0000
0000
0001
0100
0010
1000
0100
1000
,
0000
0001
0100
0010
1000
0100
1000
0000
,
0001
0100
0010
1000
0100
0010
0001
0100
,
0010
0100
0001
1000
0100
1000
0001
0000
,
1000
0100
0010
0001
1000
0100
0010
0001
,
0010
0100
1000
0001
0010
0100
1000
0100
,
0010
0100
1000
0100
0010
0100
1000
0001
,
0010
0100
0010
0001
0100
0010
1000
0001
,
1000
0100
0100
0010
0001
1000
1000
0001
,
0010
0001
0100
0010
1000
0100
0001
0100
,
1000
0001
0010
0100
0001
0100
0010
0001
,
1000
0100
0010
0100
1000
0001
0010
0100
,
1000
0100
1000
0000
0010
0100
0010
0000
,
1000
0001
1000
0000
0010
0100
0010
0000
,
1000
0100
1000
0100
0010
0001
0010
0001
,
0100
0010
1000
0100
0010
0100
1000
0100
,
0001
0100
1000
0010
0100
0000
0000
0000
,
0001
0100
0010
1000
0100
0000
0000
0000
,
1000
0100
0010
0100
1000
0001
0100
0010
,
1000
0100
0010
0001
0100
0010
1000
0000
,
0001
0000
0010
0000
0100
0000
1000
00M1
,
1000
0000
0100
0000
0010
0000
0001
M100
,
0001
0000
0010
0000
0100
0000
1000
0MM0
,
0001
0100
0010
1000
,
0001
0010
0011
0000
1000
0010
1010
0000
,
1000
0100
1100
0000
0001
0010
0011
0000
,
1000
0001
1001
0000
0100
0010
0110
0000
,
1001
0000
M000
0M00
00M0
0000
M000
0M00
00M0
0000
000M
0000
0000
0000
0000
0000
,
0000
0000
0M00
00M0
000M
0000
0M00
00M0
000M
00M0
0M00
M000
0000
0000
0000
0000
,
0000
0000
M000
0M00
00M0
0000
M000
0M00
00M0
0000
000M
0000
0000
0000
0000
0000
;

//---------------dance-single - TaroNuke----------------
#NOTES:
     dance-single:
     TaroNuke:
     Beginner:
     2:
     0.159,0.241,0.058,0.068,0.000:
0000
0000
0000
0000
,
0000
0000
0000
0000
,
0000
0000
0000
0000
,
0000
0000
0000
0000
,
0000
0000
0000
0000
,
0000
0000
0000
0000
,
0000
0000
0000
0000
,
0000
0000
0000
0000
,
1000
0000
0000
0000
,
0010
0000
0000
0000
,
0100
0000
0000
0000
,
0001
0000
0000
0000
,
0001
0000
1001
0000
,
0100
0000
0110
0000
,
0100
0000
0000
0000
,
0001
0000
0000
0000
,
1000
0000
0000
0000
,
0010
0000
0000
0000
,
0100
0000
0000
0000
,
0001
0000
0000
0000
,
1000
0000
1001
0000
,
0010
0000
0110
0000
,
0100
0000
0000
0000
,
0001
0000
0000
0000
,
1000
0000
0000
0000
,
0100
0000
0000
0000
,
0001
0000
0000
0000
,
0010
0000
0000
0000
,
1000
0000
1000
0000
,
0100
0000
0100
0000
,
0001
0000
0001
0000
,
0010
0000
0010
0000
,
1000
0000
0000
0000
,
0000
0000
0000
0000
,
0020
0000
0000
0000
,
0000
0000
0000
0000
,
0032
0000
0000
0000
,
0023
0000
0000
0230
,
0000
0000
0000
0000
,
0000
0000
0320
0030
,
2002
0000
0000
0000
,
0000
0000
0000
0000
,
0000
0000
0000
0000
,
0000
0000
3003
0000
,
1000
0000
0000
0000
,
0100
0000
0000
0000
,
0010
0000
0000
0000
,
0100
0000
0000
0000
,
1000
0000
0000
0000
,
0001
0000
0000
0000
,
0010
0000
0000
0000
,
0100
0000
0000
0000
,
1000
0000
0000
0000
,
0001
0000
0000
0000
,
1000
0000
0000
0000
,
0001
0000
0000
0000
,
0100
0000
0000
0000
,
0010
0000
0000
0000
,
0100
0000
0000
0000
,
0010
0000
0000
0000
,
1000
0000
1000
0000
,
0001
0000
0001
0000
,
0100
0000
0100
0000
,
0001
0000
0001
0000
,
1000
0000
1000
0000
,
0010
0000
0010
0000
,
0100
0000
0100
0000
,
0001
0000
0001
0000
,
1000
0000
0010
0000
,
0100
0000
0001
0000
,
0100
0000
0010
0000
,
1000
0000
0001
0000
,
1000
0000
1000
0000
,
0001
0000
0001
0000
,
0100
0000
0001
0000
,
0010
0000
0100
0000
,
1000
0000
0001
0000
,
0010
0000
0001
0000
,
1000
0000
0100
0000
,
0010
0000
0100
0000
,
1000
0000
1000
0000
,
0100
0000
0100
0000
,
0010
0000
0010
0000
,
1001
0000
0000
0000
;

//---------------dance-single - TaroNuke----------------
#NOTES:
     dance-single:
     TaroNuke:
     Easy:
     4:
     0.378,0.643,0.087,0.417,0.000:
0000
0000
0000
0000
,
0000
0000
0000
0000
,
0000
0000
0000
0000
,
0000
0000
0000
0000
,
1000
0000
0010
0000
,
0100
0000
0001
0000
,
1000
0010
1000
0000
,
0001
0100
0001
0000
,
1000
0000
0010
0000
,
0100
0000
0001
0000
,
1000
0100
0010
0001
,
1000
0010
0100
0000
,
0001
0000
0100
0000
,
0010
0000
1000
0000
,
0001
0100
0001
0000
,
1000
0010
1000
0000
,
0001
0000
0100
0000
,
0010
0000
1000
0000
,
0001
0010
0100
1000
,
0001
0100
0010
0000
,
2000
0000
3200
0000
,
0302
0000
0203
0000
,
2300
0000
3020
0000
,
0230
0000
0001
0000
,
0301
0000
0101
0000
,
0100
0000
0110
0000
,
0010
0000
1010
0000
,
1000
0000
1100
0000
,
1000
0001
1001
0000
,
0001
0100
0101
0000
,
0100
0010
0110
0000
,
0010
1000
1010
0000
,
1001
1000
0001
1000
,
0010
0100
0010
0100
,
0002
0103
0200
0301
,
0002
0103
0200
0301
,
0020
0130
0020
0031
,
0200
0310
0200
2300
,
3200
0301
0200
1300
,
0200
0301
0020
0230
,
0302
0103
2000
3100
,
0002
0103
2000
3100
,
0002
0203
2300
3200
,
0302
0203
2300
3002
,
1003
0000
0100
0000
,
0010
0000
0100
0000
,
1000
0000
0010
0000
,
0100
0000
0001
0000
,
1000
0100
1000
0000
,
0010
0100
0010
0000
,
0100
0001
0100
0000
,
0010
1000
0010
1000
,
0010
0000
0010
0000
,
0100
0000
0100
0000
,
0001
0000
1000
0000
,
0001
0000
0100
0000
,
0010
1000
0010
0000
,
0100
0001
0100
0000
,
0010
1000
0010
0100
,
0001
0100
0001
1000
,
0002
0000
0103
0000
,
0020
0000
1030
0000
,
0200
0000
0310
0000
,
0002
0000
1003
0000
,
0100
0010
0001
0000
,
1000
0100
0010
0000
,
0100
0010
0001
0000
,
0010
0001
1000
0000
,
0001
0000
0001
0000
,
0010
0000
0010
0000
,
0100
0000
0100
0000
,
1000
0000
1000
0000
,
0001
0100
0001
0000
,
0100
0010
0100
0000
,
0010
1000
0010
0100
,
0010
1000
0100
0000
,
0010
0001
0100
0000
,
0010
1000
0100
0000
,
0010
0001
1000
0000
,
0010
1000
0001
0000
,
2000
0000
3002
0000
,
0203
0000
0320
0000
,
2030
0000
3002
0000
,
1003
0000
0000
0000
;

//---------------dance-single - TaroNuke----------------
#NOTES:
     dance-single:
     TaroNuke:
     Medium:
     6:
     0.358,0.322,0.058,0.097,0.000:
0000
0000
0000
0000
,
0000
0000
0000
0000
,
0000
0000
0000
0000
,
0000
0000
0000
0000
,
0000
0000
0000
0000
,
0000
0000
0000
0000
,
0000
0000
0000
0000
,
0000
0000
0000
0000
,
1000
0001
1000
0000
,
0010
0100
0010
0000
,
1000
0100
0010
0001
,
0100
0010
1000
0001
,
0200
0000
0320
0000
,
2030
0000
3002
0000
,
0103
0010
0100
0001
,
0100
0010
1000
0010
,
1000
0100
1000
0000
,
0001
0100
0001
0000
,
1000
0100
0010
0001
,
0100
0010
1000
0100
,
1000
0010
2000
0000
,
3001
0100
0020
0000
,
0130
0010
0100
0001
,
0100
1000
0100
0001
,
1000
0100
1000
0100
,
1000
0010
1000
0010
,
0100
0001
0100
0001
,
0010
0001
0010
0001
,
1000
1000
0100
0001
,
0001
0001
0100
1000
,
1000
1000
0100
0001
,
0001
0100
1000
1000
,
1001
0000
0001
0000
,
1000
0000
0001
0000
,
1000
0000
0100
0000
,
1000
0000
0100
0000
,
0010
0000
0100
0000
,
0010
0000
0100
0000
,
0001
0000
0100
0000
,
0001
0000
0100
0000
,
0010
0000
0100
0000
,
0010
0000
0100
0000
,
1000
0000
0100
0000
,
1000
0000
0001
0000
,
1100
0100
1000
0000
,
0010
0100
0010
0000
,
1000
0100
0010
0001
,
0100
0010
1000
0100
,
1000
0010
1000
0000
,
0001
0100
0001
0000
,
1000
0100
1000
0100
,
1000
1000
0001
0001
,
0100
0000
0010
0000
,
0100
0000
0001
0000
,
1000
0001
0100
0010
,
0100
0001
1000
0010
,
0000
1100
1100
0000
,
0000
0011
0011
0000
,
1000
0001
1000
0001
,
0100
0010
0100
0010
,
1000
0100
0010
0001
,
0010
0100
1000
0001
,
0100
0001
0010
0100
,
1000
0001
0010
0001
,
1000
0100
0010
0001
,
0010
0100
1000
0001
,
0100
0001
0010
0100
,
1000
0001
0010
0001
,
1000
0100
0100
0010
,
0001
0010
0100
1000
,
1000
0100
0010
0100
,
1000
0100
0010
0001
,
0001
0010
0100
1000
,
0001
0010
0100
1000
,
0001
0010
0100
1000
,
1000
0001
0010
0100
,
1000
0000
0001
0000
,
1000
0000
0001
0000
,
0100
0000
0010
0000
,
0001
0000
0010
0000
,
0200
0000
0320
0000
,
2030
0000
3002
0000
,
1003
0001
0100
0010
,
1000
0000
0000
0000
;
