#TITLE:Jewelry Angel;
#SUBTITLE:;
#ARTIST:Access;
#TITLETRANSLIT:;
#SUBTITLETRANSLIT:;
#ARTISTTRANSLIT:;
#CREDIT:;
#BANNER:Jewelry Angel.png;
#BACKGROUND:Jewelry Angel-BG.png;
#LYRICSPATH:;
#CDTITLE:;
#MUSIC:Jewelry Angel.mp3;
#OFFSET:0.640;
#SAMPLESTART:61.681;
#SAMPLELENGTH:13.533;
#SELECTABLE:YES;
#BPMS:0.000=133.100;
#STOPS:;
#BGCHANGES:1.000=[DDR Artists] - Jewelry Angel.avi=1.000=1=0=1,
99999=-nosongbg-=1.000=0=0=0 // don't automatically add -songbackground-
;

//---------------dance-single - ----------------
#NOTES:
     dance-single:
     :
     Easy:
     3:
     0.165,0.198,0.111,0.024,0.000:
0000
0000
0000
0000
,
0000
0000
0000
0000
,
0000
0000
0000
0000
,
0000
0000
0000
0000
,
0000
0000
0000
0000
,
0000
0000
0000
1000
,
0000
0000
0000
0001
,
0000
0000
0000
1000
,
0001
1000
0000
0001
,
1000
0001
0000
1000
,
0100
0010
0001
0000
,
0000
0000
0000
0001
,
0010
0100
1000
0000
,
0000
0000
0000
1000
,
0000
1001
0000
0001
,
0000
1000
0000
0000
,
0001
0000
0100
0000
,
0001
0000
0110
0000
,
1000
0000
0100
0000
,
1000
0000
0110
0000
,
1000
0100
1000
0001
,
0100
0001
0000
1001
,
0000
1000
0000
0001
,
0000
0010
0000
0001
,
0000
1000
0000
0010
,
0100
0010
0100
0000
,
0000
0001
0000
1000
,
0000
0001
0000
0100
,
0010
0100
0010
0100
,
0000
0000
0000
1001
,
0000
1001
0000
1100
,
0000
1100
0000
0101
,
0000
0101
0000
0000
,
0000
0000
0000
0000
,
0000
0000
0000
2002
,
0000
0000
0000
0000
,
0000
0000
0000
3003
,
0000
0000
0000
0000
,
0000
0000
0000
1000
,
0100
1000
0000
0001
,
0100
0001
0000
0100
,
0010
0100
0010
0100
,
0000
0000
0000
1000
,
0010
1000
0000
0001
,
0010
0001
0000
1100
,
0000
0101
0000
1000
,
0001
1000
0000
0001
,
0010
0100
0000
1000
,
0100
0010
0000
0001
,
1000
0001
1000
0002
,
0000
0000
0000
1003
,
0100
1000
0000
0001
,
0100
0001
0000
1000
,
0100
1000
0100
1000
,
0001
0100
0001
0100
,
0001
1000
0000
0001
,
0010
0001
0000
1000
,
0001
0100
0001
0100
,
0001
1000
0100
0000
,
0000
0000
0000
1001
,
0000
0000
0000
1000
,
0100
0010
0001
0010
,
0100
1000
0001
0000
;

//---------------dance-single - ----------------
#NOTES:
     dance-single:
     :
     Medium:
     6:
     0.310,0.322,0.111,0.111,0.075:
0000
0000
0000
0000
,
0000
0000
0000
0000
,
0000
0000
0000
0000
,
0000
0000
0000
0000
,
0000
0000
0000
0000
,
0000
0000
0000
2000
,
3000
0001
0001
0000
0100
0000
0002
0000
,
0003
1000
1000
0000
0100
0000
1000
0100
,
1000
0000
0001
0100
0001
0000
1000
0000
,
0001
0100
0010
1001
,
1000
0200
0300
0010
,
0001
0100
0010
1000
,
0010
0200
0300
0010
,
1000
0001
1000
0000
,
1000
0100
1000
0000
0001
0100
0001
0000
,
1000
0100
0010
0001
1000
0000
0000
0000
,
0000
0000
0001
0100
0001
0000
1000
0000
,
0001
0010
0001
0010
0001
0000
1000
0000
,
0010
0000
1000
0100
1000
0100
1000
0000
,
0001
0000
1000
0001
0100
0000
0000
0000
,
1000
0000
0100
0010
0100
0000
1000
0000
,
0001
0000
0100
0010
0100
0000
0000
0000
,
0001
1000
0100
0000
0010
0001
0010
0000
,
0100
0000
1000
0001
1000
0000
0001
0000
,
1000
0000
0000
0000
0001
0000
0100
0000
0001
0000
0000
0000
1000
0000
0000
0100
,
0000
1000
0100
0000
1000
0000
0000
0000
,
0010
1000
0100
0000
0010
0001
0010
0000
,
0100
1000
0100
0010
0001
0000
0000
0000
,
1000
0010
0100
0001
0100
0001
0010
0000
,
0000
0000
0000
1200
,
0000
0320
0000
0032
,
0000
0003
0000
0200
,
0000
0320
0000
0031
,
1001
0100
1001
1100
,
0011
1100
0011
2002
,
0000
0000
0000
0000
,
0000
0000
0000
0000
0000
0000
0000
0000
3003
0000
0000
0000
0001
0000
0000
0100
,
0000
0000
0001
0000
0100
0000
0000
0000
0000
0000
0000
0000
1000
0000
0000
0100
,
0000
0000
1000
0000
0100
0000
0000
0000
0000
0000
0000
0000
1000
0000
0000
0100
,
0000
0000
0001
0000
0100
0000
0000
0000
0000
0000
0000
0000
0001
0000
0000
0100
,
0000
0000
1000
0000
0100
0000
0000
0000
0000
0000
0000
0000
1000
0000
0000
0001
,
0000
1000
0001
0100
0001
1000
0001
0000
,
1000
0000
0000
0000
0001
0000
0000
0000
1001
0000
0000
0000
1000
0000
0000
0001
,
0000
0000
0010
0000
0001
0000
0000
0000
1000
0000
0000
0000
0001
0000
0000
1000
,
0000
0010
0100
0000
1001
0000
0010
0000
,
0001
0000
0000
0000
1000
0000
0100
0000
1000
0000
0100
0000
1000
0000
0000
0001
,
0000
0000
0100
0000
0001
0000
0000
0000
0000
0000
0000
0000
0100
0000
0000
0001
,
0000
0000
1000
0000
0100
0000
0000
0000
0010
0000
0000
0000
0001
0000
0000
1000
,
0000
0000
0100
0000
1000
0000
0000
0000
1001
0000
0000
0000
1000
0000
0000
0100
,
0000
0000
1000
0000
0001
0000
0000
1000
0000
0000
0001
0000
0200
0000
0000
0000
,
0000
0000
0000
0000
0000
0000
0000
0000
0300
0000
0000
0000
0001
0000
0000
0100
,
0000
0000
0001
0000
1000
0000
0000
0000
0010
0000
0000
0000
1000
0000
0000
0100
,
0000
1000
0100
0000
0000
0000
0001
0100
,
0001
0000
1000
0100
1000
0000
0001
0100
,
0001
0000
0100
0000
0010
0000
0100
0000
0001
0000
1000
0000
0001
0000
0000
0100
,
0000
0000
0010
0000
1000
0000
0000
0000
0001
0000
0000
0000
1000
0000
0000
0100
,
0000
0010
0001
0000
1000
0000
0001
0100
,
0010
0000
1000
0100
0010
0000
0001
0010
,
0001
0000
0010
0000
0100
0000
1000
0000
0100
0000
0000
0000
1000
0000
0000
0001
,
0000
0000
1000
0000
0001
0000
0000
0000
1001
0000
0000
0000
0001
0000
0000
1000
,
0000
0001
1000
0000
1001
0000
2000
0000
,
0000
0000
3000
0002
,
0000
0000
0003
0000
;

//---------------dance-single - ----------------
#NOTES:
     dance-single:
     :
     Hard:
     8:
     0.402,0.445,0.238,0.127,0.182: // measure 1
0000
0000
0000
0000
,  // measure 2
0000
0000
0000
0000
,  // measure 3
0000
0000
0000
0000
,  // measure 4
0000
0000
0000
0000
,  // measure 5
0000
0000
0000
0000
,  // measure 6
0000
0000
0000
0000
0000
0000
0000
0000
0000
0000
0000
0000
1000
0000
0000
0100
,  // measure 7
0000
0000
1000
0000
0001
0000
0000
0000
0100
0000
0000
0000
0001
0000
0000
0100
,  // measure 8
0000
0001
0100
0000
1001
0000
1000
0100
,  // measure 9
1000
0000
0001
0010
0000
0100
1000
0000
0001
0000
0100
0000
0001
0000
1000
0000
,  // measure 10
0001
0000
1000
0100
0000
0010
0001
0000
0100
0000
0001
0000
1000
0000
0000
0000
,  // measure 11
0001
0000
0000
0000
0200
0000
0000
0310
0000
0000
0000
0000
1000
0000
0100
0000
,  // measure 12
0010
0000
0001
0000
0020
0000
0000
0031
0000
0000
0000
0000
0100
0000
0000
0000
,  // measure 13
0020
0000
0000
0000
1030
0000
0000
0100
0000
0000
0000
0000
0010
0000
0001
0000
,  // measure 14
0100
0000
0010
0000
2000
0000
0000
3001
0000
0000
0100
0001
1000
0000
0100
0000
,  // measure 15
1000
0001
0010
0000
0001
1000
0020
0000
,  // measure 16
1030
0100
0010
0001
1001
0000
0100
0000
,  // measure 17
0010
0000
1000
0100
1000
0000
0002
0000
,  // measure 18
0103
0010
1000
0010
1001
0000
1000
0100
,  // measure 19
0010
0001
0010
0000
0001
0100
0010
0000
,  // measure 20
1000
0001
1000
0001
0101
0000
1001
0000
,  // measure 21
1000
0000
0100
0010
0100
0000
0011
0000
,  // measure 22
1000
0000
0100
0010
0100
0000
1000
0100
,  // measure 23
0010
0001
0100
0000
0010
1000
0010
0000
,  // measure 24
0100
0001
0100
0010
1100
0000
1000
0000
,  // measure 25
0001
0000
0000
0000
1000
0000
0100
0000
1000
0000
0000
0000
0001
0000
0000
1000
,  // measure 26
0000
0001
0100
0000
1001
0000
0001
0100
,  // measure 27
0010
1000
0100
0000
0010
0001
0010
0000
,  // measure 28
0100
1000
0100
0010
0011
0000
1000
0010
,  // measure 29
0100
0001
0100
1000
0100
0001
0010
0000
,  // measure 30
0000
0000
0000
1200
,  // measure 31
0000
0320
0000
0032
,  // measure 32
0000
0003
0000
0200
,  // measure 33
0000
0000
0000
0000
0320
0000
0000
0000
0000
0000
0000
0000
1030
0100
1000
0000
,  // measure 34
1001
0000
0000
0000
0001
0100
0001
0000
1001
0000
0000
0000
0010
0001
0000
1000
,  // measure 35
0100
0000
1000
0001
0000
0100
0001
0000
1000
0000
0001
0000
2002
0000
0000
0000
,  // measure 36
0000
0000
0000
0000
,  // measure 37
0000
0000
0000
0000
0000
0000
0000
0000
3003
0000
0000
0000
0001
0000
0000
0100
,  // measure 38
0000
0000
0001
0000
0100
0000
0010
0000
0100
0000
0010
0000
1000
0000
0000
0100
,  // measure 39
0000
0000
1000
0000
0100
0000
0000
0000
1001
0000
0000
0000
1000
0000
0000
0100
,  // measure 40
0000
0000
0001
0000
0100
0000
0000
0000
1001
0000
0000
0000
0001
0000
0000
0100
,  // measure 41
0000
0000
1000
0000
0100
0000
0000
0000
1001
0000
0000
0000
1000
0000
0000
0001
,  // measure 42
0000
1000
0001
0100
0001
1000
0001
0000
,  // measure 43
1000
0000
0000
0000
0001
0000
0000
0000
1000
0000
0000
0000
1001
0000
0000
0001
,  // measure 44
0000
0000
0010
0000
0100
0000
0000
0000
1001
0000
0000
0000
0100
0000
0000
0010
,  // measure 45
0000
0100
0010
0000
1100
0000
0110
0000
,  // measure 46
0010
0000
0001
0000
0010
0000
0100
0000
1000
0000
0100
0000
1000
0000
0000
0001
,  // measure 47
0000
0000
0100
0000
0001
0000
0000
0000
0000
0000
0100
0010
0100
0000
0000
0001
,  // measure 48
0000
0000
1000
0000
0100
0000
0000
0000
0110
0000
1000
0100
1000
0000
0000
0001
,  // measure 49
0000
0000
0100
0000
0001
0000
0000
0000
1001
0000
0000
0000
1000
0000
0000
0100
,  // measure 50
0000
0000
1000
0000
0001
0000
0000
1000
0000
0000
0001
0000
0200
0000
0000
0000
,  // measure 51
0000
0000
0000
0000
0000
0000
0000
0000
0300
0000
0000
0000
1001
0000
0000
0100
,  // measure 52
0000
0000
0001
0000
1000
0000
0000
0000
0110
0000
0000
0000
1001
0000
0000
0100
,  // measure 53
0000
1000
0100
0000
1001
0000
0001
0100
,  // measure 54
0001
0000
1000
0010
0000
0100
0001
0000
1000
0000
0100
0000
1000
0000
0001
0000
,  // measure 55
1000
0000
0001
0100
0000
0010
1000
0000
0100
0000
1000
0000
0001
0000
0000
0100
,  // measure 56
0000
0000
0010
0000
1000
0000
0000
0000
0101
0000
0000
0000
1000
0000
0000
0100
,  // measure 57
0000
0010
0001
0000
1001
0000
0001
0100
,  // measure 58
0010
0000
1000
0100
0000
0010
0001
0000
0100
0000
0010
0000
1000
0000
0100
0000
,  // measure 59
1000
0000
0001
0100
0000
0010
1000
0000
0001
0000
0100
0000
0001
0000
0000
1000
,  // measure 60
0000
0000
0100
0000
1000
0000
0000
0000
0101
0000
0000
0000
1000
0000
0000
0001
,  // measure 61
0000
0100
0001
0000
1001
0000
2000
0000
,  // measure 62
0000
0000
3000
0002
,  // measure 63
0000
0000
0003
0000
;
