#TITLE:JUMPER;
#SUBTITLE:;
#ARTIST:capsule;
#TITLETRANSLIT:;
#SUBTITLETRANSLIT:;
#ARTISTTRANSLIT:;
#GENRE:;
#CREDIT:Meseki;
#MENUCOLOR:;
#BANNER:JUMPER-bn.png;
#BACKGROUND:JUMPER-bg.png;
#LYRICSPATH:;
#CDTITLE:cdtitle.png;
#MUSIC:JUMPER.mp3;
#OFFSET:-0.040;
#SAMPLESTART:60.963;
#SAMPLELENGTH:29.538;
#SELECTABLE:YES;
#LISTSORT:;
#BPMS:0.000=130.000;
#STOPS:;
#TICKCOUNT:0.000=2;
#BGCHANGES:;
#KEYSOUNDS:;
#ATTACKS:;

//---------------dance-single - ----------------
#NOTES:
     dance-single:
     :
     Medium:
     5:
     0.254,0.305,0.047,0.157,0.008: // measure 1
0000
0000
0000
0000
,  // measure 2
0000
0000
0000
0000
,  // measure 3
0000
0000
0000
0000
,  // measure 4
0000
0000
0000
0000
,  // measure 5
0000
0000
0000
0000
,  // measure 6
0000
0000
0000
0000
,  // measure 7
0000
0000
0000
0000
,  // measure 8
0000
0000
0000
0000
,  // measure 9
0000
0000
0000
0000
,  // measure 10
1000
0000
1000
0000
,  // measure 11
0001
0000
0001
0010
,  // measure 12
0100
0000
0100
0000
,  // measure 13
0010
0000
0010
0001
,  // measure 14
0100
0000
0100
0000
,  // measure 15
0010
0000
0010
0000
,  // measure 16
2010
0000
0000
0000
,  // measure 17
0000
0000
0000
3002
,  // measure 18
0003
0010
0000
0100
0000
0010
0000
0100
,  // measure 19
0000
0010
0000
0100
0000
1000
0000
0100
,  // measure 20
0000
0010
0000
0100
0000
0010
0000
0100
,  // measure 21
0000
0010
0000
0100
0000
0100
0000
0001
,  // measure 22
0000
0100
0000
1000
0000
0100
0000
1000
,  // measure 23
0000
0100
0000
1000
0000
0010
0000
0100
,  // measure 24
0000
0001
0000
0010
0000
0001
0000
0010
,  // measure 25
0001
0000
0000
0010
0000
0000
0100
0000
0000
1000
0000
0000
0010
0000
0000
0000
,  // measure 26
0100
0000
0001
0000
0100
0000
0010
0100
,  // measure 27
0010
1000
0100
0010
,  // measure 28
0001
0100
0010
0100
,  // measure 29
0001
0000
1000
0000
0001
1000
0001
0000
,  // measure 30
0010
0100
1000
0010
,  // measure 31
0100
0001
0010
0001
,  // measure 32
0100
0010
1000
0001
,  // measure 33
1000
0100
0001
0200
,  // measure 34
1300
0010
1000
0100
,  // measure 35
0010
0000
0001
0000
0100
0010
0100
0000
,  // measure 36
0001
0010
1000
0010
,  // measure 37
0001
0000
0100
0000
0010
1000
0010
0000
,  // measure 38
1000
0100
0010
0100
,  // measure 39
1000
0000
0010
0000
0100
0000
0001
0010
,  // measure 40
0001
0010
0100
0010
,  // measure 41
1000
0010
0001
0011
,  // measure 42
0010
0100
1000
0010
,  // measure 43
0100
0100
0001
0001
,  // measure 44
1000
0001
1000
0000
0001
1000
0001
0000
,  // measure 45
0010
0100
0100
0010
,  // measure 46
0001
0100
0010
1000
,  // measure 47
0100
0001
0100
1000
,  // measure 48
0010
0000
0100
0010
0100
0000
0010
0100
,  // measure 49
0010
1000
1001
1001
,  // measure 50
0001
0100
0020
0130
,  // measure 51
1000
0100
0002
1003
,  // measure 52
0200
0310
0002
0013
,  // measure 53
0100
1000
0100
0000
0020
0000
0031
0000
,  // measure 54
0100
0010
0200
0301
,  // measure 55
0010
0100
2000
3010
,  // measure 56
0100
0002
0103
2000
,  // measure 57
3100
0010
1000
0001
,  // measure 58
2001
0000
0000
0000
0000
3010
0000
0200
,  // measure 59
0000
0000
0000
0300
,  // measure 60
0002
0000
0000
0000
0000
0013
0000
0200
,  // measure 61
0000
0000
0000
0300
,  // measure 62
2000
0000
0000
0000
0000
3001
0000
0020
,  // measure 63
0000
0000
0000
0030
,  // measure 64
0200
0000
0000
0000
0000
1300
0000
0020
,  // measure 65
0000
0000
0030
1000
,  // measure 66
1001
0000
0000
0000
;

//---------------dance-single - ----------------
#NOTES:
     dance-single:
     :
     Hard:
     7:
     0.308,0.356,0.070,0.196,0.012: // measure 1
0000
0000
0000
0000
,  // measure 2
0000
0000
0000
0000
,  // measure 3
0000
0000
0000
0000
,  // measure 4
0000
0000
0000
0000
,  // measure 5
0000
0000
0000
0000
,  // measure 6
0000
0000
0000
0000
,  // measure 7
0000
0000
0000
0000
,  // measure 8
0000
0000
0000
0000
,  // measure 9
0000
0000
0000
0000
,  // measure 10
1000
0000
0100
0000
1000
0000
0100
0010
,  // measure 11
0001
0000
0100
0000
0001
0000
0200
0300
,  // measure 12
0010
0000
1000
0000
0010
0000
1000
0100
,  // measure 13
0010
0000
0000
0000
0001
0000
0000
0000
0010
0000
0000
0000
0001
1000
0000
0000
,  // measure 14
0010
0000
0100
0000
0010
0000
0100
0010
,  // measure 15
1000
0001
1000
0001
,  // measure 16
2001
0000
0000
0000
,  // measure 17
0000
0000
0000
3020
,  // measure 18
0130
0001
0000
0001
0000
0001
0000
0100
,  // measure 19
0000
0001
0000
0001
0000
0001
0000
1000
,  // measure 20
0000
0010
0000
0010
0000
0010
0000
0100
,  // measure 21
0000
0010
0000
0010
0000
0010
0000
0001
,  // measure 22
0000
0010
0000
0010
0000
0010
0000
1000
,  // measure 23
0000
0010
0000
0010
0000
0100
0000
0001
,  // measure 24
0000
0010
0000
0010
0000
0010
0000
0010
,  // measure 25
0100
0000
0000
1000
0000
0000
0010
0000
0000
0100
0000
0000
0001
0000
1000
0000
,  // measure 26
0100
0000
0010
0000
0001
0000
0100
0010
,  // measure 27
1000
0001
0010
0100
,  // measure 28
1000
0100
1000
0000
0001
0000
0010
0100
,  // measure 29
1000
0010
1000
0000
0001
0100
0001
0000
,  // measure 30
0010
0000
0100
0000
1000
0000
0010
0100
,  // measure 31
0001
1000
0100
0010
,  // measure 32
1000
0010
0001
0100
,  // measure 33
0010
0000
0001
0000
0010
0000
1000
0100
,  // measure 34
0010
0000
0100
0000
1000
0010
0100
0000
,  // measure 35
0010
0000
1000
0100
0010
0001
0100
0000
,  // measure 36
0001
0010
0100
1000
,  // measure 37
0001
0100
0010
0000
1000
0100
0010
0000
,  // measure 38
0100
0000
1000
0000
0010
0100
0010
0000
,  // measure 39
1000
0000
0100
0000
0010
0001
0010
0100
,  // measure 40
1000
0010
0001
0100
,  // measure 41
1000
0100
1000
0000
0010
0000
0201
0300
,  // measure 42
0001
0000
0100
0000
1000
0100
0001
0000
,  // measure 43
0010
0000
0100
1000
0100
0010
0100
0000
,  // measure 44
1000
0010
1000
0000
0001
0100
0001
0000
,  // measure 45
0010
0000
0100
1000
0010
0000
0100
0001
,  // measure 46
0010
0000
0100
1000
0100
1000
0010
0000
,  // measure 47
0100
0000
0010
1000
0100
0010
0001
0000
,  // measure 48
0100
0000
1000
0100
0001
0000
1000
0010
,  // measure 49
0001
0010
0110
1001
,  // measure 50
2000
3001
0020
0130
,  // measure 51
0020
0031
0200
0310
,  // measure 52
2000
3010
0002
0013
,  // measure 53
1000
0001
0010
0000
0210
0000
1300
0000
,  // measure 54
0001
0200
2300
3100
,  // measure 55
0010
2000
3002
0013
,  // measure 56
0100
0002
0103
2000
,  // measure 57
3100
1100
0010
0011
,  // measure 58
2001
0000
0000
0000
0000
3010
0100
0002
,  // measure 59
0000
0000
0000
0000
0000
0000
0000
0003
,  // measure 60
0020
0000
0000
0000
0000
0031
0010
0200
,  // measure 61
0000
0000
0000
0000
0000
0000
0000
0300
,  // measure 62
2000
0000
0000
0000
0000
3010
1000
0200
,  // measure 63
0000
0000
0000
0000
0000
0000
0000
0300
,  // measure 64
0020
0000
0000
0000
0000
0031
0100
2000
,  // measure 65
0000
0000
3000
0100
,  // measure 66
1001
0000
0000
0000
;

//---------------dance-single - ----------------
#NOTES:
     dance-single:
     :
     Easy:
     3:
     0.150,0.255,0.031,0.125,0.000: // measure 1
0000
0000
0000
0000
,  // measure 2
0000
0000
0000
0000
,  // measure 3
0000
0000
0000
0000
,  // measure 4
0000
0000
0000
0000
,  // measure 5
0000
0000
0000
0000
,  // measure 6
0000
0000
0000
0000
,  // measure 7
0000
0000
0000
0000
,  // measure 8
0000
0000
0000
0000
,  // measure 9
0000
0000
0000
0000
,  // measure 10
1000
0000
0000
0000
,  // measure 11
0001
0000
0100
0000
,  // measure 12
0010
0000
0000
0000
,  // measure 13
1000
0000
0100
0000
,  // measure 14
0010
0000
0000
0000
,  // measure 15
0001
0000
1000
0000
,  // measure 16
0020
0000
0000
0000
,  // measure 17
0000
0000
0000
0130
,  // measure 18
0000
0001
0000
0000
0000
0001
0000
0000
,  // measure 19
0000
0001
0000
0000
0000
1000
0000
0000
,  // measure 20
0000
0010
0000
0000
0000
0010
0000
0000
,  // measure 21
0000
0010
0000
0000
0000
0100
0000
0000
,  // measure 22
0000
0001
0000
0000
0000
0001
0000
0000
,  // measure 23
0000
0001
0000
0000
0000
0010
0000
0000
,  // measure 24
0000
0100
0000
0000
0000
0100
0000
0000
,  // measure 25
1000
0000
0000
0010
0000
0000
0100
0000
,  // measure 26
0001
0000
0010
0100
,  // measure 27
0010
0000
0100
0000
,  // measure 28
1000
0000
0001
0000
,  // measure 29
0100
0000
0001
0100
,  // measure 30
0001
0000
0010
0000
,  // measure 31
0100
0000
1000
0000
,  // measure 32
0001
0000
0100
0000
,  // measure 33
0010
0000
1000
0200
,  // measure 34
1300
0000
0100
0000
,  // measure 35
0001
0000
0100
0000
,  // measure 36
1000
0000
0010
0000
,  // measure 37
1000
0100
0010
0000
,  // measure 38
0100
0000
1000
0000
,  // measure 39
0010
0000
0100
0000
,  // measure 40
0001
0000
0010
0000
,  // measure 41
0100
0000
1000
0000
,  // measure 42
0110
0000
0001
0000
,  // measure 43
1000
0000
0010
0000
,  // measure 44
0100
0001
0100
0001
,  // measure 45
0100
0000
1001
0000
,  // measure 46
0001
0000
0010
0000
,  // measure 47
0100
0000
1000
0000
,  // measure 48
0010
0100
0010
0100
,  // measure 49
0010
0000
1010
0000
,  // measure 50
1000
0000
0002
0003
,  // measure 51
0010
0000
0200
0300
,  // measure 52
0010
0000
0002
0003
,  // measure 53
1000
0010
2000
3010
,  // measure 54
1000
0000
0200
0310
,  // measure 55
0001
0000
0200
0310
,  // measure 56
1000
0000
0100
0000
,  // measure 57
0001
0100
1000
0000
,  // measure 58
0002
0000
0000
0000
0000
0003
0000
0020
,  // measure 59
0000
0000
0000
0000
0000
0030
0000
0000
,  // measure 60
0200
0000
0000
0000
0000
0300
0000
2000
,  // measure 61
0000
0000
0000
0000
0000
3000
0000
0000
,  // measure 62
0020
0000
0000
0000
0000
0030
0000
0002
,  // measure 63
0000
0000
0000
0000
0000
0003
0000
0000
,  // measure 64
0020
0000
0000
0000
0000
0030
0000
2000
,  // measure 65
0000
0000
0000
3000
0000
0000
0000
0000
,  // measure 66
1001
0000
0000
0000
;

//---------------dance-single - ----------------
#NOTES:
     dance-single:
     :
     Beginner:
     1:
     0.081,0.127,0.031,0.047,0.000: // measure 1
0000
0000
0000
0000
,  // measure 2
0000
0000
0000
0000
,  // measure 3
0000
0000
0000
0000
,  // measure 4
0000
0000
0000
0000
,  // measure 5
0000
0000
0000
0000
,  // measure 6
0000
0000
0000
0000
,  // measure 7
0000
0000
0000
0000
,  // measure 8
0000
0000
0000
0000
,  // measure 9
0000
0000
0000
0000
,  // measure 10
0001
0000
0000
0000
,  // measure 11
1000
0000
0000
0000
,  // measure 12
0001
0000
0000
0000
,  // measure 13
0010
0000
0000
0000
,  // measure 14
0100
0000
0000
0000
,  // measure 15
1000
0000
0000
0000
,  // measure 16
0002
0000
0000
0000
,  // measure 17
0000
0000
0000
0003
,  // measure 18
0000
1000
0000
0000
0000
0000
0000
0000
,  // measure 19
0000
1000
0000
0000
0000
0000
0000
0000
,  // measure 20
0000
0001
0000
0000
0000
0000
0000
0000
,  // measure 21
0000
0001
0000
0000
0000
0000
0000
0000
,  // measure 22
0000
0010
0000
0000
0000
0000
0000
0000
,  // measure 23
0000
0010
0000
0000
0000
0000
0000
0000
,  // measure 24
0000
0100
0000
0000
0000
0000
0000
0000
,  // measure 25
1000
0000
0000
0000
,  // measure 26
0001
0000
0000
0010
,  // measure 27
0010
0000
0000
0000
,  // measure 28
0100
0000
0000
1000
,  // measure 29
1000
0000
0000
0000
,  // measure 30
0010
0000
0000
0000
,  // measure 31
0100
0000
0000
0000
,  // measure 32
0001
0000
0000
0000
,  // measure 33
1001
0000
0000
1000
,  // measure 34
1000
0000
0000
0000
,  // measure 35
0010
0000
0000
0000
,  // measure 36
0100
0000
0000
0000
,  // measure 37
0010
0000
0010
0000
,  // measure 38
1000
0000
0000
0000
,  // measure 39
0001
0000
0000
0000
,  // measure 40
0010
0000
0010
0000
,  // measure 41
0110
0000
0000
0000
,  // measure 42
1000
0000
0000
0000
,  // measure 43
0001
0000
0000
0000
,  // measure 44
0100
0000
0100
0000
,  // measure 45
0001
0000
0000
0000
,  // measure 46
0010
0000
0000
0000
,  // measure 47
0100
0000
0000
0000
,  // measure 48
1000
0000
0001
0000
,  // measure 49
1000
0000
1001
0000
,  // measure 50
0001
0000
0000
0000
,  // measure 51
1000
0000
0000
0000
,  // measure 52
0100
0000
0000
0000
,  // measure 53
0010
0000
0200
0300
,  // measure 54
1000
0000
0000
0000
,  // measure 55
0010
0000
0000
0000
,  // measure 56
0100
0000
0000
0000
,  // measure 57
0001
0000
0001
0000
,  // measure 58
0020
0000
0000
0000
,  // measure 59
0000
0000
0030
0000
,  // measure 60
0200
0000
0000
0000
,  // measure 61
0000
0000
0300
0000
,  // measure 62
2000
0000
0000
0000
,  // measure 63
0000
0000
3000
0000
,  // measure 64
0002
0000
0000
0000
,  // measure 65
0000
0000
0000
0003
0000
0000
0000
0000
,  // measure 66
1001
0000
0000
0000
;
