#TITLE:IKO IKO;
#ARTIST:CAPTAIN JACK;
#CREDIT:A. Michaelangelo;
#BANNER:banner.png;
#BACKGROUND:background.png;
#MUSIC:music.ogg;
#OFFSET:-1.650;
#SAMPLESTART:55.100;
#SAMPLELENGTH:12.000;
#SELECTABLE:YES;
#BPMS:0.000=106.009;
#NOTES:dance-single:A. Michaelangelo:Easy:3::
1000
0000
0001
0000
,
1000
0000
0001
0000
,
1000
0000
0001
0000
,
1000
0000
0001
0000
,
1000
1000
0001
0001
,
1000
1000
0001
0001
,
1001
0100
1001
0010
,
1001
0100
1001
0010
,
1000
1000
0001
0001
,
1000
1000
0001
0001
,
0110
1000
0110
0001
,
0110
1000
0110
0000
,
1000
0001
1000
0000
1000
0000
1000
0000
,
0010
0100
0010
0100
,
0001
1000
0001
0000
0001
0000
0001
0000
,
0100
0010
0100
0000
,
1000
1000
0001
0001
,
1000
1000
0001
0001
,
0100
0100
0010
0010
,
0100
0100
0010
0010
,
1000
1000
0001
0001
,
1000
0001
1000
0001
1000
0000
0000
0000
,
0010
0010
0100
0100
,
1000
1000
0001
0001
,
1000
1000
0001
0001
,
1001
0100
1001
0010
,
1001
0100
1001
0010
,
1000
1000
0001
0001
,
1000
1000
0001
0001
,
0110
1000
0110
0001
,
0110
1000
0110
0000
,
0001
0000
0001
0000
,
0110
0000
0110
0000
,
1000
1000
1000
0000
,
0110
0000
0110
0000
,
0001
0001
0001
0000
,
1000
1000
0001
0001
,
1000
1000
0001
0001
,
0100
0100
0010
0010
,
0100
0100
0010
0010
,
1000
1000
0001
0001
,
1000
0001
1000
0001
1000
0000
0000
0000
,
0010
0010
0100
0100
,
1000
1000
0001
0001
,
1000
1000
0001
0001
,
1001
0100
1001
0010
,
1001
0100
1001
0010
,
1000
1000
0001
0001
,
1000
1000
0001
0001
,
0110
1000
0110
0001
,
0110
1000
0110
0001
,
0001
0001
0000
0110
;
#NOTES:dance-single:A. Michaelangelo:Medium:5::
1000
1000
0001
0001
,
1000
1000
0001
0001
,
1000
1000
0001
0001
,
1000
1000
0001
0001
,
1000
1000
0000
0000
0001
0001
0000
0000
,
1000
0001
1000
0001
1000
0000
0000
0000
,
1000
0100
0010
0001
0010
0100
1000
0000
,
1000
0100
0001
0010
0100
0000
0000
0000
,
0001
0001
0000
0000
1000
1000
0000
0000
,
0001
1000
0001
1000
0001
0000
0000
0000
,
0001
0100
0010
1000
0010
0100
0001
0000
,
0001
0100
1000
0010
0100
0000
0000
0000
,
1000
1001
0001
1001
,
1000
0001
1000
0001
1000
0000
1001
0000
,
0110
0010
0110
0100
,
0010
0100
0010
0100
0010
0000
0110
0000
,
1000
1000
0100
0100
,
0001
0001
0010
0010
,
1000
1000
0100
0100
,
0001
0001
0010
0010
,
1000
0001
1000
0000
0001
1000
0001
0000
,
0010
0100
0010
0000
0100
0010
0100
0000
,
0001
0001
0010
0010
,
1000
1000
0100
0100
,
1000
1000
0000
0000
0001
0001
0000
0000
,
1000
0001
1000
0001
1000
0000
0000
0000
,
1000
0100
0010
0001
0010
0100
1000
0000
,
1000
0100
0001
0010
0100
0000
0000
0000
,
0001
0001
0000
0000
1000
1000
0000
0000
,
0001
1000
0001
1000
0001
0000
0000
0000
,
0001
0100
0010
1000
0010
0100
0001
0000
,
0001
0100
1000
0010
0100
0000
0000
0000
,
1100
1100
1100
1100
,
0010
0100
0010
0100
0010
0000
0110
0000
,
0101
0101
0101
0101
,
0100
0010
0100
0010
0100
0000
1001
0000
,
1000
1000
0100
0100
,
0001
0001
0010
0010
,
1000
1000
0100
0100
,
0001
0001
0010
0010
,
1000
0001
1000
0000
0001
1000
0001
0000
,
0010
0100
0010
0000
0100
0010
0100
0000
,
0001
0001
0010
0010
,
1000
1000
0100
0100
,
1000
1000
0000
0000
0001
0001
0000
0000
,
1000
0001
1000
0001
1000
0000
0000
0000
,
1000
0100
0010
0001
0010
0100
1000
0000
,
1000
0100
0001
0010
0100
0000
0000
0000
,
0001
0001
0000
0000
1000
1000
0000
0000
,
0001
1000
0001
1000
0001
0000
0000
0000
,
0001
0100
0010
1000
0010
0100
0001
0000
,
0001
0000
0100
0000
1000
0000
0000
0000
0000
0100
0010
0100
0010
0000
0000
0000
;
#NOTES:dance-single:A. Michaelangelo:Hard:8::
1000
1000
0010
0010
,
0100
0100
0001
0001
,
0010
0010
0100
0100
,
1000
1001
0001
1001
,
1000
1000
0001
0001
1000
1000
0001
0001
,
1000
0100
1000
0100
0000
0000
0100
0000
0001
0000
0000
0000
0000
0000
0000
0000
,
0001
0001
0100
0100
1000
1000
0010
0010
,
0001
0001
0100
0100
1000
1000
0000
0000
,
0001
0001
1000
1000
0001
0001
1000
1000
,
0001
0010
0001
0010
0000
0000
0010
0000
1000
0000
0000
0000
0000
0000
0000
0000
,
1000
1000
0010
0010
0001
0001
0100
0100
,
1000
1000
0010
0010
0001
0001
0000
0000
,
0001
0100
0010
1000
0001
1000
0010
0100
,
1000
0100
0010
1000
0001
0000
1001
0000
,
1000
0000
0000
0100
0000
0000
0001
0000
0000
0000
0100
0000
1000
0000
0000
0000
,
1000
0000
0100
0001
0000
0100
1000
0000
0010
0000
0000
0000
1001
0000
0000
0000
,
1000
1000
1000
0000
0001
0001
0001
0000
,
1000
1001
0001
1001
1000
1000
0000
0000
,
0010
0010
0010
0000
0100
0100
0100
0000
,
0010
0110
0100
0110
0010
0010
0000
0000
,
1000
0010
0001
0000
0001
0100
1000
0000
,
1000
0000
0100
0001
0000
0100
1000
0000
0010
0000
0000
0000
0000
0000
0000
0000
,
1100
0100
0101
0001
0011
0010
1010
1000
,
1100
0100
0110
0010
0110
0000
0000
0000
,
1000
1000
0001
0001
1000
1000
0001
0001
,
1000
0100
1000
0100
0000
0000
0010
0000
0001
0000
0000
0000
0000
0000
0000
0000
,
0001
0001
0100
0100
1000
1000
0010
0010
,
0001
0001
0100
0100
1000
1000
0000
0000
,
0001
0001
1000
1000
0001
0001
1000
1000
,
0001
0010
0001
0010
0000
0000
0100
0000
1000
0000
0000
0000
0000
0000
0000
0000
,
1000
1000
0010
0010
0001
0001
0100
0100
,
1000
1000
0010
0010
0001
0001
0000
0000
,
1010
1010
1010
0000
0101
0101
0101
0000
,
1000
0010
0100
0001
0010
0000
0110
0000
,
0011
0011
0011
0000
1100
1100
1100
0000
,
1000
0000
0100
0001
0000
0010
1000
0000
0110
0000
0000
0000
1001
0000
0000
0000
,
1000
1000
1000
0000
0001
0001
0001
0000
,
1000
1001
0001
1001
1000
1000
0000
0000
,
0010
0010
0010
0000
0100
0100
0100
0000
,
0010
0110
0100
0110
0010
0010
0000
0000
,
1000
0010
0001
0000
0001
0100
1000
0000
,
1000
0000
0100
0001
0000
0100
1000
0000
0010
0000
0000
0000
0000
0000
0000
0000
,
1100
0100
0101
0001
0011
0010
1010
1000
,
1100
0100
0110
0010
0110
0000
0000
0000
,
1000
0001
1000
0001
0001
1000
0001
1000
,
0010
0100
0010
0100
0000
0000
0100
0000
0100
0000
0000
0000
0000
0000
0000
0000
,
0110
1001
0110
0000
0110
1001
0110
0000
,
0110
1001
0110
1001
0110
0000
1000
1000
,
1000
1000
0001
0001
1000
1000
0001
0001
,
1000
0100
1000
0100
0000
0000
0010
0000
0001
0000
0000
0000
0000
0000
0000
0000
,
0001
0001
0100
0100
1000
1000
0010
0010
,
0001
0000
0001
0000
1000
0000
1000
0000
0000
0110
0110
0110
0110
0000
0000
0000
;
