#TITLE:Holy Humiliation ~SeXCryMaX~;
#SUBTITLE:;
#ARTIST:JAKAZiD pres. SKB48;
#TITLETRANSLIT:;
#SUBTITLETRANSLIT:;
#ARTISTTRANSLIT:;
#GENRE:ぼくのエクスカリバー ~聖なるファック~;
#CREDIT:Frozen_Heat/Azn_Punk_07/GuardianFrozen;
#MENUCOLOR:#c03b70;
#METERTYPE:DDR;
#BANNER:Holy Humiliation ~SeXCryMaX~-bn.png;
#BACKGROUND:Holy Humiliation ~SeXCryMaX~-bg.png;
#LYRICSPATH:;
#CDTITLE:!cdtitle.png;
#MUSIC:Holy Humiliation ~SeXCryMaX~.mp3;
#OFFSET:-0.054;
#SAMPLESTART:67.020;
#SAMPLELENGTH:22.320;
#SELECTABLE:YES;
#LISTSORT:;
#BPMS:0.000=172.000;
#STOPS:;
#BGCHANGES:;
#ATTACKS:;

//---------------dance-single - ----------------
#NOTES:
     dance-single:
     :
     Hard:
     9:
     0.579,0.689,0.296,0.504,0.429:
0000
0000
0000
0000
,
0000
0000
0000
0000
,
0000
0000
0000
0000
,
0000
0000
0000
0000
,
1000
0100
1000
0000
0001
0100
0001
0000
,
0010
0100
1000
0000
0010
0100
0001
0000
,
1000
0010
0100
0001
1000
0100
0010
0001
,
1000
0000
2002
3003
,
0001
0100
0001
0100
0000
0010
1000
0010
,
0000
0100
0001
1000
0000
0100
1000
0100
,
0010
0001
1000
0001
0000
0100
0001
0100
,
0000
0010
1000
0001
0000
1000
0100
0010
,
0001
1000
0001
0100
0000
0010
1000
0001
,
0000
1000
0100
1000
0000
0100
0010
0001
,
0010
0100
1000
0001
0000
0100
0001
1000
,
0001
0000
0000
0000
0000
1000
0100
0010
,
0001
0000
0000
0100
0000
0000
0001
0000
0000
0010
0000
0000
1100
0000
0000
0000
,
1000
0000
0000
0010
0000
0000
0100
0000
0000
0001
0000
0000
1010
0000
0100
0000
,
0001
0000
0000
0100
0000
0000
0010
0000
0000
1000
0000
0000
0110
0000
0000
0000
,
1000
0100
0010
0001
1000
0010
0100
0001
,
0010
0000
0000
0100
0000
0000
1000
0000
0000
0010
0000
0000
0101
0000
0000
0000
,
0010
0000
0000
0001
0000
0000
1000
0000
0000
0100
0000
0000
0011
0000
1000
0000
,
0100
0000
0000
1000
0000
0000
0010
0000
0000
0100
0000
0000
1001
0000
0000
0000
,
0010
0100
0010
0000
1000
0000
0001
0000
0010
0100
0010
0000
0001
0000
1000
0000
,
0001
0000
0000
0100
0000
0000
1010
0000
0000
0100
0000
0000
0101
0000
0000
0000
,
1000
0000
0000
0001
0000
0000
0011
0000
0000
0100
0000
0000
1100
0000
0001
0000
,
0100
0000
0000
0010
0000
0000
1001
0000
0000
0010
0000
0000
0110
0000
0000
0000
,
0100
1000
0010
0000
0100
0000
0001
0000
0010
0001
0100
0000
0010
0000
1000
0000
,
0001
0000
0000
0010
0000
0000
1100
0000
0000
0010
0000
0000
0101
0000
0000
0000
,
1000
0000
0000
0100
0000
0000
0011
0000
0000
0100
0000
0000
1010
0000
0100
0000
,
0001
0000
0000
1000
0000
0000
0110
0000
0000
0001
0000
0000
1100
0000
0000
0000
,
1000
0100
0010
0000
0001
0100
0010
0000
1000
0001
0010
0000
0001
1000
0010
0000
,
2000
0000
3200
0000
,
0320
0000
0032
0000
,
0203
0000
0302
0000
,
2003
0000
3020
0000
,
0230
0000
0302
0000
,
2003
0000
3200
0000
,
0320
0000
0230
0000
,
2300
0000
3002
0000
,
0203
0000
0320
0000
,
2030
0000
3002
0000
,
0023
0000
0032
0000
,
0203
0000
0302
0000
,
2003
0000
3200
0000
,
0320
0000
0230
0000
,
2300
0000
3020
0000
,
0032
0000
0023
0000
,
0230
0000
0000
0001
0000
0000
0000
0000
0320
0000
0000
1000
0000
0000
0000
0000
,
0230
0000
0000
0001
0000
0000
0000
0000
0320
0000
0000
1000
0000
0000
0000
0000
,
2030
0000
0000
0100
0000
0000
0000
0000
3002
0000
0000
0010
0000
0000
0000
0000
,
2003
0000
0000
0100
0000
0000
0000
0000
3002
0000
0000
0010
0000
0000
0000
0000
,
0203
0000
0000
1000
0000
0000
0000
0000
0302
0000
0000
0010
0000
0000
0000
0000
,
0203
0000
0000
1000
0000
0000
0000
0000
0302
0000
0000
0010
0000
0000
0000
0000
,
2003
0000
0000
0100
0000
0000
0000
0000
3020
0000
0000
0001
0000
0000
0000
0000
,
2030
0000
0000
0100
0000
0000
0000
0000
3020
0000
0000
0001
0000
0000
0000
0000
,
0230
0000
0000
1000
0000
0000
0000
0000
0302
0000
0000
1000
0000
0000
0000
0000
,
0023
0000
0000
1000
0000
0000
0000
0000
0032
0000
0000
1000
0000
0000
0000
0000
,
0203
0000
0000
0010
0000
0000
0000
0000
0302
0000
0000
0010
0000
0000
0000
0000
,
2003
0000
0000
0010
0000
0000
0000
0000
3002
0000
0000
0010
0000
0000
0000
0000
,
0203
0000
0000
0001
0000
0000
0000
0000
0320
0000
0000
0001
0000
0000
0000
0000
,
2030
0000
0000
0001
0000
0000
0000
0000
3200
0000
0000
0001
0000
0000
0000
0000
,
0320
0000
0000
0100
0000
0000
0000
0000
0032
0000
0000
0100
0000
0000
0000
0000
,
2003
0000
0000
0100
0000
0000
0000
0000
3002
0000
0000
0100
0000
0100
0000
0000
,
1003
0000
0000
0100
0000
0000
1000
0000
0010
0000
0000
0100
0000
0000
0001
0000
,
0010
0000
0000
0001
0000
0000
0100
0000
0001
0000
0000
1000
0000
0000
0100
0000
,
1000
0000
0000
0010
0000
0000
0100
0000
0010
0000
0000
1000
0000
0000
0001
0000
,
0010
0000
0000
0001
0000
0000
0100
0000
0010
0000
0000
0010
0000
0000
0010
0000
,
1000
0000
0000
0001
0000
0000
1000
0000
0010
0000
0000
0100
0000
0000
0010
0000
,
1000
0000
0000
0100
0000
0000
1000
0000
0001
0000
0000
0010
0000
0000
0001
0000
,
0100
0000
0000
0001
0000
0000
1000
0000
0100
0000
0000
0010
0000
0000
0100
0000
,
1000
0000
0000
0010
0000
0000
0110
0000
0001
0000
0000
1001
0000
1000
0001
0000
,
0010
0000
0000
0100
0000
0000
1000
0000
0001
0000
0000
0100
0000
0000
0001
0000
,
0010
0000
0000
0100
0000
0000
1000
0000
0010
0000
0000
1000
0000
0000
0001
0000
,
0100
0000
0000
0001
0000
0000
0010
0000
1000
0000
0000
0001
0000
0000
0100
0000
,
1000
0000
0000
0010
0000
0000
0001
0000
0010
0000
0000
0100
0000
0000
0001
0000
,
1000
0000
0000
0001
0000
0000
0010
0000
1000
0000
0000
0010
0000
0000
0100
0000
,
1000
0000
0000
0010
0000
0000
0001
0000
0010
0000
0000
0100
0000
0000
0001
0000
,
1000
0000
0000
1000
0000
0000
1000
0000
0001
0000
0000
0001
0000
0000
0001
0000
,
0010
0000
0000
0010
0000
0000
0010
0000
0100
0000
0000
0100
0000
0000
0100
0000
,
1000
0000
0000
1000
0010
0000
1000
0000
0010
0000
0000
0010
0100
0000
0001
0000
,
0010
0100
1000
0010
0100
0001
0010
0001
,
1000
0000
0000
1010
0000
0000
0101
0000
0000
1001
0000
0000
0010
0000
0000
0000
,
0100
0000
0000
0011
0000
0000
1100
0000
0000
0001
0000
0000
1000
0000
0010
0000
,
0100
0000
0000
0101
0000
0000
0110
0000
0000
1000
0000
0000
1001
0000
0000
0000
,
0001
0010
0001
0000
1000
0000
0001
0000
1000
0010
1000
0000
0001
0000
0010
0000
,
0100
0000
0000
1100
0000
0000
1001
0000
0000
0001
0000
0000
0101
0000
0000
0000
,
1010
0000
0000
1000
0000
0000
1001
0000
0000
0011
0000
0000
1001
0000
0100
0000
,
0010
0000
0000
1010
0000
0000
1001
0000
0000
0010
0000
0000
0011
0000
0000
0000
,
0001
0010
0100
0000
1000
0000
0001
0000
1000
0010
0100
0000
0001
0000
1000
0000
,
0220
0000
0000
0000
,
0000
0000
0000
0000
,
0000
0000
0000
0000
,
0330
0000
0000
0000
;

//---------------dance-single - ----------------
#NOTES:
     dance-single:
     :
     Challenge:
     10:
     0.773,0.930,0.237,0.511,0.737:
0000
0000
0000
0000
,
0000
0000
0000
0000
,
0000
0000
0000
0000
,
0000
0000
0000
0000
,
1000
0100
0010
0001
1000
0010
0100
0001
,
1000
0100
0010
0001
1000
0010
0100
0001
,
1000
0100
1000
0100
1000
0100
1000
0100
0010
0001
0010
0001
0010
0001
0010
0001
,
0200
0000
0010
0310
,
0001
0000
0010
0000
0100
1000
0000
0000
0100
0010
0100
0000
1000
0010
0000
0000
,
0100
0001
0100
0000
0010
0000
1000
0100
0000
0100
1000
0000
0001
0000
0100
0000
,
1000
0000
0100
0000
0010
1000
0000
0000
0010
0001
0010
0000
0100
1000
0000
0000
,
0100
0010
0000
0010
1000
0000
1000
0001
0000
0001
0010
0000
0100
0000
0010
0000
,
0001
0000
1000
0000
0100
0010
0000
0000
0001
0100
0010
0000
1000
0000
0001
0000
,
0010
0100
0000
0010
0100
0000
1000
0001
0000
0100
0010
0000
1000
0000
0001
0000
,
0010
0000
0100
1000
0000
1000
0100
0000
1000
0001
0000
0000
0100
0001
0100
0000
,
0010
1000
0000
0010
0100
0000
0010
0001
0000
0010
0100
0000
0001
0000
0010
0000
,
0100
1000
0000
1000
0100
0000
0010
0001
0000
0001
0010
0000
1001
0000
0000
0000
,
0001
0100
0000
0100
0001
0000
1000
0010
0000
0010
1000
0000
0100
0000
0110
0000
,
0001
0010
0000
0100
1000
0000
0001
0100
0000
0010
1000
0000
0110
0000
0000
0000
,
1000
0100
0010
0000
0001
0000
1000
0000
0010
0100
1000
0000
0100
0000
0010
0000
,
1000
0100
0000
0100
0001
0000
0100
0010
0000
0010
0001
0000
1100
0000
0000
0000
,
0100
1000
0000
1000
0010
0000
0100
0010
0000
0010
0001
0000
0110
0000
0101
0000
,
0001
0010
0000
0010
1000
0000
0001
0100
0000
0100
1000
0000
0011
0000
0000
0000
,
0001
0010
1000
0010
0001
0010
0100
0000
0100
0010
0001
0010
0100
0010
0100
0010
,
0001
0100
0000
0001
0100
0000
0010
1000
0000
1000
0100
0000
0011
0000
0000
0000
,
1000
0100
0000
1000
0100
0000
0010
0001
0000
0001
0100
0000
1010
0000
0101
0000
,
1000
0001
0000
0010
0100
0000
0001
1000
0000
0010
0100
0000
1010
0000
0000
0000
,
0100
0010
0100
0010
1000
0001
1000
0001
0010
0100
1000
0100
0010
0001
1000
0001
,
0100
0001
1000
0100
1000
0010
0001
1000
,
0100
0001
0010
1000
0010
0100
1000
0001
,
0100
0010
0100
0010
0100
0010
0100
0010
1000
0001
1000
0001
1000
0001
1000
0001
,
0020
0000
0100
0130
,
2000
0000
3020
0000
,
0230
0000
0302
0000
,
0023
0000
0230
0000
,
0320
0000
0032
0000
,
0203
0000
2300
0000
,
3002
0000
0000
0003
2000
0000
0000
0000
,
3200
0000
0320
0000
,
2030
0000
3200
0000
,
0302
0000
0203
0000
,
2300
0000
3002
0000
,
0023
0000
0230
0000
,
2300
0000
3002
0000
,
0203
0000
2300
0000
,
3002
0000
0023
0000
,
2030
0000
3200
0000
,
0302
0000
0203
0000
,
0320
0000
0000
0001
0000
0000
0000
0000
0230
0000
0000
0010
0000
0000
0000
0000
,
2300
0000
0000
0100
0000
0000
0000
0000
3020
0000
0000
1000
0000
0000
1000
0000
,
0230
0000
0000
0010
0000
0000
0000
0000
0302
0000
0000
0010
0000
0000
0000
0000
,
0023
0000
0000
0100
0000
0000
0000
0000
0032
0000
0000
0010
0000
0000
0010
0000
,
2003
0000
0000
0100
0000
0000
0100
0000
3020
0000
0000
1000
0000
0000
0000
0000
,
0032
0000
0000
1000
0000
0000
0000
0000
2003
0000
0000
0001
0000
0000
0001
0000
,
3200
0000
0000
0001
0000
0000
0000
0000
0302
0000
0000
0010
0000
0000
0000
0000
,
0023
0000
0000
1000
0000
0000
1000
0000
0230
0000
0000
0010
0000
0000
0000
0000
,
0302
0000
0000
0010
0000
0000
0010
0000
2003
0000
0000
0001
0000
0000
0001
0000
,
3020
0000
0000
1000
0000
0000
1000
0000
0230
0000
0000
0001
0000
0000
0001
0000
,
2300
0000
0000
0100
0000
0000
0100
0000
3002
0000
0000
0010
0000
0000
0010
0000
,
0203
0000
0000
0010
0000
0000
0010
0000
0302
0000
0000
1000
0000
0000
1000
0000
,
0023
0000
0000
1000
0000
0000
0001
0000
0230
0000
0000
0001
0000
0000
0010
0000
,
2300
0000
0000
0001
0000
0000
0100
0000
3020
0000
0000
0100
0000
0000
1000
0000
,
0032
0000
0000
0100
0000
0000
0010
0000
2003
0000
0000
0010
0000
0000
0001
0000
,
3200
0000
0000
1000
0000
0000
0010
0000
0001
0000
0000
0010
0000
1000
0000
0000
,
0301
0000
0000
0001
0010
0000
0001
0000
0100
0000
0000
0100
0010
0000
1000
0000
,
0100
0000
0000
0100
1000
0000
0010
0000
1000
0000
0000
1000
0100
0000
0010
0000
,
0001
0000
0000
0001
0100
0000
0001
0000
0010
0000
0000
0010
0100
0000
1000
0000
,
0100
0000
0000
0100
0010
0000
0001
0000
1000
0000
0010
0000
0001
0000
1000
0000
,
0100
0000
0000
0010
0100
0000
0001
0000
0010
0000
0000
1000
0010
0000
0001
0000
,
0100
0000
0000
0010
0100
0000
0001
0000
1000
0000
0000
0100
1000
0000
0010
0000
,
0100
0000
0000
0001
0100
0000
0010
0000
1000
0000
0000
0100
1000
0000
0100
0000
,
0001
0000
0000
0101
0000
0000
1100
0000
1001
0000
0000
0110
0000
0000
1001
0000
,
0010
0000
0100
0000
0001
0010
0001
0000
0100
0000
0010
0000
1000
0001
1000
0000
,
0010
0000
1000
0000
0100
0001
0100
0000
1000
0000
0010
0000
1000
0010
1000
0000
,
0010
0000
0100
0000
0001
1000
0001
0000
0100
0000
0010
0000
1000
0100
1000
0000
,
0001
0000
0100
0000
0010
1000
0010
0000
0100
0000
0001
0000
0010
0000
1000
0000
,
0010
0000
0100
0000
1000
0010
0100
0000
0001
0000
0010
0000
0100
1000
0001
0000
,
0100
0000
0010
0000
1000
0001
0100
0000
0010
0000
1000
0000
0001
0010
0100
0000
,
0110
0000
0010
0001
0000
0010
0100
0000
0110
0000
1000
0100
0000
0010
0100
0000
,
1100
0000
1000
0001
0000
0001
0100
0000
0101
0000
0001
0010
0000
0010
0100
0000
,
0110
0001
1000
0010
0100
0001
0010
0002
,
1000
1000
1000
2003
0001
0001
0001
3001
,
0100
0001
0000
0001
0010
0000
0010
1000
0000
0010
0100
0000
1100
0000
0000
0000
,
1000
0010
0000
0010
0001
0000
0010
0100
0000
0100
0001
0000
1010
0000
0101
0000
,
1000
0001
0000
1000
0001
0000
0010
0100
0000
0100
1000
0000
0011
0000
0000
0000
,
1000
0100
1000
0010
1000
0100
0010
0001
0100
0001
0010
0100
1000
0001
0100
0010
,
1000
0100
0000
1000
0010
0000
0100
0001
0000
0010
0100
0000
1010
0000
0000
0000
,
0001
0010
0000
0001
0100
0000
0010
1000
0000
0100
0010
0000
0011
0000
1100
0000
,
0001
0100
0000
0010
1000
0000
0100
0010
0000
0010
0001
0000
0101
0000
0000
0000
,
0001
0100
1000
0001
0010
1000
0001
0010
1001
0000
0100
0000
1001
0000
0000
0000
,
0220
0000
0000
0000
,
0000
0000
0000
0000
,
0000
0000
0000
0000
,
0330
0000
0000
0000
;

//---------------dance-single - ----------------
#NOTES:
     dance-single:
     :
     Medium:
     7:
     0.512,0.585,0.267,0.511,0.000:
0000
0000
0000
0000
,
0000
0000
0000
0000
,
0000
0000
0000
0000
,
0000
0000
0000
0000
,
1000
0010
1000
0000
0100
0000
0010
0000
,
0001
0100
0001
0000
0010
0000
0100
0000
,
1000
0100
1000
0000
0001
0010
0001
0000
,
1001
0000
0220
0330
,
1000
0100
0000
1000
0000
0001
0000
0100
,
0000
0001
0000
0010
0000
0001
0000
0100
,
0001
0100
0000
0010
0000
1000
0000
0001
,
0000
0010
0000
0001
0000
1000
0000
0010
,
1000
0010
0000
0100
0000
0001
0000
0010
,
0000
0100
0000
1000
0000
0001
0000
1000
,
0100
1000
0000
0100
0000
0010
0000
0001
,
1000
0001
0100
0001
0010
0100
1000
0001
,
1000
0000
0010
1000
0100
0000
0011
0000
,
1000
0000
0001
0010
0100
0000
1100
0000
,
0010
0000
0001
1000
0010
0000
0101
0000
,
0010
0001
1000
0000
0100
0010
0001
0000
,
0100
0000
0010
1000
0001
0000
1100
0000
,
0010
0000
0001
1000
0001
0000
0110
0000
,
1000
0000
0001
0100
0010
0000
0101
0000
,
0010
1000
0100
0000
0010
0001
1000
0000
,
0100
0000
0010
0001
1000
0000
0011
0000
,
0100
0000
1000
0001
0100
0000
1010
0000
,
0100
0000
0010
1000
0001
0000
0110
0000
,
0001
0010
0100
0000
1000
0010
0100
0000
,
0001
0000
1000
0010
0100
0000
0011
0000
,
1100
0000
0010
0001
1000
0000
0101
0000
,
1010
0000
1000
0001
0100
0000
1010
0000
,
0101
1001
0011
1100
,
0210
0000
2300
0000
,
3002
0000
0203
0000
,
0320
0000
2030
0000
,
3002
0000
0023
0000
,
0032
0000
2003
0000
,
3020
0000
0230
0000
,
0302
0000
0023
0000
,
0230
0000
2300
0000
,
3020
0000
2030
0000
,
3002
0000
0203
0000
,
0302
0000
0023
0000
,
0032
0000
2003
0000
,
3020
0000
0230
0000
,
0302
0000
2003
0000
,
3200
0000
2300
0000
,
3002
0000
0023
0000
,
0230
0010
2300
0100
,
3020
1000
0230
0010
,
0302
0100
2003
0001
,
3002
1000
0023
0001
,
0032
1000
0203
0010
,
0320
0001
2030
0100
,
3020
1000
0230
0001
,
2300
0010
3200
1000
,
0302
0100
0023
1000
,
0032
0010
2003
0010
,
3200
0001
0320
1000
,
0032
0100
2003
0010
,
3002
1000
0203
1000
,
2300
0001
3200
0010
,
0320
0100
2030
0010
,
3002
0010
0100
1003
,
0010
0000
0100
1000
0010
0000
0100
0001
,
0010
0000
0100
1000
0010
0000
0100
0000
,
0001
0000
0010
0001
0100
0000
0010
1000
,
0100
0000
0010
0001
0100
0000
0010
0000
,
1000
0000
0001
1000
0100
0000
1000
0001
,
0100
0000
0001
1000
0100
0000
0010
0000
,
0001
0000
1000
0001
0010
0000
0001
1000
,
0010
0000
1000
0001
0010
0000
0001
0000
,
0010
0000
0010
0100
1000
0000
0010
0100
,
1000
0000
0100
0010
1000
0000
0001
0000
,
0010
0000
0100
0010
0001
0000
0100
0010
,
0001
0000
0010
0100
0001
0000
0010
0000
,
0100
0000
1000
0010
0100
0000
1000
0010
,
0100
0000
0001
0010
1000
0000
0001
0000
,
0010
0000
0001
0100
0010
0000
0001
0100
,
0010
0000
1000
0100
0001
0000
0010
0000
,
0200
0000
1000
1000
1000
0000
0010
0010
,
0320
0000
0001
0001
0001
0000
0100
0100
,
1130
0000
1000
0001
0100
0000
0101
0000
,
1010
0000
1000
0001
0010
0000
0011
0000
,
1100
0000
1000
0010
0100
0000
1001
0000
,
0001
0100
0010
0000
1000
0100
0010
0000
,
1001
0000
0010
1000
0100
0000
1001
0000
,
0011
0000
0100
1000
0001
0000
1010
0000
,
0101
0000
1000
0010
0100
0000
1010
0000
,
1100
0010
0001
0000
0101
0010
1000
0000
,
2002
0000
0000
0000
,
0000
0000
0000
0000
,
0000
0000
0000
0000
,
3003
0000
0000
0000
;

//---------------dance-single - ----------------
#NOTES:
     dance-single:
     :
     Easy:
     5:
     0.352,0.401,0.267,0.274,0.000: // measure 1
0000
0000
0000
0000
,  // measure 2
0000
0000
0000
0000
,  // measure 3
0000
0000
0000
0000
,  // measure 4
0000
0000
0000
0000
,  // measure 5
1000
0100
0010
0001
,  // measure 6
1000
0100
0010
0001
,  // measure 7
1000
0010
0100
0001
,  // measure 8
2002
0000
3003
0000
,  // measure 9
0101
1000
0001
0100
,  // measure 10
0001
0010
0100
1000
,  // measure 11
0101
0010
1000
0001
,  // measure 12
0010
0100
0010
0001
,  // measure 13
1010
0001
1000
0010
,  // measure 14
0100
0001
1000
0100
,  // measure 15
1010
0100
1000
0001
,  // measure 16
0100
0010
1000
0001
,  // measure 17
0010
0000
0000
0001
0000
0000
1000
0000
,  // measure 18
0010
0000
0000
0100
0000
0000
0001
0000
,  // measure 19
0100
0000
0000
0010
0000
0000
1000
0000
,  // measure 20
0001
0100
0010
1000
,  // measure 21
0100
0000
0000
1000
0000
0000
0001
0000
,  // measure 22
0010
0000
0000
0001
0000
0000
1000
0000
,  // measure 23
0100
0000
0000
0010
0000
0000
0001
0000
,  // measure 24
0010
0100
1000
0010
,  // measure 25
0100
0000
0000
1000
0000
0000
0011
0000
,  // measure 26
0100
0000
0000
0010
0000
0000
1100
0000
,  // measure 27
0010
0000
0000
0100
0000
0000
1001
0000
,  // measure 28
1000
0010
0100
0001
,  // measure 29
0010
0000
0000
0001
0000
0000
1010
0000
,  // measure 30
0100
0000
0000
1000
0000
0000
0101
0000
,  // measure 31
0010
0000
0000
0100
0000
0000
1001
0000
,  // measure 32
0100
0010
0001
0100
,  // measure 33
0020
0000
0030
0000
,  // measure 34
2000
0000
3000
0000
,  // measure 35
0002
0000
0003
0000
,  // measure 36
0020
0000
0030
0000
,  // measure 37
0200
0000
0300
0000
,  // measure 38
2000
0000
3000
0000
,  // measure 39
0002
0000
0003
0000
,  // measure 40
0200
0000
0300
0000
,  // measure 41
0020
0000
0030
0000
,  // measure 42
2000
0000
3000
0000
,  // measure 43
0200
0000
0300
0000
,  // measure 44
0002
0000
0003
0000
,  // measure 45
0020
0000
0030
0000
,  // measure 46
0002
0000
0003
0000
,  // measure 47
2000
0000
3000
0000
,  // measure 48
0020
0000
0030
0000
,  // measure 49
2000
0000
3010
0000
,  // measure 50
0200
0000
0301
0000
,  // measure 51
0002
0000
0013
0000
,  // measure 52
0200
0000
1300
0000
,  // measure 53
0020
0000
1030
0000
,  // measure 54
0200
0000
0301
0000
,  // measure 55
0002
0000
0013
0000
,  // measure 56
0200
0000
1300
0000
,  // measure 57
0002
0100
0013
0100
,  // measure 58
2000
0010
3100
0001
,  // measure 59
0020
1000
0130
0001
,  // measure 60
0200
0010
1300
0010
,  // measure 61
0002
0100
1003
0010
,  // measure 62
2000
0100
3001
0010
,  // measure 63
0200
1000
0310
1000
,  // measure 64
0020
0001
1030
0001
,  // measure 65
0100
0001
0010
0100
,  // measure 66
1000
0010
1010
0100
,  // measure 67
1010
0100
0001
1000
,  // measure 68
0001
0010
0100
0010
,  // measure 69
0001
1000
0001
0100
,  // measure 70
0001
0010
0101
0010
,  // measure 71
0101
0010
0001
1000
,  // measure 72
1001
0010
0100
0010
,  // measure 73
1001
0010
0100
1000
,  // measure 74
0010
0100
0011
0100
,  // measure 75
1010
0100
0001
1000
,  // measure 76
0001
0010
0100
1000
,  // measure 77
0010
0100
0001
1000
,  // measure 78
0100
0010
0101
0010
,  // measure 79
1100
0010
0001
0100
,  // measure 80
0110
0100
0110
0010
,  // measure 81
1000
1000
1000
1000
,  // measure 82
0001
0001
0001
0001
,  // measure 83
1100
0000
0000
0001
0000
0000
1100
0000
,  // measure 84
0101
0000
0000
1000
0000
0000
0101
0000
,  // measure 85
1010
0000
0000
0001
0000
0000
1010
0000
,  // measure 86
0001
0000
0010
0000
0200
0300
1000
0000
,  // measure 87
0011
0000
0000
1000
0000
0000
0101
0000
,  // measure 88
1010
0000
0000
0001
0000
0000
1100
0000
,  // measure 89
1001
0000
0000
0010
0000
0000
0110
0000
,  // measure 90
0001
0010
1000
0010
,  // measure 91
2002
3003
0000
0000
;

//---------------dance-single - ----------------
#NOTES:
     dance-single:
     :
     Beginner:
     2:
     0.145,0.233,0.111,0.000,0.000: // measure 1
0000
0000
0000
0000
,  // measure 2
0000
0000
0000
0000
,  // measure 3
0000
0000
0000
0000
,  // measure 4
0000
0000
0000
0000
,  // measure 5
0001
0000
0000
0000
,  // measure 6
1000
0000
0000
0000
,  // measure 7
0010
0000
0000
0000
,  // measure 8
0100
0000
0000
0000
,  // measure 9
0001
0000
0010
0000
,  // measure 10
0100
0000
1000
0000
,  // measure 11
0010
0000
0100
0000
,  // measure 12
0001
0000
0000
0000
,  // measure 13
1000
0000
0100
0000
,  // measure 14
1000
0000
0010
0000
,  // measure 15
0100
0000
0001
0000
,  // measure 16
0010
0000
0000
0000
,  // measure 17
0001
0000
0000
0001
,  // measure 18
0000
0000
0000
1000
,  // measure 19
0000
0000
0000
0010
,  // measure 20
0000
0000
0000
0000
,  // measure 21
0100
0000
0000
0100
,  // measure 22
0000
0000
0000
1001
,  // measure 23
0000
0000
0000
0010
,  // measure 24
0000
0000
0000
0000
,  // measure 25
0100
0000
0000
1001
,  // measure 26
0000
0000
0000
0010
,  // measure 27
0000
0000
0000
0110
,  // measure 28
0000
0000
0000
0000
,  // measure 29
1000
0000
0000
1001
,  // measure 30
0000
0000
0000
0110
,  // measure 31
0000
0000
0000
0110
,  // measure 32
0000
0000
0000
0000
,  // measure 33
0001
0000
0100
0000
,  // measure 34
0001
0000
0000
0000
,  // measure 35
1000
0000
0100
0000
,  // measure 36
1000
0000
0000
0000
,  // measure 37
0010
0000
0100
0000
,  // measure 38
0010
0000
0000
0000
,  // measure 39
1000
0000
0001
0000
,  // measure 40
1000
0000
0000
0000
,  // measure 41
0001
0000
0000
0000
,  // measure 42
0010
0000
0000
0000
,  // measure 43
0100
0000
0010
0000
,  // measure 44
0100
0000
1000
0000
,  // measure 45
0010
0000
0000
0000
,  // measure 46
0100
0000
0000
0000
,  // measure 47
0001
0000
0100
0000
,  // measure 48
0010
0000
0100
0000
,  // measure 49
0001
0000
0000
0000
,  // measure 50
1000
0000
0000
0000
,  // measure 51
0100
0000
0010
0000
,  // measure 52
0000
0000
0100
0000
,  // measure 53
1000
0000
0000
0000
,  // measure 54
0001
0000
0000
0000
,  // measure 55
0100
0000
0001
0000
,  // measure 56
0000
0000
0010
0000
,  // measure 57
0100
0000
0000
0000
,  // measure 58
1000
0000
0000
0000
,  // measure 59
0001
0000
0100
0000
,  // measure 60
0010
0000
0100
0000
,  // measure 61
0001
0000
0000
0000
,  // measure 62
1000
0000
0000
0000
,  // measure 63
0100
0000
1000
0000
,  // measure 64
0110
0000
0110
0000
,  // measure 65
0001
0000
0000
0000
,  // measure 66
1000
0000
0000
0100
,  // measure 67
0100
0000
0000
0000
,  // measure 68
0010
0000
0000
0001
,  // measure 69
0001
0000
0000
0000
,  // measure 70
0100
0000
0000
0010
,  // measure 71
0010
0000
0000
1000
,  // measure 72
1000
0000
0000
0000
,  // measure 73
0000
0100
0000
1000
,  // measure 74
0000
0001
0000
0100
,  // measure 75
0000
0010
0000
1000
,  // measure 76
0000
0000
0001
0001
,  // measure 77
0000
0010
0000
0100
,  // measure 78
0000
1000
0000
0010
,  // measure 79
0000
0100
0000
0010
,  // measure 80
0000
1000
0000
0001
,  // measure 81
0000
0010
0010
0000
,  // measure 82
0100
0000
0010
0000
,  // measure 83
0001
0000
0000
0001
,  // measure 84
0000
0000
0000
1001
,  // measure 85
0000
0000
0000
0110
,  // measure 86
0000
0000
0000
0000
,  // measure 87
1000
0000
0000
0110
,  // measure 88
0000
0000
0000
1001
,  // measure 89
0000
0000
0000
0110
,  // measure 90
0000
0000
1001
0000
,  // measure 91
1001
0000
0000
0000
;
