#TITLE:Help Me Dr. Dick;
#SUBTITLE:;
#ARTIST:E-Rotic;
#TITLETRANSLIT:;
#SUBTITLETRANSLIT:;
#ARTISTTRANSLIT:;
#CREDIT:;
#BANNER:;
#BACKGROUND:;
#LYRICSPATH:;
#CDTITLE:;
#MUSIC:01_-_help_me_dr._dick.ogg;
#OFFSET:0.040;
#SAMPLESTART:0.000;
#SAMPLELENGTH:12.000;
#SELECTABLE:YES;
#BPMS:0.000=103.060;
#STOPS:;
#BGCHANGES:;

//---------------dance-single - ----------------
#NOTES:
     dance-single:
     :
     Easy:
     2:
     0.182,0.192,0.071,0.173,0.000:
0000
0000
0000
0000
,
0000
0000
0000
0000
,
0000
0000
0000
0000
,
1000
0100
0010
0001
,
1000
2000
0000
3000
,
0001
0002
0000
0003
,
0100
0200
0000
0300
,
0010
1000
0001
0100
,
0010
0000
1001
0000
,
0100
0100
1000
1000
,
0002
0000
0100
0103
,
0010
1000
0100
1000
,
0001
0000
1001
0000
,
1000
0000
1001
0000
,
1000
0100
1000
0010
,
0100
0000
0001
1000
,
2002
0000
0000
3003
,
1000
0100
1000
0000
,
0001
0100
0001
0000
,
1000
0010
1000
0000
,
0001
0010
0001
0000
,
1000
0001
0100
0000
,
0001
1000
0100
0000
,
1000
0001
0010
0000
,
0001
1000
0010
0100
,
0001
2000
0000
3000
,
0010
0200
0000
0300
,
0001
0020
0000
0030
,
0100
1000
0010
0001
,
1000
0200
0000
0300
,
0010
0002
0000
0003
,
0100
0020
0000
0030
,
1000
0010
0001
0100
,
1001
0100
0000
0010
,
0000
1000
0000
0001
,
0000
0110
0000
1000
,
0000
0100
0000
0010
,
0020
0000
0000
0000
,
2030
0000
0000
0000
,
3002
0000
0000
0000
,
0103
0010
1000
0001
,
2002
0000
0000
3003
;

//---------------dance-single - ----------------
#NOTES:
     dance-single:
     :
     Medium:
     5:
     0.372,0.356,0.306,0.418,0.000:
0000
0000
0000
0000
,
0000
0000
0000
0000
,
0000
0000
0000
0000
,
1000
0100
0010
0001
0200
0000
0320
0000
,
1030
0010
0100
1001
,
0010
1000
0100
1001
,
0010
0001
1000
0110
,
1000
0001
0100
0010
2000
0000
3001
0000
,
0110
0000
0110
0000
1000
0100
0001
0000
,
1000
0100
1000
0000
0001
0100
0001
0000
,
0020
0032
0203
2300
,
3100
0001
0010
0000
0100
1000
0001
0000
,
1010
0000
0101
0000
1000
0010
0001
0000
,
0010
1000
0100
0000
0010
0001
0100
0000
,
0020
2030
3002
0023
,
0130
0000
1001
0000
0100
1000
0010
0000
,
2002
0000
0000
3003
,
0010
1000
0100
0000
1001
0000
0110
0000
,
0010
0001
0100
0000
0110
0000
1001
0000
,
1000
0001
0100
0000
0101
0000
1100
0000
,
1000
0100
0001
0000
1000
0100
0001
0000
,
1000
0010
0100
0000
1010
0000
0101
0000
,
0010
0001
0100
0000
0011
0000
1100
0000
,
0001
1000
0100
0000
1001
0000
0110
0000
,
1000
0010
0001
0000
1000
0010
0001
0000
,
2000
0000
3002
0000
0100
0100
0103
0000
,
0020
0000
2030
0000
0100
0100
3100
0000
,
0020
0000
0032
0000
0100
0100
0103
0000
,
0010
1000
0001
0000
0010
0001
1000
0000
,
0200
0000
2300
0000
0001
0001
3001
0000
,
0020
0000
0230
0000
1000
1000
1300
0000
,
0002
0000
0023
0000
0100
0100
0130
0000
,
1000
0010
0100
0001
0010
0000
1001
0000
,
0010
1000
0000
0100
0000
1001
0000
0110
,
0000
0001
0000
0100
0000
1010
0000
0110
,
0000
0001
0000
1000
0000
0110
0000
1001
,
0000
0010
0000
0001
0000
1100
0000
1001
,
0002
2003
3200
0302
,
0203
2300
3020
0230
,
0320
0032
0023
2030
,
3002
0023
0230
2300
,
3001
0000
0000
0000
;

//---------------dance-single - ----------------
#NOTES:
     dance-single:
     :
     Hard:
     8:
     0.531,0.533,0.439,0.245,0.296: // measure 1
0000
0000
0000
0000
,  // measure 2
0000
0000
0000
0000
,  // measure 3
0000
0000
0000
0000
,  // measure 4
2000
0100
3200
0010
0320
0001
0032
1000
,  // measure 5
1003
0100
1000
0100
0000
0000
0010
0000
0001
0000
0100
0000
1000
0000
0000
0000
,  // measure 6
0100
0001
0100
0001
0000
0000
0010
0000
0001
0000
1000
0000
0100
0000
0000
0000
,  // measure 7
1000
0010
1000
0010
0000
0000
0100
0000
0001
0000
0010
0000
1000
0000
0010
0000
,  // measure 8
0002
0000
0010
0000
0023
0000
0100
0000
0230
0000
1000
0000
2300
0000
0001
3000
,  // measure 9
1001
0000
0000
0000
1100
0000
0000
0000
0001
0000
1000
0100
0000
0000
1000
0000
,  // measure 10
0001
0100
0010
0000
0110
0000
0100
0010
1000
0000
0001
0000
1001
0000
1000
0000
,  // measure 11
0100
0000
0010
0000
0001
0000
0100
1000
0100
1000
0100
0000
0001
0000
0010
0000
,  // measure 12
0100
0001
0100
0001
0100
0000
1000
0010
1000
0010
1000
0000
0100
0000
0010
0001
,  // measure 13
1000
0000
0000
0000
0110
0000
0000
0000
0001
1000
0001
1000
0001
0000
0010
0100
,  // measure 14
1000
0100
1000
0000
0001
0000
0100
0001
0010
0001
0010
0000
0100
0000
1000
0001
,  // measure 15
0100
0000
0001
1000
0100
0000
1000
0010
0100
0010
1000
0000
0100
0000
0010
0001
,  // measure 16
0100
0001
0010
0000
0100
1000
0000
0000
0010
0001
0010
0001
0010
0000
1000
0000
,  // measure 17
2002
0000
0000
0000
0000
0000
3003
0000
0000
0000
1000
0100
0000
0000
0011
0000
,  // measure 18
1000
0000
0001
0000
0100
0000
0010
1000
0000
0000
0100
0000
0001
0000
0100
0000
,  // measure 19
1000
0000
0010
0000
0001
0000
0010
1000
0000
0000
0100
0000
0010
0000
0001
0000
,  // measure 20
0100
0000
0010
0000
0001
0000
0010
1000
0000
0000
0100
0000
1000
0010
0100
0000
,  // measure 21
1010
0000
0101
0000
0010
1000
0100
0001
,  // measure 22
0010
0000
1000
0000
0100
0000
0001
0010
0000
0000
0100
0000
1000
0000
0010
0000
,  // measure 23
0100
0000
0001
0000
0010
0000
0001
0100
0000
0000
0010
0000
1000
0000
0100
0000
,  // measure 24
0001
0000
0100
0000
1000
0001
1000
0000
0000
0000
0100
0000
0010
0001
0100
0000
,  // measure 25
0110
0000
1001
0000
1000
0100
0001
0010
,  // measure 26
1001
0000
0000
0000
0110
0000
0000
0000
1000
0100
1000
0100
1000
0000
0000
0000
,  // measure 27
0101
0000
0000
0000
1100
0000
0000
0000
0001
1000
0001
1000
0001
0000
0000
0000
,  // measure 28
1100
0000
0000
0000
0011
0000
0000
0000
1000
0100
1000
0100
1000
0000
0100
0000
,  // measure 29
0200
0000
0001
0000
0302
0000
0100
0000
0203
0000
1000
0000
2300
0000
0001
3000
,  // measure 30
1001
0000
0000
0000
0110
0000
0000
0000
1000
0100
0010
0001
1000
0000
0000
0000
,  // measure 31
0110
0000
0000
0000
1001
0000
0000
0000
0010
0001
0100
0010
1000
0000
0000
0000
,  // measure 32
0101
0000
0000
0000
1010
0000
0000
0000
0100
0001
0010
0100
1000
0000
0010
0000
,  // measure 33
0020
0000
0001
0000
0032
0000
0010
0000
0023
0000
1000
0000
2030
0000
0001
3000
,  // measure 34
1001
1010
0000
0101
0000
1100
0000
1001
,  // measure 35
0000
0101
0000
0011
0000
0110
0000
1001
,  // measure 36
0000
1100
0000
1010
0000
0110
0000
0011
,  // measure 37
0000
1001
0000
1100
0000
1001
0000
0011
,  // measure 38
0010
0000
0100
0000
1000
0000
0100
0010
0000
0100
0010
0000
0001
0000
0100
0000
,  // measure 39
0010
0000
1000
0000
0001
0000
1000
0001
0000
1000
0001
0000
0100
0000
0010
0000
,  // measure 40
1000
0000
0100
0000
0010
0000
0001
0010
0000
0001
0010
0000
0100
0000
1000
0000
,  // measure 41
2002
3003
0220
0330
,  // measure 42
2002
0000
0000
3003
;
