#TITLE:Golden Skans;
#SUBTITLE:;
#ARTIST:Klaxons;
#TITLETRANSLIT:;
#SUBTITLETRANSLIT:;
#ARTISTTRANSLIT:;
#CREDIT:;
#BANNER:;
#BACKGROUND:;
#LYRICSPATH:;
#CDTITLE:;
#MUSIC:Golden Skans.mp3;
#OFFSET:-6.780;
#SAMPLESTART:47.320;
#SAMPLELENGTH:13.520;
#SELECTABLE:YES;
#DISPLAYBPM:142.000;
#BPMS:0.000=142.014;
#STOPS:;
#BGCHANGES:;

//---------------dance-single - ----------------
#NOTES:
     dance-single:
     :
     Hard:
     7:
     0.505,0.428,0.145,0.245,0.000: // measure 1
1001
0000
0001
0010
0100
0000
0010
0001
,  // measure 2
1000
0010
0100
0010
0100
0000
0001
1000
,  // measure 3
0100
0000
0010
0001
0000
0001
1000
0010
,  // measure 4
0100
0001
0010
0100
0010
0000
0011
0000
,  // measure 5
1001
0000
1000
0010
0100
0000
0010
0100
,  // measure 6
0001
1000
0100
0001
0100
1000
0001
0100
,  // measure 7
0000
0010
0100
0010
0000
1000
0001
0000
,  // measure 8
1000
0100
0010
0001
0100
0000
0110
0000
,  // measure 9
1002
0000
0010
0000
0100
0100
0100
0000
,  // measure 10
2003
0000
0010
0000
0001
0001
3001
0000
,  // measure 11
1000
0100
0001
0200
0000
0010
0000
1300
,  // measure 12
0000
0001
1000
0010
0100
0001
0010
0000
,  // measure 13
2100
0000
0010
0000
0001
0001
0001
0000
,  // measure 14
3200
0000
0010
0000
1000
1000
1300
0000
,  // measure 15
1000
0010
0100
0001
0000
1000
1000
2000
,  // measure 16
0000
0001
0001
0002
0000
0000
3003
0000
,  // measure 17
1000
0010
0100
0001
0100
0001
0000
1000
,  // measure 18
0100
0010
0001
0100
0010
0000
1001
0000
,  // measure 19
0001
0010
0100
0010
0001
1000
0000
0010
,  // measure 20
1000
0001
0100
0010
0100
0000
0110
0000
,  // measure 21
0010
1000
0100
0001
0100
1000
0001
1000
,  // measure 22
0010
0100
0001
0010
0100
0000
0110
0000
,  // measure 23
0010
0001
1000
0010
0100
0001
0010
1000
,  // measure 24
0020
0000
0000
0002
0000
0000
0033
0000
,  // measure 25
1001
0000
1000
0010
0100
0000
0010
0100
,  // measure 26
0001
0001
0010
0100
0010
0001
1000
0001
,  // measure 27
0100
0000
0010
1000
0000
1000
0001
0010
,  // measure 28
0100
1000
0001
0001
0100
0000
0010
0000
,  // measure 29
0100
0001
0010
0001
1000
0000
0010
0100
,  // measure 30
0001
0010
1000
0010
0001
0100
0010
1000
,  // measure 31
0000
0010
1000
0100
0000
1000
0100
0001
,  // measure 32
0100
1000
0001
0100
0010
0000
0110
0000
,  // measure 33
1000
0100
1000
0100
0010
0001
0010
0001
,  // measure 34
0200
0000
0001
0002
0000
0000
0303
0000
,  // measure 35
0001
0010
0100
1000
0001
0100
0010
1000
,  // measure 36
0002
0000
1000
2000
0000
0000
3003
0000
,  // measure 37
1000
0010
0001
0010
1000
0100
0010
0100
,  // measure 38
2000
0000
0010
0020
0000
0000
3030
0000
,  // measure 39
1000
0010
1000
0001
1000
0100
1000
0001
,  // measure 40
2000
0000
0001
0002
0000
0000
3003
0000
,  // measure 41
1000
0100
0001
0100
0010
0001
0000
0010
,  // measure 42
0001
0100
0010
1000
0010
0100
0000
0010
,  // measure 43
0100
0001
0010
0001
1000
0100
0000
0010
,  // measure 44
0001
0100
0010
1000
0001
1000
0000
0001
,  // measure 45
0100
0010
1000
0010
0100
0001
0010
0100
,  // measure 46
0010
0000
0001
0020
0000
0001
0000
0031
,  // measure 47
2002
0000
0000
0000
,  // measure 48
3003
0000
0000
0220
0000
0000
0000
0000
,  // measure 49
0330
0000
0000
0000
;

//---------------dance-single - ----------------
#NOTES:
     dance-single:
     :
     Medium:
     5:
     0.384,0.348,0.123,0.279,0.000: // measure 1
1000
0000
0001
0010
0001
0000
1000
0000
,  // measure 2
0001
0000
0010
0100
0010
0000
0100
2000
,  // measure 3
0000
0000
3001
0000
1000
0000
0010
0100
,  // measure 4
0010
0000
0100
0001
0100
0001
0000
0001
,  // measure 5
1000
0000
0001
0010
0001
0000
1000
0100
,  // measure 6
0010
0000
0100
0000
0010
0000
0001
1000
,  // measure 7
0000
0001
0100
0001
0000
1000
0010
0000
,  // measure 8
0100
0000
0001
1000
0001
0000
1000
0000
,  // measure 9
2001
0001
0010
0010
,  // measure 10
0100
0100
0010
3010
,  // measure 11
1000
0010
0100
0002
0000
0100
0000
0100
,  // measure 12
0000
0100
0103
0000
0010
1000
0001
0000
,  // measure 13
0020
0001
0001
0100
,  // measure 14
0100
0001
0001
0100
,  // measure 15
0130
0000
0010
0000
0001
1000
0001
1000
,  // measure 16
0000
0010
1000
0010
0000
0100
0001
0000
,  // measure 17
1000
0100
0000
0000
0100
0010
0000
0000
,  // measure 18
0010
0001
0100
0010
,  // measure 19
0100
0001
0000
0000
0001
1000
0000
0000
,  // measure 20
0001
1000
0100
0010
,  // measure 21
0100
1000
0000
0000
1000
0010
0000
0010
,  // measure 22
0100
0001
0010
0100
,  // measure 23
0010
0001
0000
0001
1000
0001
0000
0001
,  // measure 24
0200
0000
0000
0020
0000
0000
0330
0000
,  // measure 25
0010
0000
1000
0000
0100
0000
0010
0100
,  // measure 26
0010
0000
0100
1000
0100
0000
0010
0002
,  // measure 27
0000
1003
0001
0100
,  // measure 28
0010
0000
1000
0001
1000
0000
0000
0000
,  // measure 29
0010
0000
0100
0001
0100
0000
0010
1000
,  // measure 30
0010
0000
1000
0000
0100
0000
0010
0001
,  // measure 31
0000
0010
0001
1000
0000
1000
0001
0000
,  // measure 32
0100
0000
0010
0100
0001
0000
0000
0000
,  // measure 33
1001
0000
1000
0010
0000
0100
0000
0001
,  // measure 34
0100
0000
0000
0202
0000
0000
0303
0000
,  // measure 35
0001
0000
0010
0001
0000
1000
0000
0100
,  // measure 36
1000
0000
0000
2200
0000
0000
3300
0000
,  // measure 37
1000
0000
0001
1000
0000
1000
0001
0000
,  // measure 38
0100
0000
0000
0220
0000
0000
0330
0000
,  // measure 39
0010
0000
1000
0001
0000
0001
0010
0000
,  // measure 40
0001
0000
0000
0022
0000
0000
0033
0000
,  // measure 41
0001
1000
0001
0000
1000
0010
1000
0000
,  // measure 42
0010
0000
0000
2020
0000
0000
3030
0000
,  // measure 43
1000
0100
0010
0000
0100
0010
0001
0000
,  // measure 44
0010
0000
0000
0022
0000
0000
0033
0000
,  // measure 45
0001
1000
0001
0000
1000
0010
1000
0000
,  // measure 46
0001
0000
0000
2002
0000
0000
3003
0000
,  // measure 47
0220
0000
0000
0000
,  // measure 48
0330
0000
0000
2002
0000
0000
0000
0000
,  // measure 49
3003
0000
0000
0000
;

//---------------dance-single - ----------------
#NOTES:
     dance-single:
     :
     Easy:
     4:
     0.287,0.321,0.201,0.223,0.000: // measure 1
1000
0001
0100
0010
,  // measure 2
0100
0001
1000
0000
,  // measure 3
0001
0010
0001
0000
,  // measure 4
1000
0010
1000
0000
,  // measure 5
0001
0010
0100
1000
,  // measure 6
0010
0100
0010
1000
,  // measure 7
0001
0000
1000
0000
,  // measure 8
0001
1000
0001
0000
,  // measure 9
1001
0001
1000
1000
,  // measure 10
0010
0100
0010
0100
,  // measure 11
0001
0000
1000
0000
,  // measure 12
0100
0000
0010
0000
,  // measure 13
0100
0100
0010
0010
,  // measure 14
0001
1000
0010
0100
,  // measure 15
0001
0000
1000
0000
,  // measure 16
0001
0000
0010
0001
,  // measure 17
0100
0000
0010
0000
,  // measure 18
1000
0001
1000
0100
,  // measure 19
0010
0000
0100
0000
,  // measure 20
0010
0001
1000
0010
,  // measure 21
1000
0000
0001
0000
,  // measure 22
0100
0010
1000
0100
,  // measure 23
1000
0000
0001
0000
,  // measure 24
2002
0000
0000
3003
,  // measure 25
1001
0001
0100
0010
,  // measure 26
1000
0100
0010
0100
,  // measure 27
0110
0000
0010
0000
,  // measure 28
0001
1000
0001
0000
,  // measure 29
1001
1000
0010
0100
,  // measure 30
0001
0010
0100
0010
,  // measure 31
0110
0000
0100
0000
,  // measure 32
1000
0001
1000
0000
,  // measure 33
0001
0010
0100
1000
,  // measure 34
0001
0000
0000
2002
0000
0000
3003
0000
,  // measure 35
1000
0010
0100
0001
,  // measure 36
0100
0000
0000
0220
0000
0000
0330
0000
,  // measure 37
0010
1000
0100
1000
,  // measure 38
0001
0000
0000
2002
0000
0000
3003
0000
,  // measure 39
1000
0010
0100
0001
,  // measure 40
0010
0000
0000
0220
0000
0000
0330
0000
,  // measure 41
0100
0010
0001
1000
,  // measure 42
1001
0000
0000
2002
0000
0000
3003
0000
,  // measure 43
1000
0001
0010
0100
,  // measure 44
0110
0000
0000
0220
0000
0000
0330
0000
,  // measure 45
0100
1000
0001
1000
,  // measure 46
1001
0000
0000
2002
0000
0000
3003
0000
,  // measure 47
0220
0000
0000
0000
,  // measure 48
0330
0000
0000
2002
0000
0000
0000
0000
,  // measure 49
3003
0000
0000
0000
;

//---------------dance-single - ----------------
#NOTES:
     dance-single:
     :
     Beginner:
     1:
     0.140,0.180,0.056,0.000,0.000: // measure 1
1000
0000
0001
0000
,  // measure 2
0100
0100
0100
0000
,  // measure 3
0010
0000
0100
0000
,  // measure 4
0001
0000
1000
0000
,  // measure 5
0001
0000
0010
0000
,  // measure 6
0100
0100
0100
0000
,  // measure 7
0010
0000
0001
0000
,  // measure 8
1000
0000
0001
0000
,  // measure 9
1001
0000
0000
0000
,  // measure 10
1000
0000
0010
0000
,  // measure 11
0100
0000
0000
0000
,  // measure 12
0010
0000
0000
0000
,  // measure 13
0100
0000
0000
0000
,  // measure 14
0001
0000
0010
0000
,  // measure 15
0001
0000
0000
0000
,  // measure 16
1000
0000
0001
0000
,  // measure 17
0100
0000
0010
0000
,  // measure 18
1000
0000
1000
0000
,  // measure 19
0001
0000
0010
0000
,  // measure 20
0001
0001
0001
0000
,  // measure 21
1000
0000
0010
0000
,  // measure 22
0100
0000
0100
0000
,  // measure 23
0001
0000
1000
0000
,  // measure 24
1001
0000
0000
0000
,  // measure 25
0110
0000
0010
0000
,  // measure 26
1000
1000
1000
0000
,  // measure 27
0001
0000
0010
0000
,  // measure 28
0100
0000
0010
0000
,  // measure 29
0001
0000
1000
0000
,  // measure 30
0001
0001
0001
0000
,  // measure 31
1000
0000
0010
0000
,  // measure 32
0100
0100
0100
0000
,  // measure 33
1001
0000
1000
0000
,  // measure 34
0100
0000
0000
0000
,  // measure 35
0010
0000
0001
0000
,  // measure 36
0100
0000
0000
0000
,  // measure 37
0010
0000
0100
0000
,  // measure 38
0001
0000
0000
0000
,  // measure 39
1000
0000
0001
0000
,  // measure 40
1000
0000
0000
0000
,  // measure 41
0001
0000
0000
0000
,  // measure 42
0010
0000
0000
0000
,  // measure 43
0100
0000
0000
0000
,  // measure 44
1000
0000
0000
0000
,  // measure 45
0010
0000
0000
0000
,  // measure 46
0100
0000
0000
0000
,  // measure 47
1001
0000
0000
0000
;
