#TITLE:Dragonfly;
#SUBTITLE:;
#ARTIST:島谷ひとみ;
#TITLETRANSLIT:;
#SUBTITLETRANSLIT:;
#ARTISTTRANSLIT:Hitomi Shimatani;
#CREDIT:348;
#BANNER:Dragonfly Banner.png;
#BACKGROUND:Dragonfly Background.png;
#LYRICSPATH:Dragonfly.lrc;
#CDTITLE:;
#MUSIC:Dragonfly.mp3;
#OFFSET:-0.633;
#SAMPLESTART:74.674;
#SAMPLELENGTH:15.000;
#SELECTABLE:YES;
#BPMS:0.000=170.000;
#STOPS:207.500=0.706
,287.500=0.706
;
#BGCHANGES:;

//---------------dance-single - ----------------
#NOTES:
     dance-single:
     :
     Beginner:
     1:
     0.092,0.157,0.000,0.000,0.000:
0000
0000
0000
0000
,
0000
0000
0000
0000
,
0000
0000
0000
0000
,
0000
0000
0000
0000
,
0000
0000
0000
0000
,
0000
0000
0000
0000
,
0000
0000
0000
0000
,
0000
0000
0000
0000
,
0001
0000
0000
0000
,
1000
0000
0000
0000
,
0001
0000
0000
0000
,
1000
0000
0000
0000
,
0010
0000
0000
0000
,
0100
0000
0000
0000
,
0010
0000
0000
0000
,
0100
0000
0000
0000
,
0001
0000
0000
1000
,
1000
0000
0000
0000
,
1000
0000
0000
0001
,
0001
0000
0000
0000
,
1000
0000
0000
0000
,
0100
0000
0000
0000
,
0010
0000
0000
0000
,
0001
0000
0000
0000
,
0100
0000
0000
0000
,
0100
0000
0000
0000
,
0001
0000
0000
0000
,
0001
0000
0000
0000
,
1000
0000
0000
0000
,
1000
0000
0000
0000
,
0010
0000
0000
0000
,
0010
0000
0000
0000
,
1000
0000
0001
0000
,
1000
0000
0000
0000
,
0010
0000
0100
0000
,
0010
0000
0000
0000
,
1000
0000
0000
0000
,
0001
0001
0000
0001
,
0001
0000
0000
0000
,
1000
1000
0000
1000
,
1000
0000
0000
0000
,
0001
0000
0000
0000
,
0100
0000
0000
0000
,
0010
0000
0000
0000
,
1000
0000
0000
0000
,
0000
0000
0000
0000
,
0001
0000
0000
0000
,
0001
0000
0000
0000
,
0100
0000
0000
0000
,
0000
0000
0000
0000
,
0010
0000
0000
0000
,
0010
0000
0000
0000
,
0000
0000
0010
0000
,
1000
0000
0000
0000
,
0001
0000
0100
0000
,
0001
0000
0000
0000
,
1000
0000
0000
0000
,
0010
0000
0000
0000
,
0100
0000
0000
0000
,
0001
0000
0000
0000
,
0100
0000
0001
0000
,
0100
0000
0000
0000
,
0010
0000
1000
0000
,
0010
0000
0000
0000
,
0100
0000
0000
0000
,
0010
0000
0000
0000
,
1000
0000
0000
0000
,
1000
0000
0000
0000
,
0100
0000
0000
0000
,
0100
0000
0000
0000
,
0010
0000
0000
0000
,
0010
0000
0000
0000
,
0000
0001
0000
0000
0000
0000
0000
0000
;

//---------------dance-single - ----------------
#NOTES:
     dance-single:
     :
     Easy:
     3:
     0.192,0.222,0.061,0.105,0.000:
0000
0000
0000
0000
,
0000
0000
0000
0000
,
0000
0000
0000
0000
,
0000
0000
0000
0000
,
0000
0000
0000
0000
,
0000
0000
0000
0000
,
0000
0000
0000
0000
,
0000
0000
0000
0000
,
1000
0000
0100
0000
,
1000
0000
0100
0000
,
0010
0000
0001
0000
,
0010
0000
0001
0000
,
1000
0000
0100
0000
,
0010
0000
0001
0000
,
1000
0000
0010
0000
,
0100
0000
0001
0000
,
2000
0000
3001
0000
,
0001
0010
0001
0000
,
0020
0000
0031
0000
,
1000
0100
1000
0000
,
0002
0000
1003
0000
,
1000
0000
1001
0000
,
0001
0000
1001
0000
,
1000
0000
0001
0000
,
0200
0000
0300
0000
,
0100
0100
0100
0000
,
0020
0000
0030
0000
,
0010
0010
0010
0000
,
0200
0000
0310
0000
,
0010
0000
0110
0000
,
0100
0000
0110
0000
,
0100
0000
0010
0000
,
1000
0000
0000
0000
,
0001
0010
0100
1000
,
0001
0000
0000
0000
,
1000
0001
1000
0000
,
0001
0000
0011
0000
,
0010
0000
0001
1000
,
0100
0000
1000
0000
,
1100
0000
0010
0100
,
2000
0000
3100
0000
,
0200
0000
0310
0000
,
0020
0000
0031
0000
,
0002
0000
0000
0003
,
1000
0000
0001
0000
,
0100
0000
0010
0100
,
0001
0000
0100
0000
,
0010
0000
1000
0001
,
1000
0000
0100
0000
,
1000
0000
0010
0000
,
1000
0000
0001
0000
,
0100
0000
0001
0000
,
0000
0000
0001
0000
,
0010
0000
0001
0000
,
0000
0000
1000
0000
,
0100
0000
1000
0000
,
0001
0100
0010
0000
,
0010
0100
0001
0000
,
1000
0000
0010
0000
,
0100
0000
0010
0000
,
1000
0000
0100
0000
,
0010
0000
0000
0000
,
0001
0000
0010
0000
,
0100
0000
0000
0000
,
1000
0100
0010
0000
,
0010
0100
1000
0000
,
0001
0000
0010
0000
,
0010
0000
0001
0000
,
1000
0000
0100
0000
,
0100
0000
1000
0000
,
0001
0000
0010
0000
,
0100
0000
1000
0000
,
0000
2002
0000
0000
0000
3003
0000
0000
;

//---------------dance-single - ----------------
#NOTES:
     dance-single:
     :
     Medium:
     5:
     0.352,0.443,0.192,0.227,0.000:
0000
0000
0000
0000
,
0000
0000
0000
0000
,
0000
0000
0000
0000
,
0000
0000
0000
0000
,
0000
0000
0000
0000
,
0000
0000
0000
0000
,
0000
0000
0000
0000
,
0000
0000
0000
0000
,
1000
0100
0010
0000
,
0010
0100
1000
0000
,
0001
0100
0010
0000
,
0010
0100
0001
0000
,
1000
0100
0001
0100
,
1000
0010
0001
0010
,
1000
0100
0010
1000
,
0010
0001
1000
0001
,
2000
0000
0001
3001
,
0001
0010
0001
0000
0200
0000
0300
0000
,
0020
0000
1000
1030
,
1000
0001
1000
0000
0002
0000
0003
0000
,
1000
0000
0001
1000
,
0001
1000
0100
0011
,
1000
0001
0010
1100
,
0001
1001
1000
1001
,
0100
0000
0001
0000
1000
0100
1000
0000
,
0001
0010
0100
1100
,
0010
0000
1000
0000
0001
0010
0001
0000
,
0100
0001
1000
1010
,
0001
1000
1000
0001
,
1000
0000
1000
0100
0000
0100
1000
0000
,
0001
0000
0010
0001
0000
0001
0010
0000
,
0001
1100
1000
0101
,
2002
3003
0020
0030
,
0220
0330
0002
0003
,
2000
3100
0010
0011
,
0200
0301
0010
1010
,
1001
0000
1000
0001
,
1000
0010
1000
0000
0001
0000
0010
0000
,
0110
0000
0010
0100
,
1000
0001
1000
0000
0001
0000
0100
0000
,
0010
0000
1000
0000
0001
1000
0001
0000
,
2000
0000
0000
0100
0000
3100
0000
0000
,
0020
0000
0000
0001
0000
0031
0000
0000
,
0010
0011
1010
0010
,
2000
0000
0001
3001
,
0001
1000
0100
0000
,
1000
0100
1000
0001
,
0010
0000
0001
0000
1000
0010
1000
0000
,
0002
0000
1000
1003
,
1000
0100
0010
0000
,
0001
0010
1000
0010
,
0001
0000
1000
0000
0100
0000
0010
0002
,
0000
0003
0010
0000
0100
0000
1000
0000
,
0100
1000
0002
0000
,
0013
0001
1000
0100
,
1000
0001
2000
0000
,
3001
0000
0011
0000
,
1100
0000
1000
0000
,
0001
1000
0001
1000
,
0010
0000
0100
0000
0010
0100
0010
0000
,
1000
0100
0001
1000
,
0010
0001
2000
0000
,
3001
1000
0100
1000
,
0001
0100
0020
0000
,
1030
0000
1010
0000
,
0101
0000
0001
0000
,
1000
1000
0100
1000
,
0001
0000
0010
0000
0001
0010
0001
0000
,
0001
0001
0010
0001
,
0100
0000
0010
0000
0100
0010
0100
0000
,
0020
0000
0000
0100
0000
0230
0000
0000
,
0000
0000
0000
0302
0000
1003
0000
1001
,
0000
2002
0000
0000
0000
3003
0000
0000
;

//---------------dance-single - ----------------
#NOTES:
     dance-single:
     :
     Hard:
     7:
     0.484,0.538,0.375,0.296,0.000:
0000
0000
0000
0000
,
0000
0000
0000
0000
,
0000
0000
0000
0000
,
0000
0000
0000
0000
,
0000
0000
0000
0000
,
0000
0000
0000
0000
,
0000
0000
0000
0000
,
0000
0000
0000
0000
,
1000
0000
0110
0000
0001
0000
0100
0010
,
0000
1001
0000
0100
0000
0001
1000
0000
,
0001
0000
1100
0000
0001
0000
1000
0010
,
0000
0011
0000
0100
0000
0001
0100
0000
,
0010
0000
1010
0000
1000
0000
0001
0100
,
0000
0101
0000
0001
0000
1000
0010
0000
,
1000
0000
1001
0000
0001
0000
1000
0200
,
0000
0310
0001
0020
0000
0130
2000
0000
,
3002
0000
1003
0000
1000
0100
0001
0100
,
1000
0001
1100
0011
,
2000
0000
3100
0000
0010
0001
0010
1000
,
0010
0001
1010
0101
,
1000
0000
1001
0000
0001
0010
1000
0000
,
1000
0000
0010
0001
0000
1000
0001
0000
,
1000
0000
0100
0010
0000
0100
1000
0000
,
0002
0000
2003
0000
3001
0010
0100
1000
,
0001
0000
1000
0000
0001
0010
0100
0000
,
0100
0010
0001
0000
1000
0000
1100
0000
,
0001
0000
1000
0000
1000
0100
0001
0000
,
1000
0010
0001
0000
0100
0000
0101
0000
,
2000
0000
3002
0000
0203
0000
0301
0010
,
0002
0000
2003
0000
3020
0000
0130
0010
,
0200
0000
0320
0000
2030
0000
3001
0010
,
0001
0000
1000
0001
0000
1000
0000
1001
,
0000
0010
0110
1001
,
0100
0001
0100
0000
0010
1000
0010
0000
,
1000
1001
0100
0110
,
0001
1000
0100
0000
0100
1000
0001
0000
,
1000
0000
0100
0000
1000
0100
0010
0000
,
1000
0010
0001
0000
2000
0000
3001
0000
,
1000
0000
0001
0000
0010
0001
1000
0000
,
1000
0001
0010
0000
0002
0000
1003
0000
,
0110
0000
1001
0000
1000
0100
0010
0000
,
0001
0000
1000
0100
0000
1000
0100
0000
,
1000
0000
0001
0010
0000
1000
0010
0000
,
0001
1000
0100
0010
0000
0100
1000
0000
,
0002
1003
2000
3010
,
1001
0000
0100
0001
0000
0001
1000
0100
,
1000
0000
0110
0000
0001
1000
0100
0000
,
1000
1000
0001
0000
1000
0000
1001
0000
,
0200
0001
0320
1000
,
1030
0000
0001
1000
0000
0100
0010
0100
,
1000
0110
0001
0110
,
1000
0010
1000
0000
0001
0100
0001
1000
,
0001
0000
1000
0100
0000
0100
1000
0000
,
0001
0000
0100
0010
0000
0010
0100
0000
,
0002
0000
1003
0000
0100
0010
0001
0010
,
0000
0100
1000
0000
0001
0000
0110
0000
,
0001
0000
1000
0000
0001
0010
0100
0000
,
0010
0000
0001
0000
1000
0100
0001
0000
,
0100
1000
0000
0100
0000
0001
0000
0010
,
0000
1000
0000
0002
0000
1000
1003
0000
,
0010
0000
1000
0010
0000
0010
1000
0000
,
0001
0000
0100
0001
0000
0001
0100
0000
,
0001
0000
1000
0000
0010
0100
0010
1000
,
0000
0001
0100
0000
0011
0000
1010
0000
,
0100
1001
0010
1001
,
0001
1100
1000
0101
,
1000
0100
0000
0001
0000
0100
0000
1000
,
0000
0001
0000
2200
0000
3300
0000
0001
,
0010
0002
0000
2003
0000
3020
0000
0230
,
0000
0301
0000
0202
0000
0303
0000
1000
,
0100
1000
0000
0101
0000
1100
0000
1010
,
0000
0011
0000
1001
0000
0110
0000
1001
,
0000
2002
0000
0000
0000
3003
0000
0000
;

//---------------dance-single - ----------------
#NOTES:
     dance-single:
     :
     Challenge:
     9:
     0.644,0.665,0.479,0.305,0.083: // measure 1
0000
0000
0000
0000
,  // measure 2
0000
0000
0000
0000
,  // measure 3
0000
0000
0000
0000
,  // measure 4
0000
0000
0000
0000
,  // measure 5
0000
0000
0000
0000
,  // measure 6
0000
0000
0000
0000
,  // measure 7
0000
0000
0000
0000
,  // measure 8
0000
0000
0000
0000
,  // measure 9
1000
0001
2000
0000
3001
0010
0100
0010
,  // measure 10
1000
0010
0001
0010
0100
1000
0200
0000
,  // measure 11
1300
0100
0020
0000
0031
0100
1000
0001
,  // measure 12
0010
1000
0100
0010
0100
1000
0002
0000
,  // measure 13
1003
0010
0200
0000
0310
1000
0001
1000
,  // measure 14
0100
0001
0100
1000
0001
0010
0001
0000
,  // measure 15
0001
1000
0002
0000
1003
0100
0010
0001
,  // measure 16
1000
0001
0010
0001
1000
0001
1001
0000
,  // measure 17
0001
0010
1000
0010
0001
0010
1000
0010
,  // measure 18
0001
0100
0010
0200
0000
0001
0301
0000
,  // measure 19
1000
0100
0010
0100
1000
0010
0001
1000
,  // measure 20
0100
0010
1000
0200
0000
0310
0001
1000
,  // measure 21
0001
0010
1000
0100
0001
1000
0100
1000
,  // measure 22
0001
0010
0100
2100
0000
3001
0010
0001
,  // measure 23
1000
0001
0010
0012
0000
1003
0100
0010
,  // measure 24
1001
0000
0000
0000
0110
0000
0000
0001
1000
0000
0100
0000
0010
0000
0100
0000
,  // measure 25
1000
0000
0000
0000
0110
0000
0000
1000
0100
0000
0001
0000
0100
0000
1000
0000
,  // measure 26
0001
1000
0010
0200
0000
0310
1000
0001
,  // measure 27
0010
0000
0000
0000
1001
0000
0000
0100
0001
0000
1000
0000
0010
0000
1000
0000
,  // measure 28
0100
1000
0100
0020
0000
0130
0010
0001
,  // measure 29
1000
0100
1000
0010
1000
0001
1000
0010
,  // measure 30
1000
0100
1000
1020
0000
0130
0001
0100
,  // measure 31
0001
0010
0001
0201
0000
0310
1000
0001
,  // measure 32
1000
0100
0010
1001
0000
0110
0000
2002
,  // measure 33
0000
3003
0000
0010
0001
0000
0000
0000
1001
0000
0000
1000
0100
0000
0000
0000
,  // measure 34
1000
0100
0001
1000
0010
0001
1000
0001
,  // measure 35
0110
0000
0000
1000
0010
0000
0000
0000
0110
0000
0000
0001
0100
0000
0000
0000
,  // measure 36
0001
0010
1000
0001
0100
1000
0001
1000
,  // measure 37
0002
0000
0203
0000
2300
0000
3100
0001
,  // measure 38
1000
0100
0001
0100
1000
0100
0010
0001
,  // measure 39
2000
0000
3002
0000
0203
0000
0310
1000
,  // measure 40
0100
0010
0100
1000
0001
0010
0100
0001
,  // measure 41
0010
0100
0001
1000
0001
1000
0010
0100
,  // measure 42
0001
1000
0001
1001
0000
0110
0100
0010
,  // measure 43
1000
0100
0010
0011
0000
1100
1000
0100
,  // measure 44
0010
0001
1000
0001
0010
0100
1000
0000
,  // measure 45
0002
0203
0320
2030
,  // measure 46
3001
0010
0001
0100
0010
1000
0100
1000
,  // measure 47
0001
0000
1000
0100
0001
0000
0100
1000
,  // measure 48
0000
0011
0000
1001
0000
1100
0000
0001
,  // measure 49
2000
0000
3020
0000
0230
0000
0302
1000
,  // measure 50
1003
0100
0010
0100
0010
0001
1000
0001
,  // measure 51
1100
0000
0101
0000
1000
0001
1000
0100
,  // measure 52
1000
0000
0001
1000
0001
0000
1000
0100
0010
0000
0100
0010
0001
0000
2000
0000
,  // measure 53
3001
0010
0001
1000
0000
0010
0100
0001
,  // measure 54
1000
0100
0001
0100
0000
1000
0100
1000
,  // measure 55
0011
0000
0000
1000
0100
0000
0000
0000
1010
0000
0000
0001
0100
0000
0000
0000
,  // measure 56
0001
1000
0100
0020
0000
0031
1000
0000
,  // measure 57
0011
0000
1100
0000
0001
0010
0100
0000
,  // measure 58
0001
0000
0010
0000
1000
0000
0001
0000
1000
0000
0100
0000
0010
0000
0001
1000
,  // measure 59
0001
1000
0000
0011
0000
1010
0000
1001
,  // measure 60
0000
0000
0101
0000
0000
0000
1100
0000
0000
0000
0001
0010
0001
0000
1000
0000
,  // measure 61
0100
0001
0100
1000
0000
0001
0010
0001
,  // measure 62
0100
0001
0010
1000
0000
0010
0001
1000
,  // measure 63
0101
0000
0000
1000
0010
0000
0000
0000
1100
0000
0000
0001
0010
0000
0000
0000
,  // measure 64
0001
1000
0001
0200
0000
0310
0100
0000
,  // measure 65
1010
0000
0101
0000
1000
0100
0010
0000
,  // measure 66
1000
0000
0010
0000
0001
0000
1000
0000
0100
0000
0010
0000
0001
0000
0100
0010
,  // measure 67
0100
0001
0000
1010
0000
0101
0000
0011
,  // measure 68
0000
0000
1100
0000
0000
0000
0110
0000
0000
0000
1000
0100
1000
0000
0001
0000
,  // measure 69
0010
0001
0000
1010
0000
1001
0000
0101
,  // measure 70
0000
0000
1001
0000
0000
0000
0110
0000
0000
0000
0001
0010
0001
0000
1000
0000
,  // measure 71
0100
1000
0000
0110
0000
0011
0000
0110
,  // measure 72
0000
1100
0000
1001
0000
0110
0000
1001
,  // measure 73
0000
2002
0000
0000
0000
3003
0000
0000
;
