#TITLE:Dough-Nuts Active map;
#SUBTITLE:;
#ARTIST:Plus-Tech Squeeze Box;
#TITLETRANSLIT:;
#SUBTITLETRANSLIT:;
#ARTISTTRANSLIT:;
#CREDIT:DMAxel;
#BANNER:Dough-Nuts Active map.png;
#BACKGROUND:Dough-Nuts Active map-bg.png;
#LYRICSPATH:Dough-Nuts Active map.lrc;
#CDTITLE:DMAxel original simfile.png;
#MUSIC:Dough-Nuts Active map.mp3;
#OFFSET:-11.000;
#SAMPLESTART:31.518;
#SAMPLELENGTH:12.000;
#SELECTABLE:YES;
#BPMS:0.000=136.000,32.000=68.000,36.000=136.000,76.000=68.000,100.000=136.000,112.000=68.000,114.000=136.000,146.000=68.000,150.000=136.000;
#STOPS:;
#BGCHANGES:;

//---------------dance-single - ----------------
#NOTES:
     dance-single:
     :
     Easy:
     2:
     0.186,0.196,0.041,0.115,0.000: // measure 1
0001
0100
0001
0000
,  // measure 2
1000
0010
1000
0000
,  // measure 3
0001
1000
0001
0000
,  // measure 4
1000
0100
0010
0001
,  // measure 5
2000
0000
3010
0000
,  // measure 6
2000
0000
3001
0000
,  // measure 7
0002
0000
0103
0000
,  // measure 8
0002
0000
1003
0000
,  // measure 9
2002
0000
0000
3003
,  // measure 10
0100
0000
0010
0000
,  // measure 11
1000
0000
0001
0000
,  // measure 12
0100
0010
0100
0010
,  // measure 13
1000
0000
1000
0000
,  // measure 14
0010
0100
0010
0100
,  // measure 15
0001
0000
0001
0000
,  // measure 16
0100
0001
0100
0001
,  // measure 17
1000
0000
1000
0000
,  // measure 18
0010
1000
0010
1000
,  // measure 19
0001
0000
0001
0000
,  // measure 20
0200
0000
0000
0000
,  // measure 21
0320
0000
0000
0000
,  // measure 22
0230
0000
0000
0300
0000
0000
0000
0000
,  // measure 23
0000
0000
0000
2002
,  // measure 24
0000
0000
0000
0000
,  // measure 25
0000
0000
0000
0000
0000
3003
1000
1000
,  // measure 26
0001
0100
0001
0000
,  // measure 27
1000
0100
1000
0000
,  // measure 28
0010
0100
0010
0000
,  // measure 29
0100
0010
0100
0001
,  // measure 30
0000
0100
0000
0001
,  // measure 31
0000
1000
0000
0100
,  // measure 32
0000
0010
0000
0001
,  // measure 33
0000
1000
0001
0100
,  // measure 34
0010
0000
0100
0010
,  // measure 35
1000
0000
0010
0100
,  // measure 36
0010
0100
0001
1000
,  // measure 37
0001
0000
2002
0000
,  // measure 38
0000
0000
0000
3003
0001
0000
1000
0000
,  // measure 39
0001
1000
0001
0000
,  // measure 40
0200
0000
0310
0100
,  // measure 41
0010
0100
0001
0000
,  // measure 42
0001
0000
0100
0010
,  // measure 43
0100
0010
1000
0000
,  // measure 44
1000
0000
1000
0001
,  // measure 45
1000
0010
0100
0000
,  // measure 46
0100
0000
0010
0100
,  // measure 47
0010
1000
0001
0000
,  // measure 48
0001
0000
1001
1000
,  // measure 49
0001
1000
0010
0000
,  // measure 50
0010
0000
0100
0010
,  // measure 51
1000
0100
0010
0001
,  // measure 52
1001
0000
0010
0100
,  // measure 53
0001
0010
0100
1000
,  // measure 54
1000
0000
0000
0000
;

//---------------dance-single - ----------------
#NOTES:
     dance-single:
     :
     Medium:
     5:
     0.356,0.348,0.131,0.172,0.012:
1000
0100
1000
0000
0001
0010
0001
0000
,
1000
0100
0010
0000
0001
1000
0001
0000
,
0200
0010
0310
1000
,
0001
0001
0010
0000
0100
0100
1000
0000
,
0001
0100
0010
1000
,
0100
0010
0001
1000
,
0010
0100
0001
0100
,
1000
0100
0001
0000
,
2002
0000
0000
0000
0000
0000
0000
3003
,
0100
0101
1000
1100
,
0001
0100
0010
0000
1000
0000
0000
0000
,
0010
1000
0010
0000
1000
0100
0010
0000
,
1001
1000
1001
0001
,
1000
0001
0100
0001
0000
1000
0100
1000
,
0002
1000
1003
0000
,
0100
0001
0100
0000
0001
0010
0100
0000
,
1000
0001
1000
0001
0100
0000
0001
0000
,
1000
0100
1000
0100
1000
0001
0100
0001
,
0100
0000
0101
0000
1001
0000
1000
0001
,
2000
0000
0000
0000
0000
0000
0000
3000
,
0002
0203
0302
2003
,
3020
0000
0130
0010
0100
0000
0001
1000
,
0001
0001
1000
1000
0010
0010
2002
0000
,
0000
0000
0000
0000
,
0000
0000
0000
0000
0000
0000
0000
0000
0000
0000
3003
0000
0100
0000
0001
1000
,
0001
0100
0001
0000
1000
0100
0010
0000
,
0002
0000
1000
0000
1003
0000
1000
0001
,
1000
0010
1000
0000
0001
0010
0100
0000
,
1000
0000
1000
0000
0001
1000
0001
0000
0200
0000
0000
0000
0001
0000
0000
0000
,
0301
2000
0100
3100
,
0020
0100
0130
0001
,
0010
0100
1000
1000
,
0001
1000
0001
0000
1000
0100
0020
0000
,
0100
0000
0130
0000
0001
0010
0200
0000
,
0010
0000
0310
0000
1000
1000
0001
0000
,
0100
0000
0110
0000
0001
0001
1000
0000
,
0010
0110
0002
1000
,
1000
0000
0000
0000
1000
0000
1003
0010
0100
0000
0001
0000
0100
0000
0001
0000
,
0000
1000
0100
1000
0002
0000
0100
0000
,
0103
0000
0000
0000
1001
0000
0001
0100
,
0001
0000
0100
0010
0100
0010
1000
0001
,
1000
0000
0001
0000
0100
0001
0100
0001
,
1000
0100
1000
0000
0100
0000
1100
0000
,
1001
0000
0001
1000
0001
0100
0001
0000
,
1000
0100
0010
0000
0001
1000
0001
1000
,
0010
0100
0010
0000
1000
0001
0100
0001
,
0000
1000
0100
1000
0002
0000
1000
0000
,
1003
0000
0000
0000
1001
0000
0001
0010
,
0100
0000
1000
0001
1000
0001
0100
0010
,
0100
0000
0001
0000
1000
0010
1000
0010
,
1000
0001
0010
0000
0001
0000
0011
0000
,
1001
0000
0000
0000
0001
0100
0001
0100
,
0001
1000
0100
0000
1000
0000
0100
1000
,
0001
0000
0000
0000
;

//---------------dance-single - ----------------
#NOTES:
     dance-single:
     :
     Hard:
     8:
     0.487,0.413,0.140,0.123,0.222:
1000
0010
0100
0001
1000
0100
0001
0100
,
0010
0001
1000
0010
0100
0010
1000
0001
,
0100
1000
0100
0010
1000
0001
0100
0010
,
0100
0000
0001
0000
1000
0100
1000
0000
0001
0000
0010
0000
0100
0000
1000
0000
,
0001
0001
0100
0000
0010
0000
1010
0000
,
1000
1000
0010
0000
0100
0000
0101
0000
,
0001
0001
1000
1000
0100
0010
0001
0000
,
1000
1000
0001
0001
0010
0100
1000
0000
,
0002
0000
0000
0000
1000
0000
0000
0000
1000
0000
0000
0000
1003
0010
0100
0000
,
0101
0000
1100
0000
0001
0100
1000
0000
,
1100
0000
0101
0000
1000
0100
0001
0100
,
1000
0000
0010
0000
0100
0000
0001
1000
0000
0100
0000
1000
0001
0000
0010
0000
,
0001
0000
0010
0000
0100
0000
1000
0001
0000
0100
0000
0001
1000
0000
0100
0000
,
0010
0001
0100
1000
0000
0100
0010
0001
,
1000
0000
0010
0000
0100
0000
0000
0000
0010
0000
0000
0100
0000
0000
0001
0000
,
1000
0000
0100
0000
0010
0000
0001
1000
0000
0010
0000
1000
0001
0000
0100
0000
,
0001
0000
0100
0000
0010
0000
1000
0001
0000
0010
0000
0001
1000
0000
0010
0000
,
0100
0001
0001
1000
0010
0010
1000
0100
,
0010
0000
0001
0000
1000
0000
0010
0000
0110
0000
0000
0000
0001
1000
0001
1000
,
0002
0000
0000
0000
,
2003
3200
0302
0203
,
2300
0000
0000
0000
3001
0000
0100
0010
0100
0000
0100
0000
0001
0000
1000
0000
,
0010
1000
0010
1000
0001
0010
0001
0010
0100
1000
0010
0010
2002
0000
0000
0000
,
0000
0000
0000
0000
0000
0000
0000
3003
,
1000
0000
0010
0000
0100
0000
0001
0000
1000
0000
0100
0000
0010
0000
0001
1000
,
1000
0000
0010
0000
0100
0000
0001
0000
0010
0000
0100
0010
0000
0001
0000
0000
,
1000
0100
0001
0100
0010
0001
1000
0001
,
0001
0100
0010
1000
0100
0010
0100
1000
,
0001
0000
0100
0000
1000
0100
0001
0000
0100
0000
0000
0000
0110
0000
0000
0000
,
1000
0000
1001
0000
0010
0100
0001
0000
,
0100
0010
1000
0000
1002
0000
0100
0000
,
1000
0103
2000
0100
,
3001
0010
0100
0100
1000
0010
0100
0001
,
0010
0100
1000
0001
0200
0000
0320
0000
,
2030
0000
3100
0010
0001
0100
0101
0000
,
1000
0000
0110
0000
1000
0010
1010
0000
,
0101
0000
0100
0001
2000
0000
0001
0000
,
0001
0000
0000
0000
0001
0000
3001
0100
0010
0000
1000
0000
0100
0000
0001
0000
,
0000
0100
1000
0001
0100
0010
0100
0000
,
0010
0000
0000
0100
0000
0000
0010
0000
1000
0000
0010
0000
0100
0000
0001
1000
,
0000
0100
0000
1000
0001
0000
0010
0000
0001
0000
0010
0000
0100
0000
1000
0001
,
0000
0100
0000
0001
1000
0000
0100
0000
0010
0000
0001
0000
0100
0000
1000
0000
,
0100
0010
1000
0100
0001
0100
0010
0001
,
1001
0000
0000
0000
0001
1000
0001
1000
0001
0000
0100
0000
0010
0000
1000
0001
,
0000
0010
0000
0001
1000
0000
0100
0000
1000
0000
0100
0000
0010
0000
0001
1000
,
0000
0010
0000
1000
0001
0000
0010
0000
0100
0000
1000
0000
0100
0000
0001
0000
,
0000
0100
1000
0001
1000
0010
0100
0010
,
1000
0000
0000
0001
0000
0000
1000
0000
0001
0000
0010
0000
0100
0000
1000
0001
,
0000
0100
0000
0001
1000
0000
0010
0000
1000
0000
0010
0000
0100
0000
0001
1000
,
0000
0100
0000
1000
0001
0000
0010
0000
0100
0000
1000
0000
0100
0000
0001
0000
,
0100
0010
0001
0100
1000
0100
0010
1000
,
1001
0000
0000
0000
1000
0001
1000
0001
1000
0000
0010
0000
0100
0000
0001
0000
,
0100
0000
1000
0000
0100
0000
0001
0000
0100
0000
0010
0000
1000
0000
0001
1000
,
0001
0000
0000
0000
;

//---------------dance-single - ----------------
#NOTES:
     dance-single:
     :
     Beginner:
     1:
     0.077,0.109,0.041,0.000,0.000:
1000
0000
0000
0000
,
0001
0000
0000
0000
,
1000
0000
1000
0000
,
1000
0000
0000
0000
,
1001
0000
0000
0000
,
0001
0000
0000
0000
,
0001
0000
0000
0000
,
1000
0000
0000
0000
,
1000
0000
0000
0000
,
0010
0000
0000
0000
,
0100
0000
0000
0000
,
0010
0000
0000
0000
,
0010
0000
0000
0000
,
1000
0000
0000
0000
,
0001
0000
0000
0000
,
1001
0000
0000
0000
,
1000
0000
0000
0000
,
0001
0000
0000
0000
,
0100
0000
0000
0000
,
0110
0000
0000
0000
,
0000
0000
0000
0000
,
0000
0001
0000
0000
,
0000
0000
0000
1001
,
0000
0000
0000
0000
,
0000
0000
0000
0000
,
1000
0000
0001
0000
,
1000
0000
0000
0000
,
0001
0000
1000
0000
,
0001
0000
0001
0000
,
0000
0000
0000
0000
,
0000
0000
1000
0000
,
0000
0000
0000
0000
,
0000
0000
0001
0000
,
0000
0000
0000
0000
,
0000
0000
0100
0000
,
0000
0000
0010
0000
,
0000
0000
0100
0000
,
0000
0000
0100
0000
,
0000
0010
0000
0000
,
0100
0000
0001
0000
,
1000
0000
0001
0000
,
0000
0000
0100
0000
,
0010
0000
0100
0000
,
0001
0000
1000
0000
,
0001
0000
1000
0000
,
0000
0000
0010
0000
,
0100
0000
0010
0000
,
1000
0000
0001
0000
,
1000
0000
0001
0000
,
0100
0000
0010
0000
,
0100
0000
0010
0000
,
0000
0000
1000
0000
,
0000
0000
0000
0000
,
1001
0000
0000
0000
;
