#TITLE:Diamond Dust;
#SUBTITLE:;
#ARTIST:TAG;
#TITLETRANSLIT:;
#SUBTITLETRANSLIT:;
#ARTISTTRANSLIT:;
#CREDIT:;
#BANNER:bn.png;
#BACKGROUND:bg.png;
#LYRICSPATH:;
#CDTITLE:;
#MUSIC:07 Diamond Dust.mp3;
#OFFSET:-0.602;
#SAMPLESTART:16.780;
#SAMPLELENGTH:16.420;
#SELECTABLE:YES;
#BPMS:0.000=148.000;
#STOPS:;
#BGCHANGES:;

//---------------dance-single - Pandemonium X----------------
#NOTES:
     dance-single:
     Pandemonium X:
     Hard:
     7:
     0.381,0.496,0.194,0.165,0.010: // measure 1
0000
0000
0000
0000
,  // measure 2
0000
0000
0000
0000
,  // measure 3
0000
0000
0000
0000
,  // measure 4
0000
0000
0000
0000
,  // measure 5
1000
0001
1000
0100
,  // measure 6
1000
0001
1000
0010
,  // measure 7
1000
0100
1000
0010
,  // measure 8
0100
0001
0100
0010
,  // measure 9
0100
0010
1000
0001
,  // measure 10
0001
0000
0000
0010
0000
0000
0100
0000
0000
1000
0000
0000
1000
0000
0001
0000
,  // measure 11
0100
0001
0010
0100
0010
0001
0000
0001
,  // measure 12
0010
0100
0010
0001
0000
0001
1000
0100
,  // measure 13
0000
0100
1000
0010
0100
0010
1000
0001
,  // measure 14
0000
0001
0000
1000
0000
1000
0001
0010
,  // measure 15
0001
0000
0100
0010
0000
1000
0000
0001
,  // measure 16
0000
0010
0000
0200
0000
0000
0000
0300
,  // measure 17
1000
0000
0001
0010
0000
0100
0010
0100
,  // measure 18
0000
0001
0000
0100
0000
1000
0000
1100
,  // measure 19
0000
1000
0100
1000
0001
0100
0000
0001
,  // measure 20
1000
0100
1000
0001
0000
0001
1000
0100
,  // measure 21
0000
0100
1000
0001
1000
0100
1000
0001
,  // measure 22
0000
0001
0000
1000
0000
0001
0010
0100
,  // measure 23
0010
0000
0001
0100
0000
1000
0000
0100
,  // measure 24
0000
0001
0000
0020
0000
0000
0000
0030
,  // measure 25
0110
0000
0001
1001
0000
0101
0000
2020
,  // measure 26
0000
0000
0000
0000
0000
0000
0000
3030
,  // measure 27
0000
0000
1000
0100
0000
0000
0000
0000
,  // measure 28
0000
0000
0000
1000
0000
0001
0010
0100
,  // measure 29
0000
0000
0010
0100
0000
0000
0000
0000
,  // measure 30
0000
0000
0000
0010
0000
0001
0010
0100
,  // measure 31
0000
0000
0100
1000
0000
0000
0000
0000
,  // measure 32
0001
0000
0000
0100
0000
0000
1000
0000
,  // measure 33
0100
0000
0010
0000
,  // measure 34
1000
0000
0001
0010
0000
0100
0000
0000
,  // measure 35
2000
3000
0000
0000
,  // measure 36
0002
0000
0003
0000
0000
0000
0000
0010
,  // measure 37
0200
0300
0000
0000
,  // measure 38
2000
0000
3000
0000
0100
0000
0010
1000
,  // measure 39
0020
0000
0031
0000
0100
0000
0010
1000
,  // measure 40
0002
0000
1003
0000
0001
0000
0010
0100
,  // measure 41
0020
0030
0000
0000
,  // measure 42
0002
0000
0003
0000
1000
0000
0001
1000
,  // measure 43
0100
1000
0001
0010
0100
1000
0000
1000
,  // measure 44
0100
0010
0001
1000
0000
0100
1000
0001
,  // measure 45
0000
0010
0001
1000
0100
0010
0001
1000
,  // measure 46
0000
0100
0000
0010
0000
0010
0001
0010
,  // measure 47
0001
0000
0010
0001
0000
1000
0000
1000
,  // measure 48
0000
1000
0000
1000
0000
0000
0000
0000
,  // measure 49
1100
0000
1000
0010
0000
0100
0001
0011
,  // measure 50
0000
1100
0000
1010
0000
0101
1010
0000
,  // measure 51
0001
1000
1000
0010
0100
0001
0000
1000
,  // measure 52
0001
0010
0100
0010
0000
0001
1000
0100
,  // measure 53
0000
0100
1000
0100
0010
0100
1000
0001
,  // measure 54
0000
0001
0000
0001
0000
0001
0100
1000
,  // measure 55
0100
0000
0010
1000
0000
0001
0000
0010
,  // measure 56
0000
0001
0000
0200
0000
0000
0000
0300
,  // measure 57
0110
0000
1010
1100
0000
0110
0000
0022
,  // measure 58
0000
0000
0000
0000
0000
0000
0000
0033
,  // measure 59
0011
0000
1001
1001
0000
0220
0000
0000
,  // measure 60
0000
0000
0000
0000
,  // measure 61
0330
0000
0000
0000
;

//---------------dance-single - Pandemonium X----------------
#NOTES:
     dance-single:
     Pandemonium X:
     Medium:
     5:
     0.289,0.438,0.097,0.185,0.010:
0000
0000
0000
0000
,
0000
0000
0000
0000
,
0000
0000
0000
0000
,
0000
0000
0000
0000
,
1010
0000
0000
0000
,
1100
0000
0000
0000
,
0011
0000
0000
0000
,
0110
0000
0000
0000
,
2200
0000
0000
3300
,
0100
0000
0000
1000
0000
0000
0001
0000
0000
1000
0000
0000
0100
0000
0010
0000
,
0001
0000
1000
0000
0010
1000
0000
0000
,
0001
0000
0010
0100
0000
0010
0100
1000
,
0000
0000
1000
0000
0001
0100
0010
1000
,
0000
0001
0000
0010
0000
0001
0000
0100
,
0010
0000
1000
0001
0000
0001
0000
0001
,
0000
0001
0000
0002
0000
0000
0003
0000
,
1000
0000
0010
1000
0000
0100
0000
0010
,
0000
0001
0000
0010
0000
0100
0000
1000
,
0001
0000
1000
0000
0100
1000
0000
0000
,
1000
0000
0001
0010
0000
0010
0001
0100
,
0000
0000
0010
0000
1000
0000
1000
0100
,
0000
1000
0000
0001
0000
0001
0010
0100
,
0010
0000
0001
0100
0000
0010
0000
0100
,
0000
0010
0000
0200
0000
0000
0000
0300
,
0010
0000
1000
0010
0000
2000
0000
0200
,
0000
0000
0000
0000
0000
0000
0000
3300
,
0000
1000
0000
0000
,
0000
0000
0010
1000
,
0100
1000
0000
0000
,
1000
0000
0001
0100
,
0001
1000
0001
0100
,
0001
1000
0100
0001
,
0100
1000
0010
0001
,
0010
0000
1000
0010
0000
1000
0000
0000
,
0002
0003
0000
0000
,
2000
3000
0000
0000
,
0020
0030
0000
0000
,
0200
0300
0000
0000
,
2000
3000
0000
0000
,
0002
0003
0000
0000
,
0020
0030
0000
0000
,
0200
0300
0000
0000
,
1000
1000
1000
0000
,
0001
0000
0001
0000
0000
1000
0001
0100
,
0000
0000
0010
0000
0010
0000
0010
0100
,
0000
0010
0000
0010
0000
1000
0001
0010
,
0100
0000
0000
0100
0000
0010
0000
0001
,
0000
1000
0000
0100
0000
0000
0000
0000
,
1000
0000
1000
0100
0000
0010
0001
0010
,
0000
0011
0000
0011
0000
1001
0000
0101
,
0001
0000
1000
0000
0100
0010
0000
0000
,
0001
0000
0100
1000
0000
1000
0100
0010
,
0000
0010
0100
0000
0010
1000
0001
1000
,
0000
0010
0000
0100
0000
0010
1000
0100
,
0100
0000
0010
0001
0000
0010
0000
0100
,
0000
0010
0000
0200
0000
0000
0000
0000
,
1300
0000
1000
0001
0000
0020
0000
0002
,
0000
0000
0000
0000
0000
0000
0000
0033
,
0001
0000
0010
0100
0000
2002
0000
0000
,
0000
0000
0000
0000
,
3003
0000
0000
0000
;

//---------------dance-single - Pandemonium X----------------
#NOTES:
     dance-single:
     Pandemonium X:
     Easy:
     3:
     0.183,0.263,0.039,0.097,0.000:
0000
0000
0000
0000
,
0000
0000
0000
0000
,
0000
0000
0000
0000
,
0000
0000
0000
0000
,
0010
0000
0000
0000
,
1000
0000
0000
0000
,
0001
0000
0000
0000
,
0100
0000
0000
0000
,
0020
0000
0000
0000
,
0200
0000
0000
0000
,
0330
0010
1000
0000
,
0010
1000
0000
0100
,
0000
1000
0001
0100
,
0001
0010
0100
1000
,
0001
0000
0000
1000
0000
0001
0000
1000
,
0000
0001
0000
1000
0000
0000
0000
0000
,
1001
0000
0000
0010
0000
0010
0000
0010
,
0000
0010
0000
0010
0000
0010
0000
0010
,
0000
0100
0010
0000
,
0100
0010
0000
0100
,
0000
0001
1000
0001
,
1000
0001
0100
0001
,
0010
0000
0000
0100
0000
0100
0000
0100
,
0000
0100
0000
0200
0000
0000
0300
0000
,
1000
0000
0000
0100
0000
1000
0000
0020
,
0000
0000
0000
0000
,
0030
1000
0000
0000
,
0000
0000
0000
0000
,
0001
1000
0000
0000
,
0000
0000
0000
0000
,
1000
0010
0000
0000
,
0100
0000
0010
0000
,
1000
0000
0001
0000
,
0100
0000
0010
0000
,
1001
0000
0000
0000
,
0010
0000
0000
0000
,
1000
0000
0000
0000
,
0100
0000
0000
0000
,
1000
0000
0000
0000
,
0010
0000
0000
0000
,
0100
0000
0000
0000
,
0001
0000
0000
0000
,
1000
0000
1000
0000
,
0001
0000
0001
1000
,
0100
0000
1000
0000
,
0010
0000
0001
0000
,
0001
0010
1000
0100
,
1000
0010
0100
0000
,
0010
0000
0000
0000
0100
0000
0000
2002
,
0000
0000
0000
3003
,
0000
0001
0001
0000
,
1000
1000
0000
0010
,
0000
0100
0010
1000
,
0001
0100
0010
0100
,
0001
0000
0000
1000
0000
0001
0000
0100
,
0000
0010
0000
2000
0000
0000
0000
3000
,
0010
0000
1000
0010
0000
0100
0000
0020
,
0000
0000
0000
0030
,
0100
0000
0000
0010
0000
2002
0000
0000
,
0000
0000
0000
0000
,
3003
0000
0000
0000
;

//---------------dance-single - Pandemonium X----------------
#NOTES:
     dance-single:
     Pandemonium X:
     Beginner:
     1:
     0.090,0.171,0.058,0.000,0.000:
0000
0000
0000
0000
,
0000
0000
0000
0000
,
0000
0000
0000
0000
,
0000
0000
0000
0000
,
0010
0000
0000
0000
,
0010
0000
0000
0000
,
0010
0000
0000
0000
,
0010
0000
0000
0000
,
1000
0000
0000
0000
,
1001
0000
0000
0000
,
0010
0000
0000
0000
,
1000
0000
0000
0001
,
0000
0000
1000
0000
,
0000
0000
0000
0000
,
0010
0000
0000
0000
,
0000
0000
0000
0000
,
0100
0000
0000
0000
,
0000
0000
0000
0000
,
1000
0000
0000
0000
,
1000
0000
0000
0001
,
1000
0000
0000
0000
,
1000
0000
0000
0000
,
0010
0000
0000
0000
,
0100
0000
0000
0000
,
0001
0000
1000
0000
,
0010
0000
0000
0000
,
0000
0100
0000
0000
,
0000
0000
0000
0000
,
0000
0010
0000
0000
,
0000
0000
0000
0000
,
0000
1000
0000
0000
,
0000
0000
0000
0000
,
0001
0000
0001
0000
,
1001
0000
0000
0000
,
0010
0000
0000
0000
,
0100
0000
0000
0000
,
0010
0000
0000
0000
,
0100
0000
0000
0000
,
0001
0000
0000
0000
,
1000
0000
0000
0000
,
0010
0000
0000
0000
,
0100
0000
0000
0000
,
0001
0000
0000
0000
,
0001
0000
0000
0000
,
1000
0000
0000
0000
,
1000
0000
0000
0000
,
0010
0000
0000
0000
,
0100
0000
0000
0000
,
0010
0000
0010
0000
,
1001
0000
0000
0000
,
1001
0000
0000
0000
,
0010
0000
0000
1000
,
1000
0000
0001
0000
,
1000
0000
0000
0100
,
0100
0000
0000
0000
,
0010
0000
0000
0000
,
0001
0000
1000
0000
,
1001
0000
0000
0000
,
0010
0000
0000
0000
0000
1001
0000
0000
;
