#TITLE:DANCE IN THE DARK;
#SUBTITLE:;
#ARTIST:LADY GAGA;
#TITLETRANSLIT:;
#SUBTITLETRANSLIT:;
#ARTISTTRANSLIT:;
#CREDIT:;
#BANNER:DANCE IN THE DARK.png;
#BACKGROUND:DANCE IN THE DARK-bg.png;
#LYRICSPATH:;
#CDTITLE:;
#MUSIC:DANCE IN THE DARK.mp3;
#OFFSET:-2.104;
#SAMPLESTART:47.660;
#SAMPLELENGTH:18.500;
#SELECTABLE:YES;
#DISPLAYBPM:121.000;
#BPMS:0.000=121.000;
#STOPS:;
#BGCHANGES:;

//---------------dance-single - Heavy----------------
#NOTES:
     dance-single:
     Heavy:
     Hard:
     7:
     0.356,0.454,0.239,0.044,0.098:
0000
0000
0000
0000
,
0000
0000
0000
0000
,
0000
0000
0000
0000
,
0000
0000
0000
0000
,
1000
1000
1000
0000
0010
0010
0010
0000
,
0100
0100
0100
0000
0001
0001
0001
0000
,
1000
0100
0010
0100
0010
0001
0000
1000
,
0000
0010
0000
0100
0000
0001
0000
1000
,
1001
1100
0100
0010
,
0001
0100
0010
0100
1000
0100
0010
0010
,
0000
0000
1000
1100
0000
0000
0001
0011
,
0000
0000
0100
1000
0100
0010
1000
0010
,
0000
1000
1000
0000
0100
0000
0010
0100
,
0100
0000
0000
0000
1000
0000
0100
0000
1000
0000
0000
0001
0000
0000
0001
0000
,
0000
1000
0000
1100
0000
0100
0000
0110
,
0000
0010
0000
0001
0001
0000
1000
1000
,
1100
0000
1100
0000
0001
0000
0100
0010
,
0100
0100
0000
1000
0000
1000
0001
1000
,
0001
0000
0010
0100
0010
0000
1000
0100
,
1000
0000
0000
0000
0001
0000
0001
0000
0010
0000
0000
0100
0000
0000
1000
0000
,
0000
0000
1000
0100
1000
0000
0001
0010
,
0001
0000
1000
0100
1100
0000
0010
0000
,
1000
0100
1000
0100
1000
0100
0000
0000
0001
0010
0001
0010
0001
0010
0000
0000
,
1100
0000
0011
0000
0100
0010
1000
0100
,
0010
0000
1000
1000
0100
0000
0001
0001
,
0010
0000
1100
0000
0001
0010
0001
0010
,
1001
0110
0011
1001
,
1000
0100
1000
0000
0001
0010
0001
0000
,
1001
0000
0010
0100
0010
0000
2000
0200
,
0000
0000
3300
0000
0001
0010
0000
0000
,
1000
0100
1000
0100
1000
0100
0000
0000
0001
0010
0001
0010
0001
0010
0000
0000
,
0011
0000
1100
0000
0010
0100
0001
0010
,
0100
0000
0001
0001
0010
0000
1000
1000
,
0100
0000
0011
0000
1000
0100
1000
0100
,
1001
0110
1100
1001
,
0001
0010
0001
0000
1000
0100
1000
0000
,
1001
0000
0100
0010
0100
0000
0002
0020
,
0000
0000
0033
0000
1000
0100
0000
0000
,
0001
0000
0000
0000
0000
0000
0010
0000
0000
0000
0000
0000
0001
0000
0000
0000
0000
0000
0010
0000
0000
0000
0000
0000
1000
0000
0000
0100
0000
0000
1000
0000
0000
0100
0000
0000
0000
0000
0000
0000
0000
0000
0000
0100
0000
0010
0000
0000
,
0100
0000
0010
1000
0100
0000
0001
0000
,
0001
0000
0010
0100
0100
0000
1000
0000
,
0110
0000
0001
1000
0000
0100
0000
0010
,
0000
0001
0000
0010
0000
0100
0000
1000
,
0010
0000
0100
0001
0010
0000
1000
0000
,
1000
0000
0100
0010
0010
0000
0001
0000
,
0110
0000
1000
0001
0000
0010
0000
0100
,
1000
0000
0000
0000
0000
0000
0100
0000
0000
0000
0000
0000
1000
0000
0000
0000
0000
0000
0100
0000
0000
0000
0000
0000
0001
0000
0000
0010
0000
0000
0001
0000
0000
0010
0000
0000
0000
0000
0000
0000
0000
0000
0000
0010
0000
0100
0000
0000
,
0020
0000
0000
0000
,
0000
0000
0000
0030
;

//---------------dance-single - Copied from Heavy----------------
#NOTES:
     dance-single:
     Copied from Heavy:
     Medium:
     5:
     0.271,0.324,0.177,0.231,0.000:
0000
0000
0000
0000
,
0000
0000
0000
0000
,
0000
0000
0000
0000
,
0000
0000
0000
0000
,
1000
0000
0100
0100
0000
0000
0000
0000
,
0001
0000
0010
0010
0000
0000
0000
0000
,
0100
0000
0010
0010
0010
0000
0000
1000
,
0000
0100
0000
0010
0000
0001
0000
0010
,
0110
1000
0010
0001
,
0100
0000
0010
0000
1000
0100
0001
0000
,
2000
0100
0001
3010
,
0002
0100
0010
1003
,
1100
0100
0010
1000
,
1000
0001
0001
0010
,
0200
1000
0010
0301
,
0020
0001
0100
1030
,
0101
1000
0100
1000
,
0010
0001
0010
0100
,
0001
1000
0010
0100
,
0001
0000
0010
0000
0100
0000
1000
0100
,
1000
0100
0100
0010
,
0010
1000
1000
0001
,
0001
0010
0001
0010
1000
0100
1000
0100
,
1100
0011
0100
1000
,
0010
0001
0001
0100
,
1001
0100
1000
0100
,
0010
0001
1000
0100
,
0110
1000
0100
0010
,
0001
0000
0100
0000
0010
0000
1000
2000
,
0010
0000
0100
3000
,
0002
1000
0100
0013
,
0011
1100
0010
0001
,
0100
1000
1000
0010
,
1001
0010
0001
0010
,
0100
1000
0001
0010
,
0110
0001
0010
0100
,
1000
0000
0010
0000
0100
0000
0001
0002
,
0100
0000
0010
0003
,
2000
0001
0010
3100
,
0100
0100
0010
0001
,
0010
0010
0100
1000
,
2200
3300
0220
0330
,
0022
0033
2002
3003
,
1000
0010
0100
0001
,
0010
0100
1000
0100
,
2020
3030
2002
3003
,
0202
0303
0220
0330
,
2002
0000
0000
0000
,
0000
0000
0000
3003
;

//---------------dance-single - Copied from Copied f----------------
#NOTES:
     dance-single:
     Copied from Copied f:
     Easy:
     3:
     0.214,0.368,0.204,0.293,0.000:
0000
0000
0000
0000
,
0000
0000
0000
0000
,
0000
0000
0000
0000
,
0000
0000
0000
0000
,
1000
0000
1000
0000
,
0100
0000
0100
0000
,
0010
0000
0010
0000
,
0001
0010
0100
1000
,
1001
0000
0100
0000
,
2000
0010
0100
3001
,
2002
3003
0220
0330
,
2002
3003
0220
0330
,
1000
0000
0100
0000
,
1000
0000
0001
0000
,
2200
3300
0022
0033
,
2020
3030
0202
0303
,
0100
0100
0010
0010
,
2000
3000
0002
0003
,
0110
0000
1001
0000
,
0110
0000
1000
1000
,
1000
0000
0011
0000
,
1010
0000
0101
0000
,
0022
0000
0000
0033
,
1000
1000
1000
0000
,
0100
0100
0100
0000
,
0010
0010
0010
0000
,
2100
0010
0001
3100
,
1001
0000
0110
0000
,
0001
0100
0010
2000
,
0002
0000
0000
3003
,
0200
0000
0020
0330
,
0001
0001
0001
0000
,
0010
0010
0010
0000
,
0100
0100
0100
0000
,
0012
0100
1000
0013
,
1001
0000
0110
0000
,
1000
0010
0100
0002
,
2000
0000
0000
3003
,
0020
0000
0200
0330
,
1000
0000
1000
0000
,
0001
0000
0001
0000
,
0010
0100
0010
0100
,
1000
0001
1000
0001
,
0001
0000
0001
0000
,
1000
0000
1000
0000
,
0100
0010
0100
0010
,
0001
1000
0001
1000
,
2002
0000
0000
0000
,
0000
0000
0000
3003
;

//---------------dance-single - Copied from Copied from Copied f----------------
#NOTES:
     dance-single:
     Copied from Copied from Copied f:
     Beginner:
     1:
     0.076,0.125,0.071,0.000,0.000: // measure 1
0000
0000
0000
0000
,  // measure 2
0000
0000
0000
0000
,  // measure 3
0000
0000
0000
0000
,  // measure 4
0000
0000
0000
0000
,  // measure 5
0000
0000
0000
0000
,  // measure 6
0000
0000
0000
0000
,  // measure 7
0000
0000
0000
0000
,  // measure 8
0000
0000
0000
0000
,  // measure 9
1000
0000
0000
0000
,  // measure 10
0000
0000
0000
0000
,  // measure 11
0001
0000
0000
0000
,  // measure 12
0000
0000
0000
0000
,  // measure 13
0100
0000
0000
0000
,  // measure 14
0000
0000
0000
0000
,  // measure 15
0010
0000
0000
0000
,  // measure 16
0000
0000
0000
0000
,  // measure 17
1000
0000
1000
0000
,  // measure 18
0001
0000
0001
0000
,  // measure 19
0010
0000
0010
0000
,  // measure 20
0100
0000
0100
0000
,  // measure 21
1001
0000
0000
0000
,  // measure 22
0110
0000
0000
0000
,  // measure 23
1001
0000
0000
0000
,  // measure 24
1000
0000
1000
0000
,  // measure 25
1000
0000
0000
0000
,  // measure 26
0001
0000
0001
0000
,  // measure 27
0001
0000
0000
0000
,  // measure 28
0010
0000
0100
0000
,  // measure 29
0010
0000
0100
0000
,  // measure 30
0110
0000
0000
0000
,  // measure 31
1001
0000
0000
0000
,  // measure 32
0001
0000
0001
0000
,  // measure 33
0001
0000
0000
0000
,  // measure 34
1000
0000
1000
0000
,  // measure 35
1000
0000
0000
0000
,  // measure 36
0100
0000
0010
0000
,  // measure 37
0100
0000
0010
0000
,  // measure 38
0110
0000
0000
0000
,  // measure 39
1001
0000
0000
0000
,  // measure 40
1000
0000
0000
0000
,  // measure 41
0100
0000
0000
0000
,  // measure 42
0001
0000
0010
0000
,  // measure 43
0100
0000
1000
0000
,  // measure 44
0001
0000
0000
0000
,  // measure 45
0010
0000
0000
0000
,  // measure 46
1000
0000
0100
0000
,  // measure 47
0010
0000
0001
0000
,  // measure 48
1001
0000
0000
0000
;
