#TITLE:Butterfly;
#SUBTITLE:(Delaction Remix);
#ARTIST:SMiLE.dk;
#TITLETRANSLIT:;
#SUBTITLETRANSLIT:;
#ARTISTTRANSLIT:;
#GENRE:;
#CREDIT:;
#MENUCOLOR:;
#METERTYPE:DDR;
#BANNER:ButterflyRMX-logo.png;
#BACKGROUND:ButterflyRMX-bg.png;
#LYRICSPATH:;
#CDTITLE:;
#MUSIC:ButterflyRmx.ogg;
#OFFSET:-8.769;
#SAMPLESTART:55.762;
#SAMPLELENGTH:13.427;
#SELECTABLE:YES;
#LISTSORT:;
#BPMS:0.000=143.000;
#STOPS:;
#BGCHANGES:;
#ATTACKS:;

//---------------dance-single - ----------------
#NOTES:
     dance-single:
     :
     Hard:
     8:
     0.586,0.551,0.260,0.106,0.163: // measure 1
0001
0000
0000
0000
0100
0000
0000
0000
0110
0000
0000
0010
1000
0000
0001
0000
,  // measure 2
1000
0100
1000
0000
0001
0000
0010
0000
0100
0000
0000
1000
0100
0000
0010
0000
,  // measure 3
0001
0000
0000
0000
1000
0000
0000
0000
1001
0000
0000
0001
1000
0000
0100
0000
,  // measure 4
1000
0001
1000
0000
0010
0000
0100
0000
0001
0000
0000
0000
0000
0000
0000
0000
,  // measure 5
1000
0100
0001
0200
0010
0000
1300
0000
,  // measure 6
0100
0100
0010
0010
0002
0000
1003
0000
,  // measure 7
1001
0000
0000
0100
0001
0000
1000
0000
1001
0000
0000
0100
0001
0000
1000
0000
,  // measure 8
0001
0100
0010
1000
0001
0000
1000
0000
,  // measure 9
0001
0100
1000
0200
0010
0000
0301
0000
,  // measure 10
0100
0100
0010
0010
1000
0000
0001
0000
,  // measure 11
1001
0000
0000
0100
1000
0000
0001
0000
1001
0000
0000
0100
1000
0000
0001
0000
,  // measure 12
0010
0100
1000
0010
0100
0000
0110
0000
,  // measure 13
0100
0010
0100
0001
0100
0010
0100
0001
,  // measure 14
0100
0010
1000
0010
0100
0010
1000
0010
,  // measure 15
0100
0001
0010
0100
0010
0001
0010
0000
,  // measure 16
0100
1000
0100
1000
0100
0000
0010
0001
0000
1000
0001
1000
0001
0000
0000
0000
,  // measure 17
1000
0100
0010
0100
1000
0100
0010
0100
,  // measure 18
1000
0001
0010
0100
0010
0001
0010
0100
,  // measure 19
1000
0010
0100
0010
1000
0010
0100
0000
,  // measure 20
0001
0001
1000
1000
1001
0000
0000
0000
,  // measure 21
1100
0000
0000
0001
0100
0000
0010
0000
1000
0000
0000
0000
0101
0000
0000
0000
,  // measure 22
1100
0000
0000
0001
0010
0000
0100
0000
1000
0000
0000
0000
0101
0000
0000
0000
,  // measure 23
1000
0010
0100
0100
1000
0100
0001
0001
,  // measure 24
0010
0100
0010
0100
1000
0000
1001
0000
,  // measure 25
1010
0000
0000
0100
0001
0000
1000
0000
0010
0000
0000
0000
0110
0000
0000
0000
,  // measure 26
0101
0000
0000
0010
1000
0000
0001
0000
0100
0000
0000
0000
0110
0000
0000
0000
,  // measure 27
0100
0010
1000
1000
0100
0010
0001
0001
,  // measure 28
0100
0010
0100
0010
1000
1001
1001
0000
,  // measure 29
1000
0100
0001
0200
0010
0000
1300
0000
,  // measure 30
0100
0010
0100
1000
0010
0000
0100
0000
,  // measure 31
1001
0000
0000
0100
0001
0000
1000
0000
1001
0000
0000
0100
0001
0000
1000
0000
,  // measure 32
0010
0000
0010
0000
0100
0000
0001
0000
0010
0000
0100
0010
0100
0000
1000
0000
,  // measure 33
0001
0100
1000
0200
0010
0000
0301
0000
,  // measure 34
0100
0010
1000
0010
0100
0000
0110
0000
,  // measure 35
1001
0000
0000
0100
1000
0000
0001
0000
1001
0000
0000
0100
1000
0000
0010
0000
,  // measure 36
0100
0100
0001
1000
0100
0000
0000
0000
,  // measure 37
0010
0000
0000
0000
0001
0000
0000
0000
0011
0000
0000
0010
0001
0000
0010
0000
,  // measure 38
0100
1000
0100
0000
0010
0000
0001
0000
0100
0000
0000
0100
0010
0000
1000
0000
,  // measure 39
0001
0000
0000
0000
1000
0000
0000
0000
1001
0000
0000
1000
0001
0000
0100
0000
,  // measure 40
0010
0100
0010
0000
1000
0000
0010
0000
0100
0000
0000
0000
1001
0000
0000
0000
,  // measure 41
0100
0000
0000
0000
0001
0000
0000
0000
1001
0000
0000
1000
0100
0000
0010
0000
,  // measure 42
0001
1000
0001
0000
0010
0000
0100
0000
1000
0000
0000
1000
0001
0000
0100
0000
,  // measure 43
0001
0000
0000
0000
0010
0000
0000
0000
0100
0000
0000
1000
0001
0000
1000
0000
,  // measure 44
0100
0010
0001
0000
0100
0000
0010
0000
1000
0000
0000
0000
0000
0000
0000
0000
,  // measure 45
0001
1000
0001
0100
0001
0010
0100
1000
,  // measure 46
0010
0100
0001
0100
0010
0100
0001
0010
,  // measure 47
0200
2300
3020
0032
,  // measure 48
0103
0010
1000
0010
0100
0001
1001
0000
,  // measure 49
1000
0100
0001
0100
1000
0100
0001
0100
,  // measure 50
1000
0010
0100
0010
1000
0010
0100
0001
,  // measure 51
0020
2030
3200
0302
,  // measure 52
0013
0100
1000
0100
0010
0001
1001
0000
,  // measure 53
1000
0001
0100
0001
1000
0000
1000
0000
,  // measure 54
0001
0100
1000
0100
0001
0000
0000
0000
,  // measure 55
1000
0010
1000
0000
0001
0100
0001
0000
,  // measure 56
1000
0000
0100
0000
0001
0000
0100
0000
1000
0000
0001
0100
0001
0000
1000
0000
,  // measure 57
0010
0100
0010
1000
0100
0000
1000
0001
,  // measure 58
0100
0001
0010
0100
1000
0000
1001
0000
,  // measure 59
0001
0010
0001
0000
1000
0100
1000
0000
,  // measure 60
0001
0010
1000
0010
0001
0000
0000
0000
,  // measure 61
0000
0000
0001
0000
0010
0000
0001
1000
0001
0000
0010
0000
0100
0000
0000
0000
,  // measure 62
0000
0000
1000
0000
0010
0000
1000
0001
1000
0000
0100
0000
0010
0000
0000
0000
,  // measure 63
0000
0000
0100
0000
1000
0000
0001
0100
0001
0000
0010
0000
0100
0000
0000
0000
,  // measure 64
1000
1000
0001
0001
,  // measure 65
0000
0000
1000
0000
0100
0000
0010
0001
0010
0000
0100
0000
1000
0000
0000
0000
,  // measure 66
0000
0000
1000
0000
0010
0000
0100
0001
0100
0000
0010
0000
1000
0000
0000
0000
,  // measure 67
0000
0000
0001
0000
0100
0000
1000
0100
1000
0000
0100
0000
0001
0000
0000
0000
,  // measure 68
0010
0100
0010
0100
1000
0000
1001
0000
;

//---------------dance-single - ----------------
#NOTES:
     dance-single:
     :
     Medium:
     5:
     0.378,0.330,0.065,0.090,0.000:
1000
0001
1000
1100
,
0010
0100
1000
0000
,
0001
0100
0001
1000
,
0002
0010
0013
0000
,
0200
0000
0310
0100
0010
0000
0000
0000
,
0200
0000
0310
0100
0010
0000
0000
0000
,
0100
1000
0100
0000
0010
0001
0010
0000
,
0100
1000
0001
0000
,
0200
0000
0310
0100
0010
0000
0000
0000
,
0200
0000
0310
0100
0010
0000
0000
0000
,
1000
0010
1000
0000
0001
0100
0001
0000
,
1000
0100
0010
0000
,
0001
0000
0001
0000
1000
0001
1000
0000
,
0001
0000
0001
0000
1000
0100
1000
0000
,
0001
0000
0001
0000
1000
0001
1000
0000
,
2000
3010
2000
3100
,
1000
0000
0001
0000
1000
0001
1000
0000
,
0001
0000
1000
0000
0001
0100
0001
0000
,
1000
0000
0001
0000
1000
0001
1000
0000
,
0100
0010
0100
0000
,
1000
0001
1000
0000
0100
0000
0100
0000
,
1000
0001
1000
0000
0010
0000
0010
0000
,
0100
0001
0010
1000
,
0100
0000
0001
1000
0001
0000
0000
0000
,
0001
1000
0001
0000
0100
0000
0100
0000
,
0001
1000
0001
0000
0010
0000
0010
0000
,
0100
1000
0010
0001
,
0100
0000
1000
0001
1000
0000
0000
0000
,
0020
0000
0130
0010
0100
0000
0000
0000
,
0020
0000
0130
0010
0100
0000
0000
0000
,
0010
1000
0010
0000
0100
0001
0100
0000
,
0010
1000
0100
0110
,
0020
0000
0130
0010
0100
0000
0000
0000
,
0020
0000
0130
0010
0100
0000
0000
0000
,
0010
0001
0010
0000
0100
1000
0100
0000
,
0010
0001
0100
0110
,
0100
0010
1010
1000
,
0001
0100
0001
0000
0010
0000
0010
0000
,
0100
1000
0100
0110
,
0010
0001
0010
0100
0010
0000
0000
0000
,
0100
1000
0001
1001
,
1000
0001
1000
0000
0100
0000
1000
0000
,
0001
0100
0010
0110
,
0010
1000
0010
0100
0010
0000
0000
0000
,
0010
1000
0010
0000
1000
0000
0100
0000
,
0010
0100
0010
0000
0001
0000
0100
0000
,
0001
1000
0001
0000
1000
0000
0100
0000
,
0010
0100
0010
0000
0001
0000
0100
0000
,
0001
1000
0001
0000
0100
0000
0010
0000
,
1000
0010
1000
0000
0100
0000
1000
0000
,
0001
1000
0001
0000
0010
0000
0100
0000
,
1000
0001
1000
0000
0001
0000
1001
0000
,
1000
0001
1000
0001
0100
0000
0000
0000
,
0010
0010
0010
0000
,
1000
0100
0010
0000
0010
0100
1000
0000
,
1000
0001
0100
0001
1000
0000
0000
0000
,
0001
1000
0001
1000
0100
0000
0000
0000
,
0010
0010
0010
0000
,
0001
0010
0100
0000
0100
0010
0001
0000
,
0100
0010
1000
0010
0100
0000
0000
0000
,
0001
0001
1000
1000
,
0001
0001
1000
1000
,
0100
0100
0010
0010
,
0100
1000
0100
0000
0100
1000
0100
0000
,
0010
0010
0001
0001
,
0100
0100
0010
0010
,
1000
1000
0001
0001
,
1000
0010
0100
0010
1000
0000
0000
0000
;

//---------------dance-single - ----------------
#NOTES:
     dance-single:
     :
     Easy:
     3:
     0.267,0.303,0.049,0.049,0.000:
1000
0000
0001
0000
,
0100
0000
1000
1001
,
0001
0000
1000
0000
,
0100
0010
0100
0000
,
0010
0001
0100
0000
,
1000
0100
0001
0000
,
1000
0100
0010
0000
,
0001
1000
0001
1001
,
0010
1000
0100
0000
,
0001
0100
1000
0000
,
0010
0100
0010
0000
,
0100
0001
1000
1001
,
1000
1000
0001
0001
,
1000
1000
0001
0001
,
1000
1000
0001
0001
,
0200
0310
0200
0310
,
1000
1000
0001
0001
,
1000
1000
0001
0001
,
1000
1000
0001
0001
,
1000
0100
0010
0000
,
0002
0000
0103
0000
,
0200
0000
0310
0000
,
1000
0100
0001
0100
,
1000
1000
0001
0000
,
2000
0000
3100
0000
,
0020
0000
0031
0000
,
0001
0100
1000
0100
,
0001
1000
0001
0000
,
0010
0001
0100
0000
,
1000
0100
0001
0000
,
1000
0100
0010
0000
,
0001
1000
0001
1001
,
0010
1000
0100
0000
,
0001
0100
1000
0000
,
0010
0100
0010
0000
,
0100
0001
1000
1001
,
1000
0000
0001
0000
,
0100
0010
0100
0000
,
0001
0000
1000
0000
,
0100
0010
0100
0110
,
0010
0000
0100
0000
,
1000
0001
1000
0000
,
0010
0000
0100
0000
,
0001
1000
0001
0000
,
1000
0100
0001
0000
,
0001
0100
1000
0000
,
1000
0010
0001
0010
,
1000
1000
0001
0000
,
0001
0100
1000
0000
,
1000
0100
0001
0000
,
0001
0010
1000
0010
,
0001
0001
1000
0000
,
0001
1000
0001
0000
,
0100
0001
1000
0000
,
1000
0001
1000
0000
,
0001
1000
0100
0000
,
0010
0001
0100
0000
,
0100
0010
0100
0000
,
0010
1000
0100
0000
,
0100
0010
0100
0000
,
0010
0100
0010
0100
,
0001
1000
0001
1000
,
0010
0100
0010
0100
,
0001
1000
0001
1000
,
0100
0100
0100
0100
,
0010
0010
0010
0010
,
0001
0001
0001
0001
,
1000
0010
0100
0001
;
