#TITLE:Baby Boy;
#SUBTITLE:;
#ARTIST:Me & My;
#TITLETRANSLIT:;
#SUBTITLETRANSLIT:;
#ARTISTTRANSLIT:;
#GENRE:;
#CREDIT:;
#MENUCOLOR:;
#METERTYPE:DDR;
#BANNER:BabyBoy.png;
#BACKGROUND:BabyBoy-bg.png;
#LYRICSPATH:;
#CDTITLE:;
#MUSIC:Me & My - Baby Boy.mp3;
#OFFSET:-0.031;
#SAMPLESTART:52.889;
#SAMPLELENGTH:12.000;
#SELECTABLE:YES;
#LISTSORT:;
#BPMS:0.000=136.000;
#STOPS:;
#BGCHANGES:;
#ATTACKS:;

//---------------dance-single - K. Pearman----------------
#NOTES:
     dance-single:
     K. Pearman:
     Beginner:
     1:
     0.174,0.197,0.091,0.000,0.000:
0000
0000
0000
0000
,
0000
0000
0000
0000
,
0000
0000
0000
0000
,
0000
0000
0000
0000
,
0010
0000
0010
0000
,
1000
0000
0001
0000
,
0010
0000
0010
0000
,
0001
0000
0000
0000
,
1000
0000
0001
0000
,
0100
0000
0100
0000
,
0001
0000
1000
0000
,
0100
0000
0000
0000
,
0100
0000
0000
0000
,
0000
0000
0000
1001
,
0000
0001
0001
0001
,
0000
1000
1000
1000
,
0000
0010
0000
0000
,
0000
0010
0000
0000
,
0000
1000
1000
1000
,
0000
0001
0001
0001
,
0000
0100
0000
0000
,
0000
0100
0000
0000
,
0001
0001
0001
0000
,
1001
0000
0100
0000
,
1000
1000
1000
0000
,
1001
0000
0100
0000
,
0010
0010
0010
0000
,
0110
0000
0100
0000
,
0100
0100
0100
0000
,
0110
0000
0000
0000
,
1000
1000
1000
0000
,
1000
1000
1000
0000
,
0001
0001
0001
0000
,
0001
0001
0001
0000
,
1000
0000
0001
0000
,
0100
0100
0100
0000
,
0001
0000
1000
0000
,
0100
0100
0100
0000
,
1001
0000
0000
0000
,
0000
0000
0000
0000
,
0000
1000
1000
1000
,
0000
0001
0001
0001
,
0000
0100
0000
0100
,
0000
0010
0000
0000
,
0000
1000
1000
1000
,
0000
0001
0001
0001
,
0000
0010
0000
0010
,
0000
0100
0000
0000
,
1000
1000
1000
0000
,
1001
0000
0100
0000
,
0001
0001
0001
0000
,
1001
0000
0100
0000
,
1000
1000
1000
0000
,
0110
0000
0010
0000
,
0001
0001
0001
0000
,
0110
0000
0000
0000
,
0010
0010
0010
0000
,
0100
0100
0100
0000
,
0010
0010
0010
0000
,
0100
0100
0100
0000
,
0001
0000
1000
0000
,
0100
0000
0010
0000
,
0100
0000
1000
0000
,
0001
0000
0010
0000
,
0100
0000
0000
0000
,
1000
0000
0000
0000
,
0001
0000
0000
0000
,
0010
0000
0000
1001
;

//---------------dance-single - K. Pearman----------------
#NOTES:
     dance-single:
     K. Pearman:
     Medium:
     6:
     0.416,0.422,0.390,0.100,0.000:
0000
0000
0000
0000
,
0000
0000
0000
0000
,
0000
0000
0000
0000
,
0000
0000
0000
0000
,
1010
0001
0100
0001
,
0011
0000
1000
0000
0100
1000
0100
0000
,
1010
0001
0100
0001
,
0011
0000
0100
1000
0000
0001
0100
0000
,
1010
0001
0100
0001
,
0011
0000
1000
0000
0100
1000
0100
0000
,
1010
0001
0100
0001
,
0011
0000
0100
1000
0000
0001
0100
0000
,
0110
0000
0000
0000
,
0010
0010
0010
1001
,
0001
0100
0001
0000
1000
0000
1000
0000
,
0001
0010
0001
0000
0000
0000
0010
0100
,
1000
0000
1000
0000
1000
0000
0010
0100
,
1000
1000
1000
0000
,
0100
0001
1000
0001
,
0010
0001
0010
0000
0000
0000
0100
0000
,
0010
0000
0010
0000
0001
0000
0010
0001
,
0100
0100
0100
0010
,
2100
0000
3002
0000
0203
0000
0310
0010
,
0010
0000
1000
0001
,
0102
0000
2003
0000
3200
0000
0010
0310
,
0000
0000
0100
0000
1000
0001
1000
0000
,
2010
0000
0002
3000
0023
0000
0130
0100
,
0100
0000
0010
0001
,
0012
0000
2003
0000
3020
0000
0130
0100
,
0000
0010
1000
0000
0000
0000
0000
0000
,
0001
0100
0001
0000
1100
0000
0101
0000
,
1000
0100
1000
0000
0001
0010
0100
1000
,
0001
0100
0001
0000
1100
0000
0101
0000
,
1000
0100
1000
0010
0000
0010
0100
0000
,
0001
0100
0001
0000
1100
0000
0101
0000
,
1000
0100
1000
0001
0010
0100
1000
0000
,
0001
0100
0001
0000
1100
0000
0101
0000
,
1000
0100
1000
0001
0000
0010
0100
0000
,
1001
0000
0010
0000
,
0100
0000
0001
0101
,
0100
0001
1000
0000
1000
0000
0001
0000
,
0100
0001
1000
0000
0000
0000
0010
0000
,
0110
1001
0110
0100
,
1001
0110
1001
0001
,
1000
0100
1000
0000
0001
0000
0010
0000
,
0100
1000
0100
0000
0000
0000
1000
0000
,
0010
0000
0100
0001
1000
0000
0010
0000
,
1000
0000
0001
0100
0010
0000
0000
0000
,
1100
0000
0101
0000
0010
0000
1000
0100
,
0001
0000
0100
1000
,
1010
0000
0011
0000
0100
0000
1000
0010
,
0001
0000
0010
0000
1000
0001
1000
0000
,
0101
0000
0011
0000
0100
0000
1000
0100
,
0001
0000
0100
1000
,
1010
0000
1100
0000
0001
0000
0010
0001
,
1000
0000
0000
0000
,
1000
0100
1000
0000
0011
0000
1010
0000
,
0001
0100
0001
1000
0010
0100
0001
0000
,
1000
0100
1000
0000
0011
0000
1010
0000
,
0001
0100
0001
1000
0000
0010
0100
0000
,
0001
0010
0001
0000
1100
0000
0101
0000
,
1000
0010
1000
0001
0100
0010
1000
0000
,
0010
0100
0010
0000
1100
0000
0101
0000
,
0010
1000
0001
0100
0000
0001
0010
0100
,
1000
0000
1000
0000
1000
0000
1000
0100
,
0010
0000
0010
0000
0010
0000
0010
0001
,
0100
0000
0100
0000
0100
0000
0100
0010
,
0001
0001
0001
1010
;

//---------------dance-single - K. Pearman----------------
#NOTES:
     dance-single:
     K. Pearman:
     Challenge:
     9:
     0.621,0.619,0.448,0.000,0.307:
0000
0000
0000
0000
,
0000
0000
0000
0000
,
0000
0000
0000
0000
,
0000
0000
0000
0000
,
1000
0000
0100
0000
0001
0000
0100
0000
1000
0000
0010
0100
0000
0010
1000
0000
,
0010
0100
0001
0010
1000
0010
0100
0001
,
0100
0000
1000
0000
0001
0000
0100
0000
0010
0000
0001
0010
0000
0100
0010
0000
,
1000
0001
0100
0010
0010
0100
0001
1000
,
0010
0000
1000
0000
0100
0000
1000
0000
0001
0000
0010
0100
0000
1000
0100
0000
,
0010
0100
0001
0100
1000
0001
0100
0000
,
0010
0000
1000
0000
0001
0000
0100
0000
0010
0000
1000
0010
0000
0001
0010
0000
,
0100
0001
1000
0100
0100
1000
0001
0010
,
0001
0000
0000
1000
0100
0000
0000
0000
1000
0000
0000
0001
0100
0000
0000
0000
,
0001
0000
0000
1000
0010
0000
0000
0000
1000
0000
0000
0000
0011
0000
0000
0000
,
0100
0000
1000
0000
0010
0000
1000
0000
0100
0000
0010
0000
0001
0000
0100
0001
,
0100
1000
0100
0000
0001
1000
0100
1000
,
0011
0000
0000
1001
0000
0000
1100
0000
0000
0000
0100
0000
1000
0000
0001
0000
,
1010
0000
0000
1001
0000
0000
0101
0000
0000
0000
0010
0000
0100
0000
0001
0000
,
1000
0000
0100
0000
1000
0000
0001
0000
0010
0000
0100
0000
1000
0000
0001
0100
,
0001
1000
0010
0000
1000
0100
0001
0100
,
1100
0000
0000
0011
0000
0000
1001
0000
0010
0000
0100
0000
0001
0000
0000
0000
,
0101
0000
0000
1010
0000
0000
1001
0000
0001
0000
0100
0000
0010
1000
0001
1000
,
0010
0000
0000
0000
1100
0000
0000
0000
0101
0000
0000
0010
1000
0000
0001
0000
,
0010
0000
0100
0000
0001
0000
0100
0000
1000
0000
0001
0100
0000
0001
0100
0000
,
0010
0000
0000
0000
1010
0000
0000
0000
1001
0000
0000
1000
0100
0000
0010
0000
,
0100
0000
1000
0000
0001
0000
0100
0000
0010
0000
1000
0100
0000
0010
0100
0000
,
1000
0000
0000
0000
0101
0000
0000
0000
1010
0000
0000
0001
0000
0000
0010
0000
,
0100
0000
1000
0000
0001
0000
0100
0000
0010
0000
0100
0001
0000
1000
0100
0000
,
0110
0000
0000
0000
1100
0000
0000
0000
0101
0000
0000
0010
0000
0000
1000
0000
,
0001
1000
0001
1000
,
1000
0000
0100
0000
0001
0000
0100
0000
1000
0000
0010
0001
0000
0010
1000
0000
,
0001
0100
0010
0100
0001
0001
1000
1000
,
0100
0000
0001
0000
0100
0000
1000
0000
0001
0000
0010
1000
0000
0010
0001
0000
,
0100
0010
1000
0001
0000
1000
0100
1000
,
0100
0000
0010
0000
0100
0000
1000
0000
0100
0000
0001
0100
0000
0001
0100
0000
,
0010
0001
0100
0010
0100
1000
0100
0010
,
0100
0000
0001
0000
0010
0000
1000
0000
0010
0000
0100
0010
0000
0100
0010
0000
,
1000
0010
0001
1000
0000
0010
1000
0001
,
0101
0000
0000
0000
1100
0000
0000
0000
0001
0000
1000
0010
0000
1000
0010
0000
,
0100
0100
0001
0001
,
1000
0000
0100
0000
0010
0000
0100
0000
1000
0000
1000
0000
0100
0000
0001
0100
,
0001
0100
1000
0000
0001
0100
0010
1000
,
1010
0000
0000
1001
0000
0000
1100
0000
0100
0000
0000
0000
0010
0000
0000
0000
,
0011
0000
0000
1001
0000
0000
0101
0000
0100
0000
0000
0000
0010
0000
1000
0000
,
0001
0000
1000
0000
0100
0000
0010
0000
0001
0000
1000
0000
0001
0000
0100
0010
,
0100
0010
1000
0000
0001
0100
0001
0100
,
0110
0000
0000
0101
0000
0000
1001
0000
1000
0000
0001
0000
0100
0000
0000
0000
,
0110
0000
0000
1010
0000
0000
1001
0000
1000
0000
0100
0000
0010
0100
0010
0000
,
1100
0000
0000
1000
0001
0000
0000
0001
0100
0000
0010
0000
1000
0000
0001
0000
,
0100
0000
1000
0000
0100
0000
0001
0000
0010
0000
0100
1000
0000
0001
0100
0000
,
0110
0000
0000
0000
1001
0000
0000
0000
1100
0000
0000
0001
0100
0000
0010
0000
,
0000
0000
1000
0000
0100
0000
0001
0000
0100
0001
0100
0000
0010
0000
0001
0000
,
1000
0000
0000
0010
1000
0000
0000
0000
0001
0000
0000
0100
0001
0000
0100
0000
,
0000
0000
0010
0000
1000
0000
0001
0000
0100
0000
0010
0100
0000
0001
0100
0000
,
0010
0000
1100
0000
0101
0000
1001
0100
,
0010
0100
0100
0100
,
1000
0000
0100
0000
0010
0000
0100
0000
1000
0000
0100
0010
0000
0001
0010
0000
,
1000
0000
0010
0000
0001
0000
0100
0000
0010
1000
0010
0000
0100
0000
0001
0000
,
1000
0000
0100
0000
1000
0000
0010
0000
0100
0000
0001
0100
0000
0010
1000
0000
,
0001
0100
0010
1010
0000
1000
0100
0001
,
0100
0000
0010
0000
0100
0000
1000
0000
0001
0000
0100
0001
0000
1000
0001
0000
,
0100
0000
0010
0000
1000
0000
0100
0000
1000
0100
1000
0000
0001
0000
0010
0000
,
0011
0000
0001
0000
1000
0000
0010
0000
0100
0000
0001
0100
0000
0010
1000
0000
,
0001
0100
1000
0100
0000
0001
0010
1000
,
0010
0000
0000
0011
0000
0000
1000
0000
0000
1100
0000
0000
0001
0000
0100
0000
,
0010
0000
0000
1010
0000
0000
0001
0000
0000
0101
0000
0000
0100
0000
0010
0000
,
1000
0000
0000
1100
0000
0000
0010
0000
0000
0011
0000
0000
0001
0000
0100
0000
,
0010
0000
0000
0101
0000
0000
0100
0000
0000
1010
0000
0000
1001
0000
0000
0000
;

//---------------dance-double - K. Pearman----------------
#NOTES:
     dance-double:
     K. Pearman:
     Easy:
     4:
     0.256,0.309,0.125,0.100,0.000:
00000000
00000000
00000000
00000000
,
00000000
00000000
00000000
00000000
,
00000000
00000000
00000000
00000000
,
00000000
00000000
00000000
00000000
,
10000000
01000000
10000000
00000000
,
00010000
00100000
10000000
00100000
,
00010000
01000000
00010000
00000000
,
00001000
00000100
00000001
00000100
,
00001000
00000010
00001000
00000000
,
00000001
00000100
00000001
00000100
,
00001000
00000100
00000001
00000000
,
00000010
00000100
00000000
00001000
,
00000001
00000000
00000000
00000000
,
00000000
00000000
00000000
00011000
,
00000000
00100000
01000000
10000000
,
00010000
01000000
00000000
00000000
,
00001000
00000000
00010000
00000000
,
00001000
00000000
00010000
00000000
,
00000000
00000010
00000100
00000001
,
00001000
00000100
00000000
00000000
,
00000010
00000000
00000100
00000000
,
00000010
00000000
00000100
00000000
,
00002001
00003100
00000010
00000001
,
00000100
00000000
00001000
00000000
,
00012000
00013000
00100000
01000000
,
00010000
00000000
10000000
00000000
,
20010000
31000000
00100000
00010000
,
01000000
00000000
00001000
00000000
,
00021000
00031000
00000100
00000001
,
00000010
00000000
00000000
00000000
,
00000100
00000100
00000010
00000010
,
00000001
00001000
00000010
00000100
,
00000001
00000001
00001000
00001000
,
00000100
00010000
00001000
01000000
,
00100000
00100000
01000000
01000000
,
00010000
10000000
00100000
01000000
,
00010000
00010000
10000000
10000000
,
01000000
01000000
00000000
00100000
,
10010000
00000000
00000000
00000000
,
00000000
00000000
00000000
10010000
,
01000000
01000000
10000000
00100000
,
01000000
00010000
00000000
00100000
,
00001000
00010000
00000100
00000010
,
00001000
00010000
01000000
00000000
,
10000000
00010000
01000000
01000000
,
00001000
00010000
00000000
00000100
,
00000010
00000010
00001001
00000100
,
00000010
00000010
00001001
00000000
,
00000002
00000203
00001300
00010000
,
00000010
00000000
00010000
00000000
,
00020000
00230000
10300000
01000000
,
00010000
00000000
01000000
00000000
,
20000000
32000000
03010000
00001000
,
00000100
00000000
00001000
00000000
,
00000200
00000302
00000013
00000100
,
00001000
00000000
00000000
00000000
,
00001001
00000100
00000100
00001001
,
00000010
00010000
00001000
00000000
,
10010000
00100000
00100000
10010000
,
01000000
10000000
00010000
00000000
,
00100000
01000000
10000000
01000000
,
00010000
00001000
00000100
00000000
,
00000010
00000100
00000001
00000100
,
00001000
00010000
00000010
00000100
,
00001001
00000000
00000000
00000000
,
00010000
00000000
00000000
00000000
,
00001000
00000000
00000000
00000000
,
01000000
00000000
00100000
10010000
;

//---------------dance-double - K. Pearman----------------
#NOTES:
     dance-double:
     K. Pearman:
     Medium:
     5:
     0.301,0.366,0.174,0.000,0.000:
00000000
00000000
00000000
00000000
,
00000000
00000000
00000000
00000000
,
00000000
00000000
00000000
00000000
,
00000000
00000000
00000000
00000000
,
10000000
01000000
10000000
10000000
,
00010000
01000000
00010000
00110000
,
00001000
00001000
00000100
00001000
,
00000001
00000001
00000010
00000011
,
00000100
00001000
00000010
00000010
,
00001000
00000100
00010000
00001000
,
00010000
00010000
00100000
01000000
,
00010000
10000000
01000000
00100000
,
10010000
00000000
00000000
00000000
,
00000000
00000000
00000000
10010000
,
01000000
00000000
01000000
00000000
10000000
00100000
10000000
00000000
,
01000000
01000000
00000000
00100000
,
00001000
00010000
00001000
00000100
,
00000010
00001000
00010000
01000000
,
00001000
00010000
00000100
00000010
,
00000001
00001000
00000001
00000000
00000000
00000000
00000100
00000000
,
00000001
00000101
00000010
00001000
,
00000100
00001100
00000001
00000100
,
00000010
00001000
00010000
00001000
,
00000100
00000001
00000100
00001000
,
00000001
00000010
00000100
00001000
,
00010000
01000000
00100000
10000000
,
01000000
00100000
00010000
00001000
,
00010000
01000000
10000000
00100000
,
01000000
10000000
00010000
01000000
,
00001000
00000000
00010000
00000000
00001000
00010000
00001000
00000000
,
00010000
00010000
00001000
00001000
,
00000100
00000001
00001000
00001100
,
00000001
00000101
00000010
00001000
,
00000001
00000000
00000100
00000000
00000000
00000000
00000010
00000100
,
00000010
00001000
00000100
00010000
,
00001000
00100000
01000000
01000000
,
10000000
00010000
01000000
01000000
,
00100000
10000000
00000000
00010000
,
01000000
00000000
00000000
00000000
,
00000000
00000000
00000000
10010000
,
01000000
01000000
10000000
00100000
,
01000000
00010000
01000000
00000000
00000000
00000000
00001000
00000000
,
00011000
00000000
00000100
00000000
,
00011000
00000000
01000000
00000000
,
00000000
00001000
00000100
00000001
,
00000010
00000100
00000010
00000000
00000000
00000000
00000100
00000000
,
00001000
00000000
00000001
00000000
,
00000100
00000000
00000010
00000000
,
00000110
00000001
00000110
00001000
,
00001001
00000000
00000000
00000000
00000010
00001000
00000001
00000000
,
00001100
00000001
00000101
00001000
,
00001100
00010000
00001000
00100000
,
01100000
00010000
01100000
10000000
,
01100000
00000000
00000000
00000000
01000000
00000000
10000000
00010000
,
01000000
00100000
10000000
01000000
,
00010000
00000000
00000000
00000000
,
01000000
10000000
00100000
10000000
,
01000000
00000000
00100000
00000000
00010000
01000000
00010000
00000000
,
00100000
00001000
00010000
00001000
,
00000100
00000000
00000010
00001000
00000000
00000001
00000100
00000000
,
00000010
00000000
00000100
00000000
00000001
00000010
00000001
00000000
,
00000010
00000100
00001000
00000010
,
00010000
00001000
00000100
00000001
,
00000010
00000000
00000001
00000010
00000000
00000100
00001000
00000000
,
00000100
00010000
00001000
00000000
,
01000000
00001000
00010000
00000000
,
00100000
01000000
00010000
00000000
,
00000010
00000100
00001000
00001001
;

//---------------dance-double - K. Pearman----------------
#NOTES:
     dance-double:
     K. Pearman:
     Hard:
     7:
     0.459,0.506,0.125,0.199,0.054:
00000000
00000000
00000000
00000000
,
00000000
00000000
00000000
00000000
,
00000000
00000000
00000000
00000000
,
00000000
00000000
00000000
00000000
,
00100000
00000000
10000000
00000000
01000000
00000000
00000000
00000000
00100000
00000000
00000000
00010000
00000000
00000000
01000000
00000000
,
00001000
00010000
00000100
00000000
00000010
00000000
00000001
00000000
,
00000100
00000000
00000001
00000000
00000010
00000000
00000000
00000000
00000100
00000000
00000000
00001000
00000000
00000000
00000010
00000000
,
00001000
00000010
00000001
00000000
00000010
00000100
00000001
00000000
,
00001000
00000000
00000100
00000000
00010000
00000000
00000000
00000000
00001000
00000000
00000000
00010000
00000000
00000000
00100000
00000000
,
01000000
00010000
10000000
00000000
01000000
10000000
01000000
10000000
,
00010000
00000000
00100000
00000000
01000000
00000000
00000000
00000000
10000000
00000000
00000000
01000000
00000000
00000000
00010000
00000000
,
00001000
00010000
01000000
00100000
00000000
00010000
00100000
00000000
,
10010000
00000000
00000000
00000000
,
00000000
00000000
01000000
10010000
,
00000000
00100000
10000000
00000000
00010000
01000000
10000000
01000000
,
00010000
00100000
01000000
00000000
00010000
00000000
00001000
00010000
,
00000100
00000000
00001000
00000001
00000100
00000000
00000010
00001000
,
00000001
00000000
00000010
00000100
00001000
00000000
00000001
00000000
,
00000101
00000000
00000010
00001000
00000100
00001000
00000001
00001000
,
00000100
00010000
00001000
00000000
00000100
00000000
00000010
00000000
,
00001000
00000000
00000100
00010000
00001000
00000000
00100000
00010000
,
01000000
00000000
00100000
10000000
00010000
00000000
00010000
00000000
,
12000000
00000000
03020000
00000000
20030000
00000000
30100000
00010000
,
01000000
00000000
00100000
00000000
00010000
00001000
00000100
00000000
,
00000201
00000000
00002300
00000000
00003002
00000000
00000013
00001000
,
00000001
00000100
00000010
00000010
00000100
00000001
00001000
00000000
,
00001200
00000000
00000302
00000000
00002003
00000000
00003010
00000001
,
00000100
00001000
00010000
00100000
,
12000000
00000000
03020000
00000000
20030000
00000000
30100000
00010000
,
00000000
10000000
00100000
00000000
00000000
00000000
00000000
00000000
,
10000000
00000000
00000000
00000000
00010000
00000000
01000000
00000000
00100000
00000000
00000000
10000000
00000000
00000000
01000000
00000000
,
00100000
00000000
00001000
00010000
00000100
00010000
00001000
00010000
,
00000100
00000000
00000000
00000000
00000010
00000000
00000001
00000000
00001000
00000000
00000000
00000001
00000000
00000000
00000100
00000000
,
00000010
00000000
00001000
00000001
00000000
00000100
00000010
00000000
,
00001001
00000000
00000000
00000000
00000100
00000000
00001000
00000000
00000001
00000000
00000000
00000100
00000000
00000000
00000010
00000000
,
00001000
00000000
00000100
00010000
00001000
00010000
00100000
00010000
,
00001000
00000000
00000000
00000000
00100000
00000000
00010000
00000000
01000000
00000000
00000000
10000000
00000000
00000000
01000000
00000000
,
00001000
00100000
01000000
10000000
00000000
00010000
01000000
00000000
,
00100000
00000000
00000000
00000000
00100000
00000000
00000000
00000000
00100000
00000000
00000000
10000000
00000000
00000000
00010000
00000000
,
01000000
00000000
01000000
10010000
,
10000000
01000000
10000000
10000000
00010000
01000000
00010000
00010000
,
10000000
01000000
00100000
00000000
00010000
00000000
00100000
00001000
,
00010000
00000000
00001000
00010000
00000100
00000000
00000010
00000100
,
00001000
00000000
00000010
00000100
00000001
00000000
00001000
00000000
,
00000010
00001000
00000001
00000001
00001000
00000100
00000010
00000010
,
00000100
00001000
00000001
00000000
00000100
00000000
00000010
00000100
,
00000001
00000000
00000010
00000100
00000010
00000000
00001000
00000100
,
00000010
00000000
00000100
00000010
00001000
00000000
00000010
00000000
,
00021000
00000000
00230000
00000000
20300000
00000000
31000000
00010000
,
00001000
00000000
00010000
00000000
00001000
00010000
00001000
00000000
,
00012000
00000000
00003020
00000000
00000032
00000000
00000103
00001000
,
00010000
00000000
00100000
00000000
00010000
00001000
00100000
00000000
,
00210000
00000000
20300000
00000000
32000000
00000000
03010000
00001000
,
00000100
00000010
00000001
00000100
,
00001020
00000000
00000032
00000000
00000203
00000000
00001300
00010000
,
00100000
00000000
00000000
00000000
,
00100000
00000000
01000000
00000000
00010000
00000000
00000000
00000000
10000000
00000000
00000000
00010000
00000000
00000000
01000000
00000000
,
00001000
00010000
00000100
00000000
00000010
00000000
00001001
00000000
,
00000100
00000000
00001000
00000000
00000001
00000000
00000000
00000000
00000100
00000000
00000000
00000010
00000000
00000000
00001000
00000000
,
00000001
00000100
00000001
00000100
00001000
00000100
00001000
00000100
,
00000001
00000000
00000010
00000000
00000100
00000000
00000000
00000000
00001000
00000000
00000000
00000010
00000000
00000000
00001000
00000000
,
00000100
00010000
00001000
00000000
00100000
00010000
01000000
00010000
,
00100000
00000000
01000000
00000000
10000000
00000000
00000000
00000000
00010000
00000000
00000000
01000000
00000000
00000000
00100000
00000000
,
10000000
01000000
00100000
00010000
00000000
10000000
01000000
10000000
,
01000000
00000000
01000000
00000000
01000000
00000000
01000000
00100000
,
00001000
00000000
00001000
00000000
00001000
00000000
00001000
00000100
,
00000001
00000000
00000001
00000000
00000001
00000000
00000001
00000010
,
00001000
00000000
00010000
00100000
10000000
00000000
10010000
00000000
;

//---------------dance-single - K. Pearman----------------
#NOTES:
     dance-single:
     K. Pearman:
     Hard:
     7:
     0.458,0.506,0.199,0.000,0.120: // measure 1
0000
0000
0000
0000
,  // measure 2
0000
0000
0000
0000
,  // measure 3
0000
0000
0000
0000
,  // measure 4
0000
0000
0000
0000
,  // measure 5
0010
0000
1000
0000
0100
0000
0000
0000
0010
0000
0001
1000
0000
0001
1000
0000
,  // measure 6
0010
0100
0001
0000
1000
0001
0100
0001
,  // measure 7
1000
0000
0010
0000
1000
0000
0000
0000
0100
0000
0010
0100
0000
0010
0100
0000
,  // measure 8
1000
0100
0010
0001
0000
1000
0001
0000
,  // measure 9
0100
0000
0001
0000
1000
0000
0001
0000
0100
0000
0010
1000
0000
0010
1000
0000
,  // measure 10
0001
0100
0010
0000
1000
0100
0010
0000
,  // measure 11
0001
0000
0010
0000
0100
0000
0010
0000
0001
0000
1000
0100
0000
1000
0100
0000
,  // measure 12
0010
0001
1000
0010
0000
0100
0001
0000
,  // measure 13
1100
0000
0000
0000
,  // measure 14
0000
0000
0000
1001
,  // measure 15
1000
0100
0001
0000
0100
0100
1000
0010
,  // measure 16
0100
0100
0001
0000
1000
0000
0001
0100
,  // measure 17
0001
0000
0000
1000
0000
0000
0100
0000
0000
0000
1000
0000
0100
0000
1000
0000
,  // measure 18
0001
0000
0000
0100
0000
0000
0001
0000
0000
0000
1000
0000
0001
0000
0000
0000
,  // measure 19
0010
0100
1000
0100
0010
0001
0010
0001
,  // measure 20
0100
0010
1000
0000
0001
0000
1000
0010
,  // measure 21
0100
0000
0001
1000
0100
0000
0010
0001
,  // measure 22
1000
0000
0010
0100
0001
1000
0100
0010
,  // measure 23
0011
0000
1001
0000
1100
0000
0010
0100
,  // measure 24
1001
0000
0100
1000
0010
0001
0010
1000
,  // measure 25
1100
0000
1001
0000
0011
0000
0100
0010
,  // measure 26
1001
0001
0100
1000
0100
0001
1000
0000
,  // measure 27
1010
0000
1001
0000
0101
0000
0010
0100
,  // measure 28
1001
0000
0100
0000
1000
0100
0010
0000
,  // measure 29
0101
0000
1001
0000
1010
0000
0010
0100
,  // measure 30
1001
0000
0000
0000
,  // measure 31
1000
0000
0100
0000
1000
0000
0000
0000
0001
0000
0000
0010
0000
0001
0100
0000
,  // measure 32
0010
0100
0001
0000
1000
0100
1000
0000
,  // measure 33
0001
0000
0100
0000
0001
0000
0000
0000
1000
0000
0000
0010
0000
1000
0100
0000
,  // measure 34
1000
0100
0010
0000
0001
0010
0100
1000
,  // measure 35
0001
0000
0100
0000
0001
0000
0000
0000
1000
0000
0000
0001
0000
0000
0100
0000
,  // measure 36
0010
0100
0001
0000
1000
0000
0100
0000
,  // measure 37
0010
0000
0001
0000
1000
0000
0010
0000
0100
0000
0000
0001
0000
0000
1000
0000
,  // measure 38
0001
0100
0010
1000
0000
0001
0010
0100
,  // measure 39
1000
0000
0000
0000
0100
0000
0000
0000
1000
0000
0000
0001
0000
0000
0100
0000
,  // measure 40
0001
0000
0001
1100
,  // measure 41
1000
0100
0001
0000
0100
0010
0001
1000
,  // measure 42
0010
0100
0001
0000
1000
0000
0001
0000
,  // measure 43
1000
0000
0000
0100
0000
0000
0010
0000
0100
0000
0000
0000
1000
0000
0000
0000
,  // measure 44
0001
0000
0000
0100
0000
0000
0010
0000
0100
0000
0000
0000
0001
0000
0000
0000
,  // measure 45
1000
0010
1000
0000
0001
0100
0010
0100
,  // measure 46
0001
1000
0100
0000
0010
0100
1000
0001
,  // measure 47
0100
0000
0000
0010
0000
0000
0100
0000
0001
0000
0000
0000
1000
0000
0100
0000
,  // measure 48
0010
0000
0000
0100
0000
0000
1000
0000
0001
0000
0000
0000
0101
0000
0000
0000
,  // measure 49
1000
0000
1100
0000
0001
0000
0010
0100
,  // measure 50
1000
0000
0001
0100
0010
0000
0100
0010
,  // measure 51
1000
0000
0001
0000
0100
0000
0010
0100
,  // measure 52
0001
1000
0100
1000
0001
0010
0001
0000
,  // measure 53
1000
0000
1100
0000
0001
0000
0100
0010
,  // measure 54
1000
0000
0001
0010
0100
0000
1000
0000
,  // measure 55
0100
0000
0011
0000
0100
0000
0010
1000
,  // measure 56
0001
0000
0000
0000
,  // measure 57
1000
0000
0100
0000
1000
0000
0000
0000
0001
0000
0000
0100
0000
0000
0010
0000
,  // measure 58
1000
0010
1000
0001
0010
1000
0010
0000
,  // measure 59
0001
0000
0100
0000
0001
0000
0000
0000
1000
0000
0000
0010
0000
0000
1000
0000
,  // measure 60
0001
0010
0001
1000
0000
0100
1000
0000
,  // measure 61
0010
0000
1000
0000
0100
0000
0000
0000
0010
0000
0000
0001
0000
0000
0100
0000
,  // measure 62
0010
0100
0001
0000
0100
0010
1000
0010
,  // measure 63
0100
0000
0010
0000
1000
0000
0000
0000
0100
0000
0000
1000
0000
0000
0001
0000
,  // measure 64
0010
0001
1000
0010
0000
0100
0001
1000
,  // measure 65
0100
0000
0000
1000
0000
0000
0001
0000
0000
0000
0000
0000
0000
0000
0000
0000
,  // measure 66
0010
0000
0000
0001
0000
0000
1000
0000
0000
0000
0000
0000
0000
0000
0000
0000
,  // measure 67
0010
0000
0000
0100
0000
0000
0001
0000
0000
0000
0000
0000
0000
0000
0000
0000
,  // measure 68
0100
0000
0000
0010
0000
0000
1000
0000
0000
0000
0000
0000
1001
0000
0000
0000
;

//---------------dance-single - K. Pearman----------------
#NOTES:
     dance-single:
     K. Pearman:
     Easy:
     3:
     0.245,0.281,0.058,0.100,0.000:
0000
0000
0000
0000
,
0000
0000
0000
0000
,
0000
0000
0000
0000
,
0000
0000
0000
0000
,
0010
1000
0010
1000
,
0100
0100
0001
0001
,
0100
0010
0100
0010
,
0001
0001
1000
0000
,
0001
0100
0001
0100
,
0010
0010
1000
1000
,
0100
1000
0100
1000
,
0001
0001
0000
0010
,
0100
0000
0000
0000
,
0000
0000
0000
1001
,
0000
0001
0000
1000
,
0100
0001
0000
0000
,
0100
1000
0010
0000
,
0100
0001
0010
0000
,
0000
0001
0000
0001
,
0100
1000
0000
0000
,
0100
0010
1000
0000
,
0100
0010
0001
0000
,
1000
0100
1000
0100
,
0001
0000
0100
0000
,
1000
0010
1000
0010
,
0001
0000
0010
0000
,
1000
0001
1000
0001
,
0100
0000
0100
0000
,
0001
1000
0001
1000
,
0100
0000
0000
0000
,
1000
0100
1000
0100
,
0010
0100
0010
0000
,
0001
0100
0001
0100
,
0010
0100
0010
0000
,
1000
0100
1000
0100
,
0001
0100
1000
0000
,
0001
0100
0001
0100
,
1000
0100
0001
0000
,
1001
0000
0000
0000
,
0000
0000
0000
0000
,
0100
1000
0010
1000
,
0100
0001
0000
0100
,
0010
0000
1001
0010
,
0100
0000
1001
0000
,
0001
0100
1000
0100
,
0010
1000
0000
0001
,
0010
0000
0110
1000
,
0100
0000
0110
0001
,
2000
3200
0320
0000
,
0031
0000
1000
0001
,
0002
0203
0320
0000
,
1030
0000
0001
0100
,
0020
2030
3002
0000
,
0103
0000
0001
1000
,
0200
2300
3002
0000
,
0013
0000
0000
0000
,
0100
1000
0100
1000
,
0001
0010
0100
1000
,
0001
0100
0001
0100
,
0010
1000
0001
0000
,
0100
0010
0100
0010
,
0100
1000
0100
0001
,
0010
0100
0010
0100
,
0010
1000
0010
0001
,
1000
0000
0000
0000
,
0001
0000
0000
0000
,
0100
0000
0000
0000
,
0010
0000
0010
1001
;

//---------------dance-double - K. Pearman----------------
#NOTES:
     dance-double:
     K. Pearman:
     Challenge:
     9:
     0.550,0.534,0.315,0.000,0.274:
00000000
00000000
00000000
00000000
,
00000000
00000000
00000000
00000000
,
00000000
00000000
00000000
00000000
,
00000000
00000000
00000000
00000000
,
10000000
00000000
10000000
00000000
01000000
00000000
01000000
00000000
00100000
00000000
00010000
10000000
00000000
00010000
10000000
00000000
,
00100000
01000000
00010000
00100000
00001000
00010000
00001000
00000010
,
00000001
00000000
00000001
00000000
00001000
00000000
00001000
00000000
00000010
00000000
00000100
00000001
00000000
00000100
00000001
00000000
,
00001000
00000100
00000010
00000001
00000000
00001000
00000100
00000001
,
00000100
00000000
00000100
00000000
00001000
00000000
00001000
00000000
00000010
00000000
00010000
00001000
00000000
00010000
00001000
00000000
,
00100000
00100000
00010000
00010000
01000000
10000000
01000000
00010000
,
00100000
00000000
00100000
00000000
01000000
00000000
01000000
00000000
10000000
00000000
00010000
10000000
00000000
00010000
10000000
00000000
,
00100000
00010000
00100000
10000000
00000000
01000000
00100000
01000000
,
10000000
10000000
10000000
10000000
,
10000000
00000000
00000000
10000000
01000000
00000000
00000000
00000000
00100000
00000000
00000000
00000000
10010000
00000000
00000000
00000000
,
00010000
01000000
00010000
01000000
00100000
10000000
00100000
10000000
,
01000000
00010000
00001000
00000000
00000100
00000000
00000001
00000010
,
00000011
00000000
00000000
00001001
00000000
00000000
00001100
00000000
00000000
00000000
00000001
00000000
00000100
00000000
00000000
00000000
,
00001010
00000000
00000000
00001001
00000000
00000000
00000101
00000000
00000000
00000000
00000010
00000000
00001000
00000000
00000000
00000000
,
00000010
00001000
00010000
00001000
00000100
00000001
00000100
00001000
,
00010000
01000000
10000000
00000000
01000000
00010000
10000000
00000000
,
11000000
00000000
00000000
10010000
00000000
00000000
00110000
00000000
00000000
00000000
00010000
00000000
00100000
00000000
00000000
00000000
,
00110000
00000000
00000000
10010000
00000000
00000000
11000000
00000000
00000000
00000000
10000000
00000000
01000000
00000000
00000000
00000000
,
11000000
00000000
00000000
01000000
00100000
00000000
00000000
00100000
00010000
00000000
00000000
00010000
00001000
00000000
00000000
00001000
,
00000100
00000000
00000000
00000000
,
00000101
00000000
00000000
00000100
00000010
00000000
00000000
00000010
00001000
00000000
00000000
00001000
00010000
00000000
00000000
00010000
,
00100000
00000000
01000000
00000000
10000000
00010000
10000000
00000000
,
01100000
00000000
00000000
00010000
10000000
00000000
00000000
00000000
01100000
00000000
00000000
10000000
00010000
00000000
01000000
00000000
,
00001000
00000000
00010000
00000000
00000100
00001000
00000001
00000000
,
00000110
00000000
00000000
00001000
00000001
00000000
00000000
00000000
00000110
00000000
00000000
00000001
00001000
00000000
00000010
00000000
,
00000000
00000100
00000001
00000000
00000000
00000000
00000000
00000000
,
00000001
00000000
00000100
00000000
00001000
00000000
00000100
00000000
00000001
00000000
00000100
00000010
00000000
00000100
00000010
00000000
,
00001000
00000100
00010000
00001000
00100000
00100000
01000000
01000000
,
10000000
00000000
01000000
00000000
00010000
00000000
01000000
00000000
10000000
00000000
01000000
00100000
00000000
01000000
00100000
00000000
,
00010000
00010000
10000000
10000000
00000000
00100000
10000000
00010000
,
01000000
00000000
01000000
00000000
00001000
00000000
00001000
00000000
00010000
00000000
00000100
00000010
00000000
00000100
00000010
00000000
,
00000001
00000001
00000100
00000100
00000010
00001000
00000001
00000100
,
00000010
00000000
00000010
00000000
00001000
00000000
00001000
00000000
00000100
00000000
00000010
00000100
00000000
00000010
00000100
00000000
,
00001000
00010000
00001000
00000100
00000000
00001000
00000010
00010000
,
00001000
00000000
00000000
00000000
00100000
00000000
00000000
00000000
00010000
00000000
00000000
10000000
00000000
00000000
01000000
00000000
,
00000000
01000000
00000000
10010000
,
10000000
01000000
10000000
10000000
00010000
01000000
00010000
00010000
,
10000000
01000000
00010000
00000000
00001000
00000000
00010000
00001000
,
00000100
00000000
00000000
00000011
00000000
00000000
00001100
00000000
00000000
00000000
00000001
00000000
00000100
00000000
00000000
00000000
,
00011000
00000000
00000000
00010100
00000000
00000000
00011000
00000000
00001000
00000000
00000000
00000000
01000000
00000000
00010000
00000000
,
10000000
01000000
00010000
00010000
01000000
10000000
00100000
00001000
,
00100000
00010000
00001000
00000000
00000000
00000000
00010000
00000000
,
00110000
00000000
00000000
10010000
00000000
00000000
11000000
00000000
10000000
00000000
01000000
00000000
00010000
00000000
00000000
00000000
,
00011000
00000000
00000000
00010100
00000000
00000000
00001100
00000000
00000000
00000000
00000010
00000000
00001000
00000000
00000000
00000000
,
00000101
00000000
00000000
00000010
00001000
00000000
00000000
00000000
00000011
00000000
00000000
00001000
00000100
00000000
00010000
00000000
,
00001000
00100000
01000000
00100000
00010000
00100000
01000000
00000000
,
01100000
00000000
00000000
10000000
00010000
00000000
00000000
00000000
01100000
00000000
00000000
00010000
10000000
00000000
01000000
00000000
,
10000000
01000000
00010000
01000000
10000000
00100000
00010000
00000000
,
00101000
00000000
00000000
00010000
10000000
00000000
00000000
00010000
01000000
00000000
00000000
00001000
00010000
00000000
00000000
00000100
,
00001000
00000000
00000001
00000000
00000100
00001000
00000100
00000001
,
00010010
00000000
00000000
00001000
00000010
00000000
00000000
00001000
00000001
00000000
00000000
00001000
00000100
00000000
00000000
00010000
,
00001000
00000000
00000000
00000000
,
00100000
00000000
00010000
00000000
01000000
00000000
00010000
00000000
00100000
00000000
01000000
10000000
00000000
01000000
10000000
00000000
,
01000000
00010000
01000000
10000000
00100000
00010000
00001000
00000010
,
00000001
00000000
00000100
00000000
00000010
00000000
00000100
00000000
00000001
00000000
00000100
00000010
00000000
00000100
00000010
00000000
,
00000100
00000001
00001000
00000100
00000100
00001000
00000001
00000000
,
00000010
00000000
00000100
00000000
00001000
00000000
00000100
00000000
00000001
00000000
00000100
00001000
00000000
00000100
00001000
00000000
,
00000001
00000010
00001000
00010000
01000000
00010000
00001000
00000000
,
00100000
00000000
01000000
00000000
10000000
00000000
00010000
00000000
01000000
00000000
00100000
10000000
00000000
00100000
10000000
00000000
,
01000000
00010000
01000000
10000000
00000000
00010000
01000000
00001000
,
00010000
00000000
00000000
00001000
00000000
00000000
00010000
00000000
00000000
00001000
00000000
00000000
00010000
00000000
00000100
00000000
,
00001000
00000000
00000000
00000100
00000000
00000000
00001000
00000000
00000000
00000100
00000000
00000000
00001000
00000000
00000001
00000000
,
00000010
00000000
00000000
00000001
00000000
00000000
00000010
00000000
00000000
00000001
00000000
00000000
00000010
00000000
00000100
00000000
,
00001000
00000000
00000000
00010000
00000000
00000000
00100000
00000000
00000000
01000000
00000000
00000000
10010000
00000000
00000000
00000000
;
