#TITLE:Take On Me;
#SUBTITLE:;
#ARTIST:Captain Jack;
#TITLETRANSLIT:;
#SUBTITLETRANSLIT:;
#ARTISTTRANSLIT:;
#CREDIT:;
#BANNER:;
#BACKGROUND:;
#LYRICSPATH:;
#CDTITLE:;
#MUSIC:Take On Me.ogg;
#OFFSET:0.200;
#SAMPLESTART:31.300;
#SAMPLELENGTH:12.000;
#SELECTABLE:YES;
#BPMS:0.000=160.060;
#STOPS:;
#BGCHANGES:;

//---------------dance-single - ----------------
#NOTES:
     dance-single:
     :
     Easy:
     4:
     0.382,0.453,0.412,0.212,0.000: // measure 1
0000
0000
0000
0000
,  // measure 2
0000
0000
0000
0000
,  // measure 3
0000
0000
0000
0000
,  // measure 4
0000
0000
0000
0000
,  // measure 5
2002
0000
0000
3003
,  // measure 6
1000
1000
0001
0001
,  // measure 7
1000
0100
0010
0001
,  // measure 8
0100
0100
0010
0010
,  // measure 9
1001
1001
0110
0110
,  // measure 10
1000
0100
0001
0100
,  // measure 11
1000
0001
1001
0000
,  // measure 12
0001
0100
0001
0001
,  // measure 13
1000
0010
1000
1000
,  // measure 14
0001
0100
1000
0100
,  // measure 15
0001
1000
1001
0000
,  // measure 16
1000
0100
1000
1000
,  // measure 17
0001
0010
0001
0001
,  // measure 18
0100
0010
1000
0100
,  // measure 19
0010
0100
0110
0000
,  // measure 20
0010
0010
0001
0001
,  // measure 21
0101
0101
1010
1010
,  // measure 22
0200
0301
0000
2001
,  // measure 23
0100
3010
0000
0201
,  // measure 24
0010
0301
0000
1001
,  // measure 25
0100
1000
0001
0100
,  // measure 26
0020
1030
0000
0210
,  // measure 27
1000
0310
0000
2100
,  // measure 28
0001
3010
0000
0101
,  // measure 29
0010
1000
0001
0010
,  // measure 30
0001
0100
0010
1000
,  // measure 31
0100
1000
0001
0010
,  // measure 32
0100
0010
0001
1000
,  // measure 33
0101
1001
1010
1001
,  // measure 34
1000
0100
0010
0010
,  // measure 35
0001
0100
0010
0010
,  // measure 36
0100
0001
1000
1000
,  // measure 37
1001
1100
1001
0011
,  // measure 38
2000
0000
3002
0000
,  // measure 39
0203
0000
2300
0000
,  // measure 40
3200
0000
0302
0000
,  // measure 41
2003
0000
3020
0000
,  // measure 42
0031
0000
0000
0010
0000
0000
1000
0000
,  // measure 43
0100
0000
0000
1000
0000
0000
0001
0000
,  // measure 44
0010
0000
0000
0001
0000
0000
0100
0000
,  // measure 45
1010
0110
1010
1001
,  // measure 46
1000
0100
0001
0100
,  // measure 47
1000
0100
0001
1000
,  // measure 48
0010
0001
0010
1000
,  // measure 49
0001
0100
1000
0001
,  // measure 50
0100
0010
0001
0010
,  // measure 51
1000
0100
1000
0010
,  // measure 52
0001
0010
1000
0100
,  // measure 53
0101
1100
1010
0011
,  // measure 54
2002
0000
0000
0000
,  // measure 55
0000
0000
0000
0000
,  // measure 56
3003
0000
0000
0000
;

//---------------dance-single - ----------------
#NOTES:
     dance-single:
     :
     Medium:
     6:
     0.500,0.518,0.506,0.212,0.000:
0000
0000
0000
0000
,
0000
0000
0000
0000
,
0000
0000
0000
0000
,
0000
0000
0000
0000
,
2002
0000
0000
3003
,
1000
0000
0100
1000
0000
0100
0000
0010
,
0000
0001
0000
0100
0010
0000
1001
0000
,
0100
0000
0010
1000
0000
0001
0000
0100
,
0000
0001
0000
0010
0100
0000
1001
0000
,
2000
0000
0100
0000
3001
0100
0010
0000
,
0100
0010
1100
0101
,
0001
0000
0100
0000
0010
1000
0001
0000
,
0100
0000
0010
0000
1000
0001
0100
0000
,
0002
0000
0100
0000
1003
0100
0010
0000
,
0001
1000
0110
1001
,
0010
0000
1000
0000
0001
0100
0010
0000
,
1000
0000
0001
0000
1000
0100
0010
0000
,
0210
0000
0001
0000
1300
0100
0001
0000
,
0010
0100
1010
0101
,
0020
2030
3002
0103
,
1010
0101
0011
1100
,
0002
0000
1003
0000
0110
0000
1000
0001
,
0200
0000
0310
0000
1001
0000
0010
1000
,
0200
0000
1300
0000
0011
0000
0100
1000
,
0001
0000
0100
0010
0000
0010
1000
0000
,
0200
0000
0310
0000
1001
0000
0100
0010
,
2000
0000
3100
0000
0011
0000
0100
0001
,
2000
0000
3010
0000
0101
0000
0010
1000
,
0001
0000
0100
0001
0000
0001
1000
0000
,
0100
0001
1000
0000
0010
1000
0100
0000
,
1000
0001
0100
0000
0001
0100
0010
0000
,
0100
0001
0010
0000
0001
0100
1000
0000
,
0101
0000
1100
0000
0100
0001
0010
0000
,
0100
1000
0010
0000
0100
0000
1001
0000
,
0010
0001
0100
0000
0010
0000
1100
0000
,
0001
1000
0100
0000
1000
0000
0110
0000
,
1001
1100
0011
0110
,
2000
0000
0001
3001
0000
0100
0000
0010
,
0000
0010
0000
0100
0001
0000
1100
0000
,
0002
0000
1000
1003
0000
0010
0000
0100
,
0000
0100
0000
0010
1000
0000
0011
0000
,
0010
1000
0100
1000
0000
0000
1001
0000
,
0001
0100
0010
0100
0000
0000
0101
0000
,
0010
1000
0001
0010
0000
0000
1001
0000
,
0110
1100
0110
0011
,
1000
0000
0001
0000
1000
0100
0001
0000
,
1000
0000
0001
0000
1000
0010
0001
0000
,
1000
0100
1000
0000
0001
0100
0001
0000
,
0010
0100
0010
0000
1000
0100
1000
0000
,
0001
0000
1000
0000
0001
0100
1000
0000
,
0001
0000
1000
0000
0001
0010
1000
0000
,
0001
0100
0010
0000
0100
0010
1000
0000
,
1001
0110
1100
0011
,
2002
0000
0000
0000
,
0000
0000
0000
0000
,
3003
0000
0000
0000
;

//---------------dance-single - ----------------
#NOTES:
     dance-single:
     :
     Hard:
     8:
     0.597,0.615,0.259,0.106,0.071:
0000
0000
0000
0000
,
0000
0000
0000
0000
,
0000
0000
0000
0000
,
0000
0000
0000
0000
,
2002
0000
0000
3003
,
1000
1000
0001
0100
0000
1000
0000
0100
,
0000
0000
0001
0000
0000
0000
1000
0100
1000
0000
0001
0000
0100
0000
0010
0000
,
1000
0100
0010
1000
0000
0010
0000
0001
,
0000
0100
0000
1000
0100
0100
0010
1000
,
0001
1000
0100
1000
0001
1000
0100
1000
,
0010
1000
0100
1000
0010
1000
0100
1000
,
0100
0010
0001
0010
0100
0010
0001
0010
,
0001
0100
0010
0100
0001
0100
0010
0000
,
1000
0001
0100
0001
1000
0001
0100
0001
,
1000
0010
0100
0010
1000
0010
0100
0010
,
1000
0100
0010
0100
1000
0100
0010
0100
,
1000
0001
0010
0001
1000
0001
0010
0000
,
0002
0000
0100
0103
0010
1000
0100
0000
,
1000
0001
0101
0000
0001
1000
1100
0000
,
0001
0100
0010
1000
0100
1000
0010
0100
,
0001
0010
0001
0000
0100
0000
0010
0000
1000
0100
1000
0000
0001
0000
0010
0000
,
0001
0000
1000
0100
1000
0000
0000
0000
0001
0000
0100
0000
1000
0000
0000
0000
,
0100
0000
0001
0010
0001
0000
0000
0000
0010
0000
0100
0000
1000
0000
0000
0000
,
0100
0000
0010
0001
0010
0000
0000
0000
0100
0000
0001
0000
0100
0000
0000
0000
,
1000
0010
0010
0200
0000
0000
0301
0000
,
0100
0000
1000
0100
1000
0000
0000
0000
0100
0000
0001
0000
0010
0000
0000
0000
,
0100
0000
0010
0001
0010
0000
0000
0000
0001
0000
1000
0000
0100
0000
0000
0000
,
1000
0000
0010
0100
0010
0000
0000
0000
1000
0000
0010
0000
0001
0000
0000
0000
,
0010
1000
1000
0200
0000
0000
0301
0000
,
0100
1000
0001
0100
0010
1000
0001
0000
,
0100
1000
0100
0001
0010
0100
1000
0000
,
0100
0001
0100
1000
0010
0100
0001
0000
,
1000
0000
0001
0000
0100
0000
0010
0000
1000
0000
0001
0000
0010
0000
0100
1000
,
0100
0010
0011
0000
0010
0000
0101
0000
,
0010
1000
1100
0000
0100
0000
1010
0000
,
0100
0001
1001
0000
1000
0000
0110
0000
,
1100
0101
0011
1010
,
1000
0100
0001
0010
0000
1000
0000
0001
,
0000
0000
0100
0000
0000
0000
0010
1000
0010
0000
0100
0000
0010
0000
1000
0000
,
0100
0001
0010
1000
0000
0001
0000
0100
,
0000
0000
0010
0000
0000
0000
1000
0100
1000
0000
0100
0000
0001
0000
0100
0000
,
1000
0010
0100
0201
0000
1000
1300
0100
,
0001
0010
0100
2100
0000
0001
3001
0100
,
1000
0100
0100
0001
0010
0010
0100
1000
,
1100
1001
0011
0110
,
1000
0100
0001
0000
1000
0100
0001
0000
,
1000
0010
0001
0000
1000
0010
0001
0000
,
1000
0100
0001
0100
1000
0100
0001
0100
,
1000
0010
0001
0010
1000
0000
1001
0000
,
0001
0100
1000
0000
0001
0100
1000
0000
,
0001
0010
1000
0000
0001
0010
1000
0000
,
0001
0010
1000
0010
0001
0010
1000
0010
,
0001
0100
1000
0100
0001
0000
1001
0000
,
0220
0000
0000
0000
,
0000
0000
0000
0000
,
0330
0000
0000
0000
;
