#TITLE:ray of thanatos;
#SUBTITLE:;
#ARTIST:wa. vs celas vs 44teru-k;
#TITLETRANSLIT:;
#SUBTITLETRANSLIT:;
#ARTISTTRANSLIT:;
#GENRE:;
#CREDIT:Meseki;
#MENUCOLOR:;
#BANNER:ray of thanatos-bn.png;
#BACKGROUND:ray of thanatos-bg.png;
#LYRICSPATH:;
#CDTITLE:cdtitle.png;
#MUSIC:ray of thanatos.mp3;
#OFFSET:-1.109;
#SAMPLESTART:61.741;
#SAMPLELENGTH:20.526;
#SELECTABLE:YES;
#LISTSORT:;
#BPMS:0.000=190.000;
#STOPS:;
#TICKCOUNT:0.000=2;
#BGCHANGES:;
#KEYSOUNDS:;
#ATTACKS:;

//---------------dance-single - ----------------
#NOTES:
     dance-single:
     :
     Easy:
     5:
     0.300,0.419,0.069,0.155,0.000: // measure 1
0000
0000
0000
0000
,  // measure 2
0000
0000
0000
0000
,  // measure 3
0000
0000
0000
0000
,  // measure 4
0000
0000
0000
0000
,  // measure 5
0000
0000
0000
0000
,  // measure 6
0000
0000
0000
0000
,  // measure 7
0000
0000
0000
0000
,  // measure 8
0000
0000
0000
0000
,  // measure 9
1000
0100
0000
0000
,  // measure 10
0010
0000
0000
0100
0000
0000
1000
0000
,  // measure 11
0010
0000
0100
0000
0000
0100
0000
0000
,  // measure 12
0001
0000
1000
0000
,  // measure 13
0001
1000
0100
1000
,  // measure 14
0001
0100
0010
0100
,  // measure 15
0001
0010
0100
1000
,  // measure 16
2000
0000
0000
3001
,  // measure 17
0100
0000
0010
0000
,  // measure 18
1000
0000
0100
0000
,  // measure 19
0010
0100
0000
0100
,  // measure 20
1000
0000
0010
0000
,  // measure 21
0100
0000
0000
0001
0000
0000
0000
0000
,  // measure 22
0010
0000
0000
0100
0000
0000
1000
0000
,  // measure 23
0100
0010
0001
0010
,  // measure 24
0100
1000
0000
0000
0010
0000
0100
0000
,  // measure 25
0001
0000
1000
0001
,  // measure 26
0010
0000
0100
0010
,  // measure 27
0100
1000
0010
0000
,  // measure 28
0100
0001
0010
0100
,  // measure 29
1100
0000
1000
0010
,  // measure 30
1010
0000
0100
0001
,  // measure 31
0101
0000
1000
0000
,  // measure 32
0001
0010
0001
1000
,  // measure 33
0020
0000
0000
0000
,  // measure 34
0000
0000
0230
0302
,  // measure 35
2003
0000
0000
3002
0000
0000
0000
0000
,  // measure 36
0203
0000
0302
0023
,  // measure 37
0230
0000
0000
0000
,  // measure 38
1300
0100
0010
0001
,  // measure 39
0020
0000
0000
0000
,  // measure 40
0032
0000
0000
0103
0000
1000
0000
0000
,  // measure 41
0100
0000
0010
0000
,  // measure 42
1000
0001
1000
0000
,  // measure 43
0100
0000
0010
0000
,  // measure 44
0001
0100
0010
1000
,  // measure 45
0100
0000
0010
0000
,  // measure 46
0100
1000
0001
0000
,  // measure 47
0100
0000
0010
0000
,  // measure 48
2000
0000
0000
0000
,  // measure 49
3001
0000
0100
0000
,  // measure 50
0010
0000
1000
0000
,  // measure 51
0100
0000
0001
0000
,  // measure 52
0100
0000
1000
0000
,  // measure 53
0010
0100
0001
0000
,  // measure 54
0010
0100
1000
0000
,  // measure 55
0010
1000
0010
0000
,  // measure 56
0100
0001
0010
0100
,  // measure 57
2000
3001
0100
0000
,  // measure 58
0010
1000
0001
0000
,  // measure 59
0010
0100
0010
0000
,  // measure 60
0001
0100
0010
1000
,  // measure 61
1001
0000
0010
0000
,  // measure 62
0110
0000
0100
0000
,  // measure 63
0101
0000
0010
0000
,  // measure 64
1001
0000
0000
0000
,  // measure 65
2000
3010
0000
0000
,  // measure 66
0000
0100
0000
0000
0100
0000
0001
0000
,  // measure 67
1000
0000
0000
0100
0000
0000
1000
0000
,  // measure 68
0000
0001
0000
0000
0010
0000
0001
0000
,  // measure 69
0010
0000
0000
0100
0000
0000
1000
0000
,  // measure 70
0000
0010
0000
0000
0100
0000
0001
0000
,  // measure 71
0100
0000
0000
0010
0000
0000
1000
0000
,  // measure 72
0200
0000
0000
0000
,  // measure 73
0310
0110
0100
0000
,  // measure 74
1000
0010
0100
0010
,  // measure 75
1000
0001
0010
0000
,  // measure 76
0100
1000
0001
0100
,  // measure 77
0010
1000
0010
0000
,  // measure 78
0100
0001
0100
0010
,  // measure 79
0100
0000
0001
0010
,  // measure 80
0100
0000
0000
1000
0000
0001
0000
1000
,  // measure 81
0001
0000
0000
0100
0000
0000
0010
0000
,  // measure 82
0000
1000
0000
0000
0010
0000
0000
0000
,  // measure 83
1000
0000
0000
0001
0000
0000
0010
0000
,  // measure 84
0000
0001
0000
0000
1000
0000
0000
0000
,  // measure 85
0100
0000
0000
0010
0000
0000
0100
0000
,  // measure 86
0000
1000
0000
0000
0100
0000
0000
0000
,  // measure 87
0010
0000
0000
0001
0000
0000
0100
0000
,  // measure 88
0000
0001
0000
0000
2000
0000
0000
3020
,  // measure 89
0000
0000
0030
0000
;

//---------------dance-single - ----------------
#NOTES:
     dance-single:
     :
     Medium:
     7:
     0.432,0.534,0.121,0.198,0.009: // measure 1
0000
0000
0000
0000
,  // measure 2
0000
0000
0000
0000
,  // measure 3
0000
0000
0000
0000
,  // measure 4
0000
0000
0000
0000
,  // measure 5
0000
0000
0000
0000
,  // measure 6
0000
0000
0000
0000
,  // measure 7
0000
0000
0000
0000
,  // measure 8
0000
0000
0000
0000
,  // measure 9
1000
0000
0100
0010
0000
0000
0000
0100
,  // measure 10
1000
0010
0000
0100
0000
0000
0100
0000
,  // measure 11
0001
0000
0010
0000
0000
0010
0000
0001
,  // measure 12
1000
0000
0000
1000
0001
0000
0000
0000
,  // measure 13
1000
0000
0010
0100
0001
0000
0010
0000
,  // measure 14
0100
0000
1000
0001
0010
0000
0001
0000
,  // measure 15
0100
0001
0100
0000
0010
1000
0010
0000
,  // measure 16
2000
0000
0000
3200
0000
0000
0310
0000
,  // measure 17
1000
0000
0010
0000
,  // measure 18
0001
0000
0100
0000
,  // measure 19
0010
1000
0000
1000
,  // measure 20
0001
0100
0001
0000
1000
0010
1000
0000
,  // measure 21
0100
0000
0000
2000
0000
0000
0000
3000
,  // measure 22
0001
0000
0000
0200
0000
0000
0310
0000
,  // measure 23
1000
0100
0010
0001
,  // measure 24
0100
0010
0000
0000
1000
0000
0010
0000
,  // measure 25
0100
0000
0001
0000
1000
0001
0010
0000
,  // measure 26
0100
1000
0100
0000
0010
0001
0010
0000
,  // measure 27
0001
0100
1000
0100
,  // measure 28
0001
0010
1000
0010
,  // measure 29
0011
0000
0000
0000
0001
1000
0010
0000
,  // measure 30
0110
0000
0000
0000
0100
0001
1000
0000
,  // measure 31
1100
0000
1010
0000
,  // measure 32
1001
0000
0001
0000
1000
0100
0010
0001
,  // measure 33
0020
0000
0000
0000
,  // measure 34
0000
0000
0230
2300
,  // measure 35
3200
0000
0000
0320
0000
0000
0000
0000
,  // measure 36
0230
0000
2300
3002
,  // measure 37
0023
0000
0000
0000
,  // measure 38
0130
1000
0100
0000
0010
0001
0100
0000
,  // measure 39
0020
0000
0000
0000
,  // measure 40
0032
0000
0000
0013
0000
1000
0000
0100
,  // measure 41
1000
0010
1000
0000
,  // measure 42
0100
0010
0001
0000
,  // measure 43
1000
0001
0010
0000
,  // measure 44
0100
0000
1000
0000
0100
0010
0001
0010
,  // measure 45
0100
1000
0001
0000
,  // measure 46
0100
0010
1000
0000
0010
0000
0000
0000
,  // measure 47
1000
0100
0001
0000
0100
1000
0000
0000
,  // measure 48
0020
0000
0000
0000
,  // measure 49
1030
0000
0001
0100
0001
0000
0010
0000
,  // measure 50
0100
0000
1000
0010
1000
0000
0100
0000
,  // measure 51
0010
0000
0001
1000
0001
0000
0100
0000
,  // measure 52
0010
0000
1000
0001
1000
0000
0010
0000
,  // measure 53
0100
0000
0001
0010
0100
0000
1000
0000
,  // measure 54
0010
0000
1000
0100
0010
0000
0001
0000
,  // measure 55
1000
0010
0100
0010
1000
0000
0001
0000
,  // measure 56
0010
0001
0000
0010
0000
0100
1000
0100
,  // measure 57
2000
0000
3010
0000
0100
0001
0000
0000
,  // measure 58
1000
0001
0010
0000
0100
1000
0000
0000
,  // measure 59
0010
0100
0001
0000
1000
0001
0000
0000
,  // measure 60
0100
0010
1000
0000
0100
0010
0001
0000
,  // measure 61
1001
1000
1000
1000
,  // measure 62
1010
0010
0010
0010
,  // measure 63
0110
0000
0101
0000
,  // measure 64
1010
0000
0000
0000
0000
0001
0000
0001
,  // measure 65
2000
3010
0000
0000
,  // measure 66
0000
0001
0000
0000
0010
0000
0100
0000
,  // measure 67
0001
0000
0000
1000
0000
0000
0010
0000
,  // measure 68
0000
1000
0000
0000
0001
0100
0001
0100
,  // measure 69
0010
0000
0000
1000
0000
0000
0100
0000
,  // measure 70
0000
0010
0000
0000
0001
0000
0100
0010
,  // measure 71
1000
0000
0000
0100
0000
0000
0001
0000
,  // measure 72
0200
0000
0000
0000
,  // measure 73
0310
1100
1000
0010
,  // measure 74
0100
0001
0100
0000
0010
0000
1000
0000
,  // measure 75
0001
0010
0001
1000
0100
0000
0001
0000
,  // measure 76
0100
0010
0001
0000
0021
0000
1000
0000
,  // measure 77
0031
0000
1000
0010
0000
1000
0001
0000
,  // measure 78
0100
0010
0100
0001
0010
0000
0001
1000
,  // measure 79
0100
0000
0010
0000
0100
1000
0001
1000
,  // measure 80
0010
0000
0000
1001
0000
0110
0000
0010
,  // measure 81
1000
0000
0000
0001
0000
0000
0100
0000
,  // measure 82
0000
0001
0000
0000
1000
0010
1000
0010
,  // measure 83
0100
0000
0000
0001
0000
0000
1000
0000
,  // measure 84
0000
0000
0001
0000
0000
0000
0000
0000
0010
0000
0000
0100
1000
0000
0100
0000
,  // measure 85
1000
0000
0000
0010
0000
0000
0100
0000
,  // measure 86
0000
0000
0010
0000
0000
0000
0000
0000
1000
0000
0000
0100
0010
0000
0100
0000
,  // measure 87
0010
0000
0000
0001
0000
0000
0100
0000
,  // measure 88
0000
0002
0000
0000
0023
0000
0000
2030
,  // measure 89
0000
0000
0000
0000
0000
3000
0000
0000
;

//---------------dance-single - ----------------
#NOTES:
     dance-single:
     :
     Hard:
     9:
     0.566,0.802,0.224,0.207,0.116: // measure 1
0000
0000
0000
0000
,  // measure 2
0000
0000
0000
0000
,  // measure 3
0000
0000
0000
0000
,  // measure 4
0000
0000
0000
0000
,  // measure 5
0000
0000
0000
0000
,  // measure 6
0000
0000
0000
0000
,  // measure 7
0000
0000
0000
0000
,  // measure 8
0000
0000
0000
0000
,  // measure 9
0100
0000
0010
0001
0000
0000
0000
0100
,  // measure 10
0010
1000
0000
0100
0000
0000
0010
0000
,  // measure 11
0100
0000
1000
0000
0000
0001
0000
0100
,  // measure 12
0001
0000
0000
0001
0010
0000
0010
0000
,  // measure 13
0100
1000
0010
0100
0001
0010
0100
0000
,  // measure 14
1000
0100
0010
0001
0010
0100
1000
0000
,  // measure 15
0001
0100
0001
0000
0100
0001
0100
0000
0010
1000
0010
0000
1000
0010
1000
0000
,  // measure 16
0200
0010
0000
0320
0001
0000
0031
0100
,  // measure 17
0010
1000
0001
1000
,  // measure 18
0010
0100
0001
0100
,  // measure 19
0010
0000
0000
0000
1000
0000
0000
0000
0100
0000
0000
0000
0010
0000
0000
0001
,  // measure 20
0000
1000
0000
0000
0001
0000
0000
1000
0000
0010
0000
0000
1000
0010
0000
0000
,  // measure 21
0100
0000
0001
0020
0000
0000
0001
0030
,  // measure 22
0100
0000
1000
0020
1000
0000
0130
0000
,  // measure 23
0001
0000
0000
0000
0000
0000
0000
0000
0100
0000
0010
0000
0000
0000
0000
0010
0000
0000
0000
0000
0010
0000
0000
0000
1000
0000
0000
0000
0000
0000
0000
0000
,  // measure 24
0100
1001
0000
0000
0021
0000
1000
0000
,  // measure 25
0031
0000
0100
0000
1000
0100
0001
0000
,  // measure 26
0010
0001
0100
0001
0010
0100
1000
0010
,  // measure 27
1000
0001
0010
0001
1000
0100
0010
0100
,  // measure 28
1000
0010
0100
0001
0010
0100
1000
0000
,  // measure 29
1001
0000
0001
0010
0100
1000
0100
0000
,  // measure 30
0110
0000
0010
0001
0100
0010
1000
0000
,  // measure 31
1100
0010
0101
0010
,  // measure 32
1001
0000
0100
0000
0010
1000
0100
0010
,  // measure 33
0002
0000
0000
0000
,  // measure 34
0000
0000
0023
2030
,  // measure 35
3200
0000
0000
0320
0000
0000
0000
0000
,  // measure 36
0230
0000
2300
3020
,  // measure 37
0230
0000
0000
0000
,  // measure 38
1300
0100
0010
0001
0100
0010
1000
0001
,  // measure 39
0020
0000
0000
0000
,  // measure 40
0032
0000
0000
0103
0000
1000
0000
0100
,  // measure 41
0001
1000
0001
0000
0010
0001
0000
0000
,  // measure 42
1000
0100
0010
0000
0100
0001
0000
0000
,  // measure 43
0100
0010
0001
0000
1000
0010
0000
0000
,  // measure 44
0100
0001
0010
0000
0100
1000
0010
1000
,  // measure 45
0100
0010
0001
0000
0100
0010
0000
0000
,  // measure 46
1000
0100
0001
0000
0100
1000
0000
0000
,  // measure 47
0001
0100
1000
0000
0100
0001
0000
0000
,  // measure 48
1000
0000
0010
0000
0200
0000
0000
0000
0301
0000
0010
0000
0100
1000
0100
1000
,  // measure 49
0100
0000
0010
0100
1000
0001
0000
0000
,  // measure 50
0100
0010
1000
0001
0010
0001
0000
0000
,  // measure 51
1000
0100
0010
0100
0010
0001
0000
0000
,  // measure 52
0100
0010
1000
0010
0100
0001
0010
0100
,  // measure 53
1000
0001
0010
0001
0100
0010
0000
0000
,  // measure 54
0100
0010
1000
0100
0010
0001
0000
0000
,  // measure 55
1000
0100
0010
0100
1000
0010
0000
0000
,  // measure 56
0100
0110
0000
0101
0000
0001
0010
0100
,  // measure 57
2000
0000
3010
0000
0100
0001
0000
1000
,  // measure 58
0000
0001
0010
0100
1000
0010
0000
1000
,  // measure 59
0000
0100
0010
0100
1000
0010
0000
0100
,  // measure 60
0000
0010
1000
0100
0010
0001
0010
0100
,  // measure 61
0110
1000
0100
0001
,  // measure 62
0101
0001
0100
1000
,  // measure 63
1001
0000
1100
0000
,  // measure 64
0011
0000
0000
0000
0000
0001
0000
1000
,  // measure 65
0020
0130
0000
0000
,  // measure 66
0000
0101
0000
0000
0001
0000
1000
0000
,  // measure 67
1100
0000
0000
1010
0000
0000
0110
0000
,  // measure 68
0000
0000
0101
0000
0000
0000
0000
0000
0100
0000
0100
0000
0001
0100
0001
0100
,  // measure 69
0001
0000
0010
0100
0000
1000
0010
0000
,  // measure 70
0100
0000
0001
0000
0000
0000
0010
0000
0100
0000
0000
0000
1000
0100
1000
0100
,  // measure 71
1000
0000
0000
0000
0001
0000
1000
0000
0010
0000
0000
0100
0000
0000
0001
0000
,  // measure 72
0200
0000
0000
0000
,  // measure 73
0301
0000
0011
0000
0010
0100
1000
0100
,  // measure 74
0010
0001
0100
0010
0100
0001
1000
0000
,  // measure 75
0001
0100
0001
0000
0010
0000
0100
0000
1000
0000
0010
0000
0100
0000
0001
0000
,  // measure 76
0010
0011
0000
0000
0201
0000
1000
0000
,  // measure 77
0301
0000
1000
0010
1000
0100
0010
0000
,  // measure 78
0001
0010
0001
0000
0100
0000
0010
0000
0100
0000
0001
0000
1000
0000
0001
0000
,  // measure 79
1001
0000
0000
0000
0000
0000
0000
0000
1000
0000
0001
0000
1000
0100
1000
0000
,  // measure 80
0100
0000
0000
0011
0000
0101
0000
0010
,  // measure 81
1010
0000
0000
1000
0000
0000
0100
0000
,  // measure 82
0000
0000
1000
0000
0000
0000
0000
0000
0001
0000
0100
0001
0100
0000
0001
0100
,  // measure 83
0001
0000
0000
0010
0000
0000
0100
0000
,  // measure 84
0000
0000
1000
0000
0000
0000
0000
0000
0010
0000
0000
1000
0010
0000
0100
0001
,  // measure 85
0100
0000
0000
0001
0000
0000
0010
0000
,  // measure 86
0000
0000
0100
0000
0000
0000
0000
0000
0100
0000
0000
1000
0001
0000
0100
0010
,  // measure 87
0100
0000
0000
1000
0000
0000
0010
0000
,  // measure 88
0000
0002
0000
0000
2003
0000
0000
3002
,  // measure 89
0000
0000
0000
0000
0000
0003
0000
0000
;

//---------------dance-single - ----------------
#NOTES:
     dance-single:
     :
     Challenge:
     11:
     0.695,1.000,0.284,0.198,0.276:
0000
0000
0000
0000
,
0000
0000
0000
0000
,
0000
0000
0000
0000
,
0000
0000
0000
0000
,
0000
0000
0000
0000
,
0000
0000
0000
0000
,
0000
0000
0000
0000
,
0000
0000
0000
0000
,
1000
0000
0100
0010
0000
0000
0000
0001
,
0100
1000
0000
0100
0000
0000
0010
0000
,
0100
0000
0001
0000
0000
0001
0000
1000
,
0010
0000
0000
0001
0010
0000
1000
0000
,
0100
0010
1000
0010
0001
0010
0100
1000
,
0010
0100
0001
0100
0010
1000
0100
0010
,
0001
0100
0001
0100
0010
1000
0010
1000
0100
0010
0100
0010
0001
1000
0001
1000
,
0002
0000
0010
0000
0100
0003
0020
0000
0001
0000
0100
0030
0001
0000
1000
0000
,
0100
0010
0001
0000
0100
0010
1000
0000
,
0001
1000
0010
1000
0001
0010
0100
0010
,
0001
0000
0100
0000
0001
0000
0000
0000
1000
0000
0000
0000
0001
0000
0000
0100
,
0000
0100
0000
0000
1000
0000
0000
0100
0000
0100
0000
0100
0010
1000
0000
0000
,
0100
0000
0000
0000
1000
0001
0020
0000
0000
0000
0000
0000
0100
0000
0000
0030
,
0001
0000
0000
0000
0010
0001
0200
0000
0000
0001
0300
0001
1000
0000
0000
0000
,
0010
0000
0100
0000
0001
0010
0000
0001
0000
0010
0001
0000
0100
0000
0000
0000
,
0010
1001
0000
0000
1020
0000
0001
0000
,
1030
0000
0100
0000
0010
0000
0100
0000
1000
0000
0010
0000
0100
0000
0001
0100
,
0001
0000
0010
0000
0001
0000
0100
0000
0010
1000
0010
0000
1000
0000
0100
0000
,
0010
0000
0001
0000
1000
0000
0010
0000
1000
0001
1000
0000
0010
0000
0100
0000
,
0001
0000
0010
0000
1000
0000
0010
0000
0001
0100
0001
0000
0010
0000
0100
0000
,
1100
1000
0010
0100
0001
0010
0100
1000
,
1010
0010
0100
0001
0010
0001
0100
0010
,
1010
1000
0100
0000
0011
0001
0100
0000
,
1001
0000
0001
1000
0100
0000
1000
0000
0010
0000
0100
0010
0100
0000
0001
0000
,
0020
0000
0000
0000
,
0000
0000
0230
2300
,
3200
0000
0000
0302
0000
0000
0000
0000
,
0203
0000
2300
3020
,
0230
0000
0000
0000
,
1300
0100
0010
1000
0100
0010
1000
0010
,
0200
0000
0000
0000
,
0302
0000
0000
0103
0000
1000
0000
0001
,
0100
0010
1000
0100
0010
0001
0000
0000
,
1000
0010
0001
0010
0100
0001
0000
0000
,
1000
0100
0010
0100
1000
0001
0000
0000
,
1000
0100
0001
0100
1000
0010
0001
0010
,
1000
0001
0010
0100
0010
0001
0000
0000
,
1000
0010
0001
1000
0100
0001
0000
0000
,
1000
0100
0010
0100
0010
0001
0000
0000
,
0100
0000
0010
0000
2000
0000
0100
0000
3100
0000
1000
0000
0100
1000
0010
0100
,
0001
0010
0001
1000
0100
0010
0000
0001
,
0100
0000
0010
1000
0010
0000
0100
0000
0001
0000
0010
0000
0000
0000
0100
0000
,
1000
0000
0100
0010
0100
0000
0010
0000
0001
0000
0010
0000
0000
0000
0001
0000
,
0010
0000
0100
1000
0100
0000
1000
0000
0010
0000
0001
0000
0010
0000
1000
0000
,
0001
0000
0010
0100
0010
0000
0100
0000
1000
0000
0010
0000
0000
0000
0100
0000
,
0001
0000
0010
0001
0010
0000
0100
0000
0010
0000
0001
0000
0000
0000
1000
0000
,
0100
0000
0010
0001
0010
0000
0100
0000
1000
0000
0010
0000
0000
0000
0100
0000
,
0010
1001
0000
1100
0000
0100
0001
0100
,
2000
0000
3001
0010
0100
0010
0000
0001
,
1000
0000
0010
0100
0010
0000
1000
0000
0100
0000
0001
0000
0000
0000
0100
0000
,
1000
0000
0010
0100
0010
0000
0100
0000
0001
0000
0010
0000
0000
0000
0100
0000
,
1000
0000
0001
0100
0001
0000
1000
0000
0100
0000
0001
0000
0100
0000
1000
0000
,
1001
1000
0010
0001
,
0011
0001
0100
1000
,
1001
0000
0101
0000
,
1010
0000
0000
0000
0000
0110
0000
0110
,
2000
3001
0000
0000
,
0000
0011
0000
0000
0110
0000
1100
0000
,
1010
0000
1000
1001
0000
0001
0011
0000
,
0010
0000
0110
0000
0000
0000
0000
0000
0100
0000
0100
0000
1000
0010
1000
0010
,
0100
0000
0100
0101
0000
0001
0011
0000
,
0010
0000
0110
0000
0000
0000
0100
0000
1100
0000
0000
0000
1000
0010
0100
0001
,
0010
0000
0000
0000
0100
0000
0010
0000
0001
0000
0000
0010
0000
0000
0100
0000
,
1000
0010
1000
0000
0001
0000
0100
0001
0100
0000
0010
0000
1000
0000
0100
0000
,
0010
0000
1001
0000
0001
0010
0100
1000
,
0100
0010
0001
0000
0100
0000
0010
0000
1000
0010
0100
0000
0001
0000
0010
0000
,
0100
1000
0010
0000
0100
0001
0010
0000
0100
0000
0010
0000
0001
0000
0100
0000
,
0010
1010
0000
0000
0201
0000
1000
0000
,
0301
0010
0100
1000
0010
0100
0001
0000
,
1000
0100
0010
0000
0100
0000
1000
0000
0010
0000
0100
0000
0001
0010
0100
1000
,
0100
0000
0000
0000
0000
0000
0000
0000
0010
0000
0001
0000
1000
0010
0100
0001
,
1000
0000
0000
0011
0000
1010
0000
0001
,
1001
0000
0000
0100
0000
0010
1000
0000
,
0000
0000
0100
0000
0000
0000
0000
0000
0010
0001
0010
0001
0010
0100
0010
0100
,
1000
0000
0010
0001
0000
0010
1000
0000
,
0000
0000
0100
0000
0000
0000
0000
0000
0010
0000
0000
0001
0100
0000
0010
1000
,
0100
0000
0010
0001
0000
0000
0010
0000
,
0000
0000
0100
0000
0000
0000
0000
0000
1000
0100
1000
0100
0010
0100
0010
0100
,
1000
0000
0010
0001
0000
0100
1000
0000
,
0010
0200
0000
0000
0302
0000
0000
2003
,
0000
0000
0000
0000
0000
3000
0000
0000
;

//---------------dance-single - ----------------
#NOTES:
     dance-single:
     :
     Beginner:
     2:
     0.158,0.303,0.069,0.189,0.000: // measure 1
0000
0000
0000
0000
,  // measure 2
0000
0000
0000
0000
,  // measure 3
0000
0000
0000
0000
,  // measure 4
0000
0000
0000
0000
,  // measure 5
0000
0000
0000
0000
,  // measure 6
0000
0000
0000
0000
,  // measure 7
0000
0000
0000
0000
,  // measure 8
0000
0000
0000
0000
,  // measure 9
1000
0000
0000
0000
,  // measure 10
0010
0000
0000
0000
,  // measure 11
0100
0000
0000
0000
,  // measure 12
0001
0000
0010
0000
,  // measure 13
0100
0000
1000
0000
,  // measure 14
0001
0000
1000
0000
,  // measure 15
0010
0000
0100
0000
,  // measure 16
0002
0000
0000
0003
,  // measure 17
1000
0000
0000
0000
,  // measure 18
0001
0000
0000
0000
,  // measure 19
0020
0000
0030
0000
,  // measure 20
0200
0000
0300
0000
,  // measure 21
0010
0000
0000
0000
,  // measure 22
0001
0000
0000
0000
,  // measure 23
1000
0000
0010
0000
,  // measure 24
0100
0000
0010
0000
,  // measure 25
1000
0000
0001
0000
,  // measure 26
0010
0000
0100
0000
,  // measure 27
0020
0000
0030
0000
,  // measure 28
0001
0000
1000
0000
,  // measure 29
1001
0000
0000
0000
,  // measure 30
0110
0000
0000
0000
,  // measure 31
1001
0000
0001
0000
,  // measure 32
0100
0000
0000
0000
,  // measure 33
0002
0000
0000
0000
,  // measure 34
0000
0000
0003
0000
,  // measure 35
2000
0000
3000
0000
,  // measure 36
0200
0000
0300
0000
,  // measure 37
0020
0000
0030
0000
,  // measure 38
0001
0000
0100
0000
,  // measure 39
0020
0000
0000
0030
,  // measure 40
1000
0000
0000
0000
,  // measure 41
0001
0000
0000
0000
,  // measure 42
0010
0000
0000
0000
,  // measure 43
0001
0000
0000
0000
,  // measure 44
0100
0000
0010
0000
,  // measure 45
1000
0000
0000
0000
,  // measure 46
0100
0000
0000
0000
,  // measure 47
0010
0000
0000
0000
,  // measure 48
0002
0000
0000
0003
,  // measure 49
2000
3000
0000
0000
,  // measure 50
0001
0000
0000
0000
,  // measure 51
0200
0300
0000
0000
,  // measure 52
0020
0030
0000
0000
,  // measure 53
0200
0300
0000
0000
,  // measure 54
0001
0000
0000
0000
,  // measure 55
0020
0030
0000
0000
,  // measure 56
0200
0300
0000
0000
,  // measure 57
2000
3000
0001
0000
,  // measure 58
0100
0000
0010
0000
,  // measure 59
0200
0300
0001
0000
,  // measure 60
2000
3000
0100
0000
,  // measure 61
0110
0000
0000
0000
,  // measure 62
1001
0000
0000
0000
,  // measure 63
0110
0000
0010
0000
,  // measure 64
1000
0000
0000
0000
,  // measure 65
0002
0003
0000
0000
,  // measure 66
0000
0000
0000
0000
,  // measure 67
1000
0000
0000
0001
,  // measure 68
0000
0000
0100
0000
,  // measure 69
0001
0000
0000
0010
,  // measure 70
0000
0000
0100
0000
,  // measure 71
1000
0000
0000
0000
,  // measure 72
0020
0000
0000
0030
,  // measure 73
0000
0100
0000
0000
,  // measure 74
0001
0000
0010
0000
,  // measure 75
0100
0000
1000
0000
,  // measure 76
0100
0000
0010
0000
,  // measure 77
0001
0000
0000
0000
,  // measure 78
1000
0000
0000
0000
,  // measure 79
0100
0000
0010
0000
,  // measure 80
0110
0000
0000
0000
,  // measure 81
1001
0000
0000
0000
,  // measure 82
0000
0000
0000
0000
,  // measure 83
1000
0000
0000
0000
,  // measure 84
0000
0000
0000
0000
,  // measure 85
0010
0000
0000
0000
,  // measure 86
0000
0000
0000
0000
,  // measure 87
0100
0000
0000
0000
,  // measure 88
0000
0000
0000
0000
0002
0000
0000
0003
;
