#TITLE:TAKE ME TO THE HOSPITAL (Rusko Remix);
#SUBTITLE:;
#ARTIST:THE PRODIGY;
#TITLETRANSLIT:;
#SUBTITLETRANSLIT:;
#ARTISTTRANSLIT:;
#GENRE:;
#CREDIT:Pandemonium X & Chewi☆;
#MENUCOLOR:;
#METERTYPE:DDR;
#BANNER:TAKE ME TO THE HOSPITAL (Rusko Remix).png;
#BACKGROUND:TAKE ME TO THE HOSPITAL (Rusko Remix)-bg.png;
#LYRICSPATH:;
#CDTITLE:;
#MUSIC:TAKE ME TO THE HOSPITAL (Rusko Remix).mp3;
#OFFSET:-0.523;
#SAMPLESTART:14.220;
#SAMPLELENGTH:12.000;
#SELECTABLE:YES;
#LISTSORT:;
#DISPLAYBPM:70.000:280.000;
#BPMS:0.000=70.000,15.000=280.000,19.000=140.000,31.000=280.000,33.000=140.000,44.000=280.000,46.000=140.000,49.000=280.000,51.000=140.000,66.000=280.000,68.000=140.000,79.000=280.000,81.000=140.000,84.000=280.000,86.000=140.000,89.000=70.000,90.000=140.000,118.000=280.000,122.000=140.000,134.000=280.000,136.000=140.000,147.000=280.000,149.000=140.000,152.000=280.000,154.000=140.000,169.000=280.000,171.000=140.000,182.000=280.000,184.000=140.000,187.000=280.000,189.000=140.000,192.000=70.000,193.000=140.000,221.000=280.000,225.000=140.000;
#STOPS:;
#BGCHANGES:;
#ATTACKS:;

//---------------dance-single - Pandemonium X----------------
#NOTES:
     dance-single:
     Pandemonium X:
     Medium:
     7:
     0.458,0.489,0.483,0.232,0.101:
0000
0000
0000
0000
,
0000
0000
0000
0000
,
0100
0100
0010
1000
0001
0010
0100
0010
,
0001
0100
1000
0100
0001
0010
0200
0000
,
0000
0000
0000
0310
,
0110
0110
0001
1000
,
0101
1000
0101
0002
,
0103
0200
0310
0110
,
0000
1001
2000
3010
,
1010
0000
1010
0000
1000
0010
0100
0000
,
0110
0000
0101
0000
0001
1000
0100
0000
,
0110
0000
0000
0000
0110
0000
0010
0001
,
0100
0101
0000
0101
,
0001
1000
0100
0000
0110
0000
0110
0000
,
0110
1000
0001
1010
,
0001
1010
2000
3010
,
0020
0130
0110
0000
,
1001
0002
0103
0101
,
0101
0000
0001
0100
0010
0000
0110
0000
,
1010
0000
1000
0001
0010
0000
0110
0000
,
0000
0000
0110
0000
0100
1000
0010
0000
,
1010
0000
0000
0000
1010
0000
1000
0001
,
0010
0000
0000
0000
0200
0000
0000
0010
0310
0000
0000
0001
0000
0000
0100
0000
,
0010
0000
0000
1000
0000
0000
0001
0000
0010
0000
0000
0100
0000
0000
0010
0000
,
0001
0000
0000
1000
0000
0000
0001
0000
0100
0000
0000
0010
0000
0000
0100
0000
,
0010
0000
0000
1000
0000
0000
0001
0000
0010
0000
0000
0000
0000
0000
0000
0000
,
0100
0000
0000
1000
0000
0000
0010
0000
0100
0000
0000
0001
0000
0000
1000
0000
,
0001
0000
0000
0010
0000
0000
0001
0000
0010
0000
0000
0100
0000
0000
0010
0000
,
0001
0000
0000
0001
0000
0000
0001
0000
1000
0000
0000
1000
0000
0000
0001
0000
,
0100
0000
0000
0010
0000
0000
1000
0000
0200
0000
0000
0000
0000
0000
0000
0000
,
0000
0000
1300
1010
,
1000
0010
0100
0000
0101
0000
1010
0000
,
1001
1100
1001
0101
,
0011
0110
2200
3300
,
1100
0000
1000
0001
0010
0100
0010
0001
,
0100
0000
0010
1000
0001
0000
1000
0001
,
0010
0001
1000
0100
1000
0001
0200
0000
,
0000
0301
0002
0013
,
0020
0000
0000
0000
0130
0000
0100
1000
,
0010
0100
0010
0010
0100
0000
0100
1000
,
0100
0110
0101
0110
,
0101
0110
1010
1010
,
1001
0202
0303
0101
,
0100
0010
1000
0001
1000
0010
0001
0000
,
0001
0100
0010
0000
0100
0010
1000
0010
,
0100
0001
0100
0010
2000
0000
0000
0000
,
3001
0002
1003
2000
,
0000
0000
3001
0000
0001
0100
1000
0100
,
0002
0000
0000
0010
0013
0000
0000
0001
0000
0000
0100
0000
0100
0000
0000
0010
,
0000
0000
1000
0000
1000
0000
0000
0001
0000
0000
0010
0000
0010
0000
0000
0100
,
0000
0000
0100
0000
1000
0000
0000
0010
0000
0000
0100
0000
0001
0000
0000
1000
,
0000
0001
0010
0000
0010
0000
0010
0000
,
0001
0000
0100
0010
2000
0000
3001
0000
,
1000
0000
0100
1000
0020
0000
0130
0000
,
0010
0000
1000
0001
0020
0000
0031
0000
,
0100
0020
0000
0000
,
0000
0130
0000
0000
;

//---------------dance-single - Pandemonium X----------------
#NOTES:
     dance-single:
     Pandemonium X:
     Hard:
     10:
     0.745,0.842,0.377,0.743,0.608:
0000
0000
0000
0000
,
0000
0000
0000
0000
,
1000
0000
0010
0000
0100
0001
0020
0000
0031
0000
0010
0000
0100
1000
0010
0000
,
1100
0011
0101
1001
0101
1010
1001
0000
,
0000
0000
0000
0000
0000
0000
0000
0000
0000
1000
0001
0010
,
0001
0100
1000
0100
0000
0100
0100
0000
0100
0010
1000
0001
,
0010
0000
0001
0100
0000
0010
1000
0000
1000
0100
0010
1000
,
0001
0000
0001
0100
0000
0010
1000
0000
1000
2002
3003
0001
,
0000
1000
0000
0001
0000
0100
0010
0000
0100
0001
0100
0001
,
2000
3100
2000
3010
0110
0010
2002
3003
,
0202
0303
2020
3030
1002
0000
0013
0000
,
0010
0000
0100
0000
2002
3003
0001
0100
,
1000
2000
0000
3100
,
0200
0000
0000
0302
0000
0000
0013
0001
0100
1000
0100
0001
,
0010
0000
0010
0001
0000
0001
0010
0100
1000
0010
0000
0100
,
0001
0100
0001
1000
0000
1000
0010
0010
1000
0001
0000
0001
,
0001
0000
1000
1000
0000
0010
0200
0000
0320
0000
1030
0000
,
0001
0000
0000
0000
0001
0000
0100
0000
0001
0000
0010
0000
1000
0000
0000
0000
0010
0000
0002
0000
0000
0103
0000
0000
,
0002
0013
0002
1000
2000
3003
0220
0330
,
0202
0303
2020
3030
2200
3300
2000
0000
,
0000
0000
3010
0000
0100
0100
0100
0000
,
2002
0000
0000
3003
1001
0010
1002
0000
,
0103
0000
0000
0000
0000
0000
0000
0000
0010
0000
0000
0010
0000
0000
1010
0000
1100
0000
0000
0000
0000
0000
1000
0000
0100
0000
0000
0000
1000
0000
0000
0000
,
0001
0000
0000
0001
0010
0000
0001
0000
1000
0000
0000
0001
0100
0000
0010
0000
,
1000
0000
0000
1000
0100
0000
0010
0000
0100
0000
0000
1000
0010
0000
0100
0000
,
0001
0000
0000
0001
1000
0000
0100
0000
0001
0000
0100
0000
1000
0000
0010
0000
,
0110
0000
0000
0100
0001
0000
0010
0000
0100
0000
0000
1000
0100
0000
0010
0000
,
0100
0000
0000
0100
0010
0000
0001
0000
1000
0000
0000
0001
0100
0000
0010
0000
,
0100
0000
0000
0001
0100
0000
0000
0010
1000
0000
0000
1000
0100
0000
0000
0100
,
0010
0000
0000
0010
0001
0000
0000
0002
2000
0000
0000
0000
0000
0000
0000
0000
,
0000
0000
0000
0000
3003
0000
0000
0000
0001
1000
0100
0000
0100
0000
1000
0010
,
0100
0000
0010
0000
1000
0001
0010
0000
0010
0001
0100
0000
0100
0010
1000
0000
,
0100
0000
0100
0000
0100
0010
0100
0000
0010
0001
0100
0000
0100
0000
0010
0000
,
1000
0010
0100
0000
0010
1000
0001
0000
2002
0000
0000
0000
3000
0000
0003
0000
,
1000
0001
1000
0000
0001
0100
0001
0000
0010
0000
0010
0000
0010
0100
1000
0000
,
1000
0100
0010
0000
0010
0100
0010
0000
0010
0100
0001
0000
1000
0001
1000
0000
,
0001
0000
0001
0000
0100
0010
1000
0000
1000
0001
0010
0000
2002
0000
0000
0000
,
3000
0000
0003
0000
0001
1000
0010
0000
0000
0100
0000
0010
2000
0000
0020
3030
,
2020
0000
0000
0000
3000
0000
0030
0000
0010
0100
0001
0000
1000
0001
1000
0000
,
0001
1000
0001
0000
0001
0200
0010
0300
0100
0000
0100
0000
0010
2000
0100
3000
,
0100
0020
0001
0030
0001
0200
0010
0300
0100
0020
1000
0030
1000
0002
0010
0003
,
0010
0200
1000
0300
1000
0020
0100
0030
0100
0000
0100
0000
0010
0200
0001
0300
,
1000
0002
0010
0003
0022
0000
0000
0000
0003
0000
0030
0000
0010
0200
1000
0300
,
1000
0002
0100
0003
0010
0000
0100
0000
0110
0020
0100
0030
0100
0002
0010
0003
,
0100
0020
0100
0030
0010
0002
1000
0003
0001
2000
0010
0000
3010
0000
0010
0000
,
0010
1000
0100
0000
0100
0010
0001
0000
2002
0000
0000
0000
3000
0000
0003
0000
,
0001
2000
0010
3000
0000
0200
0000
0320
1000
0000
1030
0000
2020
0000
0000
0000
,
3000
0000
0030
0000
0010
0100
0001
0000
1000
0001
1000
0000
0001
1000
0001
0000
,
0001
0100
0010
1010
1100
0000
0000
1000
0100
0000
1000
0000
1010
0000
0000
0100
,
0001
0000
0010
0000
1100
0000
0000
1000
0010
0000
0100
0000
0101
0000
0000
0010
,
0100
0000
0001
0000
1100
0000
0000
1000
0010
0000
0100
0000
0101
0000
0000
0001
,
1000
0100
2000
3100
0200
0310
0110
0010
,
0100
1000
0001
0100
0020
0000
1030
0001
,
0010
1000
0010
0001
0200
0000
0301
1000
,
0100
0000
0000
1000
0000
0000
0010
0000
0000
0100
0000
0000
0020
0000
0000
0000
0000
0000
1030
0000
0001
0000
0010
0000
,
1000
0010
0001
0200
0000
0000
0000
0000
0000
0000
0000
0000
,
0000
0310
0000
0000
;

//---------------dance-single - Chewi----------------
#NOTES:
     dance-single:
     Chewi:
     Easy:
     5:
     0.359,0.407,0.483,0.222,0.000:
0000
0000
0000
0000
,
0000
0000
0000
0000
,
2000
0000
3002
0000
,
0013
1000
0100
1000
0010
0001
0200
0000
,
0000
0000
0300
1000
,
0010
0100
0101
0001
,
1000
0100
0010
0001
,
0010
0100
1100
2002
,
0000
3003
0100
0010
,
1000
0100
0010
0101
,
0001
0100
0010
1000
,
2002
0000
3003
0010
,
0100
0202
0000
0303
,
0100
0010
1100
0010
,
0001
0100
0010
0100
,
0001
1000
1100
0010
,
0001
1000
1002
0000
,
0103
1010
0100
0001
,
0011
0100
1000
0010
,
0010
1000
0001
0012
,
0000
0103
1000
0100
,
2010
0000
3100
1000
,
0001
0101
1010
0100
,
0001
0100
0010
1000
,
1001
0000
1100
0010
,
0001
0100
0010
1000
,
1010
0000
0101
0001
,
1000
0100
0010
0000
,
0011
0100
1000
0001
,
1000
0001
0202
0000
,
0000
0000
0000
0303
1000
0000
0010
0000
,
0100
0001
0101
1000
,
1100
0010
0001
0010
,
0100
1000
1002
0000
,
0103
1010
0100
0101
,
0010
0100
1000
0010
,
1000
0100
0010
0012
,
0000
0103
0010
0100
,
0120
0000
1030
1100
,
0011
1100
1000
0101
,
1010
0001
1000
0100
,
0010
0001
1010
0100
,
0101
0120
0000
1030
,
1001
0010
1100
0010
,
0001
0100
0110
0100
,
0001
1000
2100
0000
,
3001
0010
0100
0220
,
0000
0330
0010
0010
,
0101
1010
0100
0001
,
0010
0100
1000
1100
,
0000
1100
0010
0100
,
0001
1000
0100
1001
,
0000
0110
0001
0100
,
1000
0010
0100
0101
,
0000
1010
0100
0001
,
1000
2002
0000
0000
,
0000
0000
0000
0000
0000
0000
0000
0000
0000
0000
0000
0000
0000
0000
0000
0000
0000
0000
0000
0000
0000
0000
0000
0000
0000
0000
0000
0000
0000
0000
0000
0000
0000
0000
0000
0000
0000
0000
0000
0000
0000
0000
0000
0000
0000
0000
0000
0000
3000
0003
0000
0000
0000
0000
0000
0000
0000
0000
0000
0000
0000
0000
0000
0000
0000
0000
0000
0000
0000
0000
0000
0000
0000
0000
0000
0000
0000
0000
0000
0000
0000
0000
0000
0000
0000
0000
0000
0000
0000
0000
0000
0000
0000
0000
0000
0000
0000
0000
0000
0000
0000
0000
0000
0000
0000
0000
0000
0000
0000
0000
0000
0000
0000
0000
0000
0000
0000
0000
0000
0000
0000
0000
0000
0000
0000
0000
0000
0000
0000
0000
0000
0000
0000
0000
0000
0000
0000
0000
0000
0000
0000
0000
0000
0000
0000
0000
0000
0000
0000
0000
0000
0000
0000
0000
0000
0000
0000
0000
0000
0000
0000
0000
0000
0000
0000
0000
0000
0000
0000
0000
0000
0000
0000
0000
0000
0000
0000
0000
0000
0000
0000
0000
0000
0000
0000
0000
0000
0000
0000
0000
0000
0000
;

//---------------dance-single - Chewi----------------
#NOTES:
     dance-single:
     Chewi:
     Beginner:
     3:
     0.194,0.217,0.299,0.087,0.000: // measure 1
0000
0000
0000
0000
,  // measure 2
0000
0000
0000
0000
,  // measure 3
2000
3000
0002
0003
,  // measure 4
0010
0100
0010
0200
,  // measure 5
0000
0000
0300
1000
,  // measure 6
0000
0100
0000
0001
,  // measure 7
0000
0100
0000
0001
,  // measure 8
0000
0100
0000
1001
,  // measure 9
0000
0000
0100
0000
,  // measure 10
1000
0000
0010
0000
,  // measure 11
0001
0000
0010
0000
,  // measure 12
1001
0000
0000
0010
,  // measure 13
0000
0110
0000
0000
,  // measure 14
0100
0000
1001
0000
,  // measure 15
0001
0000
0010
0000
,  // measure 16
0001
0000
0110
0000
,  // measure 17
0001
0000
1001
0000
,  // measure 18
0000
0110
0000
0001
,  // measure 19
0000
0100
0000
0010
,  // measure 20
0000
1000
0000
1001
,  // measure 21
0000
0000
0100
0000
,  // measure 22
0110
0000
0000
1000
,  // measure 23
0000
0000
0002
0003
0001
0000
0000
0000
,  // measure 24
0001
0000
0010
0000
,  // measure 25
2000
3000
1000
0000
,  // measure 26
0001
0000
0010
0000
,  // measure 27
0020
0030
0010
0000
,  // measure 28
1000
0000
0010
0000
,  // measure 29
1001
0000
0000
0001
,  // measure 30
0000
0000
1001
0000
,  // measure 31
0000
0000
1000
0000
,  // measure 32
0100
0000
1001
0000
,  // measure 33
0110
0000
0001
0000
,  // measure 34
0100
0000
1001
0000
,  // measure 35
0000
0110
0000
1001
,  // measure 36
0000
0100
0000
0010
,  // measure 37
0000
0100
0000
1001
,  // measure 38
0000
0000
0010
0000
,  // measure 39
0110
0000
0000
1001
,  // measure 40
0000
0100
0000
0100
,  // measure 41
0000
0001
0000
0100
,  // measure 42
0000
0001
0000
0100
,  // measure 43
0000
0110
0000
0000
,  // measure 44
1001
0000
0100
0000
,  // measure 45
0001
0000
0110
0000
,  // measure 46
0001
0000
1001
0000
,  // measure 47
0000
0001
0000
0110
,  // measure 48
0000
0000
0010
0000
,  // measure 49
2000
3000
1000
0000
0000
0000
0001
0000
,  // measure 50
0000
0100
0000
1001
,  // measure 51
0000
0110
0000
0100
,  // measure 52
0000
0010
0000
1001
,  // measure 53
0000
0110
0000
0100
,  // measure 54
0000
0010
0000
1001
,  // measure 55
0000
0110
0000
0001
,  // measure 56
0000
2002
0000
0000
,  // measure 57
0000
0000
0000
0000
0000
0000
0000
0000
0000
0000
0000
0000
0000
0000
0000
0000
0000
0000
0000
0000
0000
0000
0000
0000
0000
0000
0000
0000
0000
0000
0000
0000
0000
0000
0000
0000
0000
0000
0000
0000
0000
0000
0000
0000
0000
0000
0000
0000
3000
0003
0000
0000
0000
0000
0000
0000
0000
0000
0000
0000
0000
0000
0000
0000
0000
0000
0000
0000
0000
0000
0000
0000
0000
0000
0000
0000
0000
0000
0000
0000
0000
0000
0000
0000
0000
0000
0000
0000
0000
0000
0000
0000
0000
0000
0000
0000
0000
0000
0000
0000
0000
0000
0000
0000
0000
0000
0000
0000
0000
0000
0000
0000
0000
0000
0000
0000
0000
0000
0000
0000
0000
0000
0000
0000
0000
0000
0000
0000
0000
0000
0000
0000
0000
0000
0000
0000
0000
0000
0000
0000
0000
0000
0000
0000
0000
0000
0000
0000
0000
0000
0000
0000
0000
0000
0000
0000
0000
0000
0000
0000
0000
0000
0000
0000
0000
0000
0000
0000
0000
0000
0000
0000
0000
0000
0000
0000
0000
0000
0000
0000
0000
0000
0000
0000
0000
0000
0000
0000
0000
0000
0000
0000
;
