#TITLE:Scheibe;
#SUBTITLE:;
#ARTIST:Lady Gaga;
#TITLETRANSLIT:;
#SUBTITLETRANSLIT:;
#ARTISTTRANSLIT:;
#CREDIT:;
#BANNER:scheibe.png;
#BACKGROUND:scheibe-bg.png;
#LYRICSPATH:Scheibe.lrc;
#CDTITLE:;
#MUSIC:scheibe.mp3;
#OFFSET:0.485;
#SAMPLESTART:41.060;
#SAMPLELENGTH:12.000;
#SELECTABLE:YES;
#BPMS:0.000=131.000;
#STOPS:40.500=0.920
;
#BGCHANGES:;

//---------------dance-single - ----------------
#NOTES:
     dance-single:
     :
     Easy:
     3:
     0.223,0.295,0.224,0.160,0.000:
0000
0000
0000
0000
,
0000
0000
0000
0000
,
0000
0000
0000
0000
,
0000
0000
0000
0000
,
0000
0000
0000
0000
,
0000
0000
0000
0000
,
0000
0000
0000
2000
,
3000
0000
0001
0002
,
0003
0000
1000
2000
,
3000
0000
0100
0200
,
0000
1300
0100
0010
,
0000
0001
0100
0010
,
0000
1000
0100
1000
,
0000
2002
0000
3003
,
0000
0001
0100
0001
,
0000
1000
0100
1000
,
0001
0100
0001
1000
,
0002
0003
0000
0000
,
0000
1000
0010
1000
,
0100
1000
0001
0010
,
0001
1000
0001
1000
,
0002
0003
0000
0000
,
0000
1001
0000
0000
,
0000
1100
0000
0000
,
0000
0101
0000
0000
,
0000
0110
0000
0000
,
0000
2001
3001
0100
,
0001
1000
0100
1000
,
0001
2002
3003
1000
,
0100
0010
0001
0100
,
0001
2002
3003
0001
,
0100
0001
1000
0100
,
0000
2002
3003
0001
,
0100
0010
1000
0001
,
1000
1001
0000
1100
,
0000
0101
0000
0000
,
0000
1010
0000
0011
,
0000
1001
0000
0000
,
0000
0110
0000
1100
,
0000
0101
0000
0000
,
0000
1001
0000
0101
,
0000
1100
0000
0000
,
0000
0001
0100
0010
,
0000
1000
0100
0010
,
0000
0001
0100
0001
,
0000
1000
0100
1000
,
0000
0001
0001
0001
,
0000
1000
1000
1000
,
0000
0100
1000
0001
,
0000
0010
0001
0100
,
0010
1000
0000
0000
;

//---------------dance-single - ----------------
#NOTES:
     dance-single:
     :
     Medium:
     6:
     0.341,0.348,0.064,0.096,0.118:
0000
0000
0000
0000
,
0000
0000
0000
0000
,
0000
0000
0000
0000
,
0000
0000
0000
0000
,
0000
0000
0000
0000
,
0000
0000
0000
0000
,
0000
0000
0000
0000
0000
0000
0000
0000
0000
0000
0000
0000
0001
0000
0000
0001
,
0000
0000
0001
0000
0000
0000
0000
0000
0100
0000
0000
0000
0010
0000
0000
0010
,
0000
0000
0010
0000
0000
0000
0000
0000
1000
0000
0000
0000
0100
0000
0000
0100
,
0000
0100
0000
1000
0001
1000
0200
0000
,
0000
0000
0000
0300
1000
0000
0000
0010
0000
0000
1000
0000
0000
0000
0000
0000
,
0000
0000
0000
0000
0001
0000
0000
0100
0000
0000
0001
0000
0000
0000
0000
0000
,
0000
0000
0000
0000
1000
0000
0000
0010
0000
0000
1000
0000
0000
0000
0000
0000
,
0000
0000
0000
0000
0001
0000
0000
0100
0000
0000
0001
0000
0000
0000
0000
0000
,
0000
0000
0000
0000
1000
0000
0000
0001
0000
0000
1000
0000
0000
0000
0001
0000
,
0100
0000
0001
0000
0100
0000
0000
0001
0000
0000
1000
0000
0000
0000
0100
0000
,
0000
0000
0010
0000
0000
0000
0000
0100
0000
0000
0010
0000
0000
0000
0001
0000
,
0100
0001
0200
0000
0301
0000
0000
1000
,
0100
0000
1000
0000
0100
0000
0000
1000
0000
0000
0001
0000
0000
0000
0100
0000
,
0000
0000
0010
0000
0000
0000
0000
0100
0000
0000
0010
0000
0000
0000
1000
0000
,
0100
1000
0200
0000
1300
1000
0000
0001
,
0100
0001
0100
0000
0001
0000
0001
0000
,
0010
0000
0000
0000
1100
0000
0000
0000
0100
0000
0000
0100
0000
0000
0100
0000
,
0000
0000
0000
0000
0011
0000
0000
0000
0010
0000
0000
0010
0000
0000
0010
0000
,
0000
0000
0000
0000
1010
0000
0000
0000
1000
0000
0000
1000
0000
0000
1000
0000
,
0000
0000
0000
0000
0101
0000
0000
0000
0001
0000
0000
0001
0000
0000
0001
0000
,
0000
0000
1000
0000
0100
0010
0100
0000
,
1000
0000
0001
0010
0001
0010
0100
1000
,
0001
0000
1001
0000
0000
0000
1000
0010
,
1000
0010
0000
1000
0001
1000
0001
0100
,
0001
0000
1001
0000
0000
0000
0001
1000
,
0001
0000
1000
0010
1000
0100
1000
0100
,
0010
0000
0000
0000
0001
0010
0001
0010
,
0001
0000
1000
0100
1000
0100
0010
0001
,
1000
0001
0100
0010
,
1000
0001
0000
1000
0100
1000
0010
1000
,
0100
1000
0100
0010
,
0001
1000
0000
0001
0100
0001
0010
0001
,
0100
0001
0010
0100
,
1000
0010
0000
0100
0010
0100
0010
0100
,
0010
0100
0001
1000
,
0001
0100
0000
0010
1000
0010
1000
0100
,
1000
0000
0000
0000
0001
0000
0000
0100
0000
0000
0002
0000
0000
0000
0000
0000
,
0003
0000
0000
0000
1000
0000
0000
0100
0000
0000
2000
0000
0000
0000
0000
0000
,
3000
0000
0000
0000
0001
0000
0000
1000
0000
0000
0002
0000
0000
0000
0000
0000
,
1003
0100
1000
0100
1000
0001
0000
0000
,
0000
0000
0000
0000
1000
0000
0000
0100
0000
0000
2000
0000
0000
0000
0000
0000
,
3000
0000
0000
0000
0001
0000
0000
0100
0000
0000
0002
0000
0000
0000
0000
0000
,
0003
0000
0000
0000
1000
0000
0000
0001
0000
0000
2000
0000
0000
0000
0000
0000
,
3001
0100
0001
0100
0001
1000
0100
1000
,
0010
1000
0000
0000
0000
0000
0000
0000
;

//---------------dance-single - Copied from Copied f----------------
#NOTES:
     dance-single:
     Copied from Copied f:
     Hard:
     7:
     0.463,0.455,0.171,0.150,0.176:
0000
0000
0000
0000
,
0000
0000
0000
0000
,
0000
0000
0000
0000
,
0000
0000
0000
0000
,
0000
0000
0000
0000
,
0000
0000
0000
0000
,
0000
0000
0000
0000
0000
0000
0000
0000
0000
0000
0000
0000
1000
0000
0000
0100
,
0000
0000
1000
0000
0000
0000
1000
0000
0010
0000
0100
0000
0001
0000
0000
0010
,
0000
0000
0001
0000
0000
0000
0001
0000
0010
0000
0100
0000
1000
0000
0000
0010
,
0000
0000
0100
0000
0000
0000
0010
0000
1000
0000
0001
0000
0100
0000
0001
1000
,
0000
0001
1000
0000
0100
0000
0000
1000
0000
0000
0010
0000
0000
0000
0100
0000
,
0010
0000
1000
0000
0001
0000
0000
0010
0000
0000
0001
0000
0000
0000
0010
0000
,
0001
0000
1000
0000
0100
0000
0000
0010
0000
0000
0100
0000
0000
0000
0100
0000
,
0010
0000
0001
0000
1000
0000
0001
0100
0000
0001
0100
0000
0001
0000
1000
0000
,
0010
0000
0100
0000
0001
0000
0000
0100
0000
0000
0010
0000
0000
0000
1000
0000
,
0100
0000
0001
0000
0100
0000
0000
1000
0000
0000
0010
0000
0000
0000
1000
0000
,
0001
0000
0100
0000
0001
0000
0000
0010
0000
0000
0001
0000
0000
0000
1000
0000
,
0100
0000
0010
0002
0000
0000
0000
0000
1003
0000
0001
0000
0100
0000
0010
0000
,
1000
0000
0100
0000
0010
0000
0000
0001
0000
0000
0100
0000
0000
0000
0010
0000
,
1000
0000
0001
0000
0010
0000
0000
0001
0000
0000
1000
0000
0000
0000
0001
0000
,
0100
0000
1000
0000
0100
0000
0000
0001
0000
0000
0010
0000
0000
0000
0001
0000
,
0100
0000
0010
2000
0000
0000
0000
0000
3001
0000
1000
0000
0001
0000
0100
0000
,
0010
0000
0000
0000
0020
0000
0000
0000
0100
0000
0000
0100
0000
0000
0130
0000
,
0000
0000
0001
0000
0200
0000
0000
0000
0010
0000
0000
0010
0000
0000
0310
0000
,
0000
0000
1000
0000
0002
0000
0000
0000
1000
0000
0000
1000
0000
0000
1003
0000
,
0000
0000
0001
0000
2000
0000
0000
0000
0010
0000
0000
0010
0000
0000
3010
0000
,
0000
0010
0000
0000
0201
0000
0000
0000
0310
0000
1000
0000
0010
0000
1000
0000
,
0001
0100
0010
1000
0001
0010
1000
0010
,
0001
0000
2001
0000
3001
0100
0010
1000
,
0100
0010
0100
1000
0001
0010
0010
0001
,
1000
0000
0210
0000
0310
0100
0001
1000
,
0100
1000
0001
0010
0001
0100
1000
0100
,
0001
0000
0021
0000
0031
0100
0010
1000
,
0100
1000
0001
0100
0010
1000
0100
0100
,
0010
0011
0101
1010
,
0001
2000
0000
3010
0100
0001
0010
0010
,
0100
1100
1001
0011
,
0001
0200
0000
0310
1000
0100
1000
1000
,
0010
1001
1010
0110
,
1000
0020
0000
1030
0100
0010
0001
0001
,
0100
0101
1010
1001
,
0001
0020
0000
0130
0010
0001
0100
0100
,
0010
0000
0000
0000
1000
0000
0000
0100
0000
0000
1000
0000
0000
0000
0001
0000
,
0010
0000
0100
0000
0010
0000
0000
0001
0000
0000
0010
0000
0000
0000
0010
0000
,
0001
0000
1000
0000
0010
0000
0000
1000
0000
0000
0010
0000
0000
0000
0100
0000
,
0001
0000
1000
0000
0100
0000
1000
0001
0000
1000
0001
0000
1000
0000
0100
0000
,
0001
0000
0100
0000
1000
0000
0000
0010
0000
0000
0100
0000
0000
0000
0001
0000
,
1000
0000
0100
0000
0010
0000
0000
0001
0000
0000
0100
0000
0000
0000
0010
0000
,
1000
0000
0001
0000
0100
0000
0000
0001
0000
0000
1000
0000
0000
0000
0001
0000
,
1000
0000
0001
0000
0100
0000
0001
0100
0000
0001
0100
0000
0010
0000
1000
0000
,
0100
0001
0000
0000
0000
0000
0000
0000
;

//---------------dance-single - Copied from----------------
#NOTES:
     dance-single:
     Copied from:
     Beginner:
     2:
     0.195,0.241,0.064,0.107,0.000: // measure 1
0000
0000
0000
0000
,  // measure 2
0000
0000
0000
0000
,  // measure 3
0000
0000
0000
0000
,  // measure 4
0000
0000
0000
0000
,  // measure 5
0000
0000
0000
0000
,  // measure 6
0000
0000
0000
0000
,  // measure 7
0000
0000
0000
1000
,  // measure 8
0000
0000
0000
1000
,  // measure 9
0000
0000
0000
0001
,  // measure 10
0000
0000
0000
0001
,  // measure 11
0000
1000
1000
0000
,  // measure 12
0100
0010
0010
0000
,  // measure 13
0001
0100
0100
0000
,  // measure 14
0100
0010
0010
0000
,  // measure 15
1000
0001
0100
0000
,  // measure 16
0100
0010
1000
0000
,  // measure 17
1000
0100
0010
0000
,  // measure 18
0001
2002
0000
0000
,  // measure 19
3003
0001
1000
0100
,  // measure 20
0000
0100
1000
0010
,  // measure 21
0000
0010
0100
0001
,  // measure 22
0000
2002
0000
0000
,  // measure 23
3003
0001
0000
0000
,  // measure 24
0000
1000
0000
0000
,  // measure 25
0000
0001
0000
0000
,  // measure 26
0000
1000
0000
0000
,  // measure 27
0000
0010
0010
0010
,  // measure 28
2000
0000
3001
0100
,  // measure 29
0010
1000
1000
1000
,  // measure 30
0002
0000
0013
0001
,  // measure 31
1000
0001
0001
0001
,  // measure 32
0200
0000
0310
1000
,  // measure 33
0100
1000
1000
1000
,  // measure 34
0002
0000
0103
0010
,  // measure 35
1000
0001
0000
0001
,  // measure 36
1000
1001
0000
0000
,  // measure 37
0001
0010
0000
0100
,  // measure 38
0010
0110
0000
0000
,  // measure 39
0010
0100
0000
1000
,  // measure 40
0100
1100
0000
0000
,  // measure 41
1000
0001
0000
1000
,  // measure 42
0001
1001
0000
0000
,  // measure 43
0001
1000
1000
0000
,  // measure 44
0001
0001
0100
0000
,  // measure 45
0100
0010
0010
0000
,  // measure 46
1000
0002
0000
1000
,  // measure 47
1003
0001
0001
0000
,  // measure 48
0010
0001
0001
0000
,  // measure 49
0100
0010
0010
1000
,  // measure 50
0000
0002
0000
1000
,  // measure 51
1003
0000
0000
0000
;
