#TITLE:Seoul Song;
#SUBTITLE:;
#ARTIST:Girls' Generation+Super Junior;
#TITLETRANSLIT:;
#SUBTITLETRANSLIT:;
#ARTISTTRANSLIT:;
#CREDIT:;
#BANNER:Seoul Song Banner.png;
#BACKGROUND:Seoul Song Background.png;
#LYRICSPATH:Seoul Song.lrc;
#CDTITLE:;
#MUSIC:Seoul Song.mp3;
#OFFSET:-0.650;
#SAMPLESTART:55.244;
#SAMPLELENGTH:15.000;
#SELECTABLE:YES;
#BPMS:0.000=123.000;
#STOPS:;
#BGCHANGES:;

//---------------dance-single - ----------------
#NOTES:
     dance-single:
     :
     Beginner:
     1:
     0.087,0.126,0.000,0.000,0.000: // measure 1
0000
0000
0000
0000
,  // measure 2
0000
0000
0000
0000
,  // measure 3
0000
0000
0000
0000
,  // measure 4
0000
0000
0000
0000
,  // measure 5
1000
0000
0000
0000
,  // measure 6
1000
0000
0000
0000
,  // measure 7
0001
0000
0000
0000
,  // measure 8
0001
0000
0000
0000
,  // measure 9
1000
0000
0000
0000
,  // measure 10
0010
0000
0010
0000
,  // measure 11
0100
0000
0000
0000
,  // measure 12
0001
0000
0001
0000
,  // measure 13
0100
0000
0000
0000
,  // measure 14
0001
0000
0000
0000
,  // measure 15
1000
0000
0000
0000
,  // measure 16
0010
0000
0000
0000
,  // measure 17
1000
0000
1000
0000
,  // measure 18
0010
0000
0000
0000
,  // measure 19
0100
0000
0100
0000
,  // measure 20
0001
0000
0000
0000
,  // measure 21
1000
0000
0000
0000
,  // measure 22
0100
0000
0000
0000
,  // measure 23
0010
0000
0000
0000
,  // measure 24
0001
0000
0000
0000
,  // measure 25
0100
0000
0000
0000
,  // measure 26
0000
0000
0000
0000
,  // measure 27
0010
0000
0000
0000
,  // measure 28
0000
0000
0000
0000
,  // measure 29
1000
0000
0001
0000
,  // measure 30
0100
0000
0010
0000
,  // measure 31
0100
0000
0000
0000
,  // measure 32
0001
0000
0000
0000
,  // measure 33
1000
0000
0000
0000
,  // measure 34
0010
0000
0100
0000
,  // measure 35
0001
0000
0000
0000
,  // measure 36
0100
0000
0010
0000
,  // measure 37
1000
0000
0100
0000
,  // measure 38
0010
0000
0001
0000
,  // measure 39
1000
0000
0000
0000
,  // measure 40
0001
0000
0000
0000
,  // measure 41
0100
0000
0001
0000
,  // measure 42
0100
0000
0000
0000
,  // measure 43
0010
0000
1000
0000
,  // measure 44
0010
0000
0000
0000
,  // measure 45
1000
0000
0000
0000
,  // measure 46
1000
0000
1000
0000
,  // measure 47
0001
0000
0000
0000
,  // measure 48
0001
0000
0001
0000
,  // measure 49
0100
0000
0000
0000
,  // measure 50
0100
0000
0100
0000
,  // measure 51
0010
0000
0000
0000
,  // measure 52
0010
0000
0010
0000
,  // measure 53
1000
0000
0000
0000
;

//---------------dance-single - ----------------
#NOTES:
     dance-single:
     :
     Easy:
     3:
     0.206,0.254,0.068,0.136,0.000: // measure 1
0000
0000
0000
0000
,  // measure 2
0000
0000
0000
0000
,  // measure 3
0000
0000
0000
0000
,  // measure 4
0000
0000
0000
0000
,  // measure 5
1000
0000
1000
0000
,  // measure 6
0100
0000
1000
0000
,  // measure 7
0001
0000
0010
0000
,  // measure 8
0001
0000
0001
0000
,  // measure 9
1000
0100
1000
0000
,  // measure 10
0002
0000
0013
0000
,  // measure 11
0010
0001
0010
0000
,  // measure 12
0200
0000
1300
0000
,  // measure 13
1000
0001
0100
0000
,  // measure 14
0100
0001
1000
0000
,  // measure 15
0001
0100
0010
1000
,  // measure 16
0110
0000
1001
0000
,  // measure 17
0200
0000
0300
0010
,  // measure 18
1000
0000
0001
0000
,  // measure 19
0020
0000
0030
0001
,  // measure 20
1000
0000
0100
0000
,  // measure 21
1000
0000
0001
0000
,  // measure 22
1000
0001
1000
0000
,  // measure 23
0010
0100
0010
0000
,  // measure 24
0100
0000
0010
0000
,  // measure 25
1100
0000
0001
0010
,  // measure 26
0001
0000
1000
0000
,  // measure 27
0011
0000
1000
0100
,  // measure 28
1000
0000
0001
0000
,  // measure 29
1000
1000
0001
0001
,  // measure 30
0200
0300
0020
0030
,  // measure 31
0100
0100
0010
0010
,  // measure 32
2000
3000
0002
0003
,  // measure 33
1000
0100
0000
0100
,  // measure 34
1000
0001
0000
0001
,  // measure 35
1000
0100
0010
0100
,  // measure 36
1000
0000
0001
0100
,  // measure 37
0010
0010
1000
1000
,  // measure 38
0200
0300
2000
3000
,  // measure 39
0001
0001
0100
0100
,  // measure 40
0002
0003
0020
0030
,  // measure 41
0011
0000
1000
0000
,  // measure 42
0001
1000
0100
0010
,  // measure 43
1100
0000
0001
0000
,  // measure 44
1000
0100
0010
0001
,  // measure 45
1000
0100
1000
0000
,  // measure 46
0001
0000
0001
0000
,  // measure 47
0001
0010
0001
0000
,  // measure 48
0100
0000
0100
0000
,  // measure 49
0010
1000
0010
0000
,  // measure 50
1000
0000
0001
0000
,  // measure 51
0100
0001
0100
0000
,  // measure 52
0001
0000
1000
0000
,  // measure 53
2002
0000
3003
0000
;

//---------------dance-single - ----------------
#NOTES:
     dance-single:
     :
     Medium:
     5:
     0.345,0.356,0.213,0.204,0.000: // measure 1
0000
0000
0000
0000
,  // measure 2
0000
0000
0000
0000
,  // measure 3
0000
0000
0000
0000
,  // measure 4
0000
0000
0000
0000
,  // measure 5
1000
0000
0100
1000
0000
0001
0010
0000
,  // measure 6
0001
0000
1000
0100
1000
0000
0011
0000
,  // measure 7
0100
0001
2000
3100
,  // measure 8
0010
0001
0010
0000
0001
0000
1000
0000
,  // measure 9
0002
0010
0010
1003
,  // measure 10
1000
0000
0001
1000
0000
0010
0100
0010
,  // measure 11
0000
1000
0100
0000
0020
0000
0031
0000
,  // measure 12
1000
0101
0001
1010
,  // measure 13
0002
0100
0103
0101
,  // measure 14
2000
0010
3010
1010
,  // measure 15
0002
0000
0000
0103
0000
1000
0000
0010
,  // measure 16
0000
0001
0110
1001
,  // measure 17
1000
0100
0001
0100
,  // measure 18
1000
0000
0001
1001
,  // measure 19
0001
0010
0100
0010
,  // measure 20
0001
0000
0100
0110
,  // measure 21
0002
0000
2003
0000
,  // measure 22
3010
0100
0020
0000
,  // measure 23
1030
0100
1000
0010
,  // measure 24
1000
0001
0100
0010
,  // measure 25
0110
0000
0000
0000
0001
1000
0001
0000
,  // measure 26
0100
0000
0010
1000
0010
0000
0100
0000
,  // measure 27
1001
0000
0000
0000
0100
0010
0100
0000
,  // measure 28
0001
1000
2000
3000
,  // measure 29
0001
1000
0011
1010
,  // measure 30
0001
0010
0001
0010
0001
0000
0110
0000
,  // measure 31
2000
3100
0020
0031
,  // measure 32
1000
0000
0001
0100
0001
0000
1000
0000
,  // measure 33
0002
0000
0013
0000
0010
0001
0100
0000
,  // measure 34
0001
0000
1000
0010
0000
0010
1000
0000
,  // measure 35
0001
0100
0010
1000
,  // measure 36
0101
0001
1000
1001
,  // measure 37
0100
0010
1100
0101
,  // measure 38
1000
0100
1000
0100
1000
0000
1001
0000
,  // measure 39
0200
0301
0020
1030
,  // measure 40
0010
0000
0100
0001
0100
0000
0010
0000
,  // measure 41
2000
0000
0000
0100
0000
0000
3001
0000
,  // measure 42
0002
0000
0000
0010
0000
0000
1003
0000
,  // measure 43
0001
0100
1000
0010
,  // measure 44
0001
0100
1000
0010
,  // measure 45
0001
0000
1000
0000
0100
1000
0010
0000
,  // measure 46
0010
0000
1000
0100
1000
0000
0001
0000
,  // measure 47
0200
0301
2000
3010
,  // measure 48
1000
0010
1000
0001
0100
0000
0001
0000
,  // measure 49
1000
0000
0100
0000
1010
0000
0001
0100
,  // measure 50
0000
0100
0001
0000
0010
0000
0101
0000
,  // measure 51
1000
0000
0001
0010
0001
0000
0100
0000
,  // measure 52
0001
0000
0100
0001
1000
0010
1000
0000
,  // measure 53
0220
0000
0330
0000
;

//---------------dance-single - ----------------
#NOTES:
     dance-single:
     :
     Hard:
     7:
     0.462,0.432,0.378,0.165,0.010: // measure 1
0000
0000
0000
0000
,  // measure 2
0000
0000
0000
0000
,  // measure 3
0000
0000
0000
0000
,  // measure 4
0000
0000
0000
0000
,  // measure 5
1000
0000
0001
0010
0000
1000
0010
0001
,  // measure 6
0010
0001
1000
0100
0000
1000
0001
0000
,  // measure 7
1000
0100
0001
0000
0001
0100
1000
0000
,  // measure 8
0001
0010
0100
1000
0001
0000
0110
0000
,  // measure 9
1001
0000
1000
0100
0000
0001
0010
0000
,  // measure 10
2000
0000
3001
0100
0000
0100
0001
0100
,  // measure 11
0010
1000
0100
0000
0010
0001
0100
0000
,  // measure 12
0001
0001
1000
2000
0000
0010
3010
0000
,  // measure 13
0010
0000
0000
0010
0000
0000
0010
0000
0200
0000
0000
0000
0301
0000
0000
0000
,  // measure 14
0001
0000
0000
0001
0000
0000
0001
0000
2000
0000
0000
0000
3010
0000
0000
0000
,  // measure 15
0100
0000
0001
1000
0000
1000
0010
0001
,  // measure 16
0000
0100
1000
0000
1100
0000
0011
0000
,  // measure 17
1001
0000
0001
0010
0001
0010
0001
0000
,  // measure 18
1000
0000
0100
0010
0000
0100
1000
0001
,  // measure 19
0010
0001
1000
0000
1000
0100
0010
0000
,  // measure 20
0002
0000
1003
0100
1000
0010
0100
0000
,  // measure 21
0020
0000
1030
0100
0000
0001
0010
0001
,  // measure 22
0100
0000
1000
0001
0000
0001
1000
0000
,  // measure 23
0101
1010
0110
1001
,  // measure 24
0001
0010
0001
0100
0001
1000
0001
0000
,  // measure 25
0110
0000
0000
0001
0010
1000
0010
0100
,  // measure 26
1000
0100
0001
0100
1000
0000
0110
0000
,  // measure 27
1001
0000
0000
0100
0001
1000
0010
1000
,  // measure 28
0001
0100
0010
0000
0110
0000
1001
0000
,  // measure 29
1001
0000
0110
0000
1000
0100
0010
0000
,  // measure 30
0010
0100
1000
0001
1000
0000
0110
0000
,  // measure 31
0002
0000
1003
0100
0002
0000
0103
0100
,  // measure 32
1000
0010
0010
0010
1010
0000
0011
0000
,  // measure 33
1000
0100
1000
0000
0001
0001
0010
0000
,  // measure 34
0001
0010
0100
1000
0010
0100
1000
0000
,  // measure 35
1100
0101
1010
0011
,  // measure 36
0100
0010
0100
0000
0002
1000
1003
0000
,  // measure 37
0110
0000
1001
0000
0001
0100
0010
0000
,  // measure 38
0100
0001
0100
1000
0100
0000
1001
0000
,  // measure 39
2000
0000
3001
0010
2000
0000
3010
0001
,  // measure 40
1000
0001
1000
0001
0101
0000
1100
0000
,  // measure 41
0002
0000
1003
0200
0000
1300
0010
0001
,  // measure 42
0010
1000
0100
0010
0001
0100
0010
0000
,  // measure 43
1000
0100
0001
0000
1000
0010
0001
0000
,  // measure 44
1000
0001
0100
0010
0100
0000
1001
0000
,  // measure 45
0011
0000
1100
0000
0001
0010
0100
0010
,  // measure 46
0000
0001
1000
0001
0001
0000
1010
0000
,  // measure 47
0101
0000
1001
0000
1000
0100
0010
2000
,  // measure 48
0000
3010
0001
1000
0001
0000
0110
0000
,  // measure 49
1001
0000
0001
0010
0100
0010
1000
0010
,  // measure 50
0000
0001
1000
0100
0010
0000
0011
0000
,  // measure 51
1100
0000
0010
1000
0100
0001
0001
0200
,  // measure 52
0000
1300
0001
0010
0001
1000
0001
0000
,  // measure 53
0220
0000
0330
0000
;

//---------------dance-single - ----------------
#NOTES:
     dance-single:
     :
     Challenge:
     9:
     0.617,0.560,0.349,0.194,0.349: // measure 1
0000
0000
0000
0000
,  // measure 2
0000
0000
0000
0000
,  // measure 3
0000
0000
0000
0000
,  // measure 4
0000
0000
0000
0000
,  // measure 5
1000
0000
0000
0001
0010
0000
0002
0000
0000
0000
1003
0000
0100
0000
1000
0000
,  // measure 6
0001
0000
1000
0100
0000
0010
0001
0000
1000
0000
0100
0000
1100
0000
0000
0000
,  // measure 7
0001
0000
0010
0000
0001
0000
1000
0100
1000
0000
0010
0000
0100
0000
0001
0000
,  // measure 8
1000
0000
0010
0100
0000
0001
2000
0000
0001
0000
3001
0000
1001
0000
0000
0000
,  // measure 9
0001
0000
0010
0000
0001
0000
0100
0001
0000
0001
0100
0000
0010
0000
1000
0000
,  // measure 10
0100
0000
1000
0010
0000
0010
1000
0000
0001
0000
0010
0000
0011
0000
0000
0000
,  // measure 11
1000
0000
0100
0000
0010
0000
0100
1000
0100
0000
0010
0000
0001
0000
0100
0000
,  // measure 12
0001
0000
1000
0100
1000
0000
0010
0000
0200
0000
0010
0000
0310
0000
0000
0000
,  // measure 13
0001
0000
1000
0100
0000
0100
1000
0000
0010
0000
1000
0000
1010
0000
0000
0000
,  // measure 14
0001
0000
0010
0001
0000
0001
0010
0000
0001
0000
0100
0000
0101
0000
0000
0000
,  // measure 15
1001
0000
0000
1000
0100
0000
0001
0000
0100
0000
0000
1000
0010
0000
0100
0000
,  // measure 16
0001
0000
0000
0001
1000
0000
0001
0000
0100
0000
0010
0000
0110
0000
0000
0000
,  // measure 17
0001
0000
0010
0000
1000
0000
0001
0010
0000
1000
0001
0000
1000
0000
1000
0000
,  // measure 18
0100
0000
0001
0000
0100
0000
1000
0000
0001
0010
0001
0000
1000
0000
0000
0000
,  // measure 19
0001
0000
0010
0000
0001
0000
1000
0100
0000
0100
1000
0000
0010
0000
0100
0000
,  // measure 20
0001
0000
1000
0100
1000
0000
0010
0000
2000
0000
0001
0000
3001
0000
0000
0000
,  // measure 21
0001
0000
0100
0000
1000
0000
0020
0000
0000
0031
1000
0000
0100
0000
0010
0000
,  // measure 22
0100
0000
1000
0000
0001
0000
0200
0000
0000
0310
1000
0000
0100
0000
0001
0000
,  // measure 23
0100
0000
1000
0000
0001
0010
0000
0000
0001
0000
1000
0000
0100
0010
0000
0000
,  // measure 24
0001
0000
1000
0000
0010
1000
0000
0010
1000
0001
1000
0001
1000
0000
0000
0000
,  // measure 25
0110
0000
0000
1000
0100
0000
0010
0000
0100
0000
1000
0001
1000
0000
0010
0000
,  // measure 26
1000
0000
0010
0100
0010
0000
1000
0000
0001
0000
0000
0000
0110
0000
0000
0000
,  // measure 27
0110
0000
0000
0001
1000
0000
0100
0000
0010
0000
0001
0100
0001
0000
1000
0000
,  // measure 28
0001
0000
1000
0100
1000
0000
0010
0000
0100
0000
0000
0000
1001
0000
0000
0000
,  // measure 29
1010
0000
0101
0000
1002
1000
1003
0000
,  // measure 30
1000
0100
1100
0010
0011
0000
1001
0000
,  // measure 31
0001
0000
1000
0100
1000
0000
0010
0000
0010
0000
0100
0001
0100
0000
0001
0000
,  // measure 32
0001
0000
1000
0100
2000
0000
0010
0000
3001
0000
0000
0000
1001
0000
0000
0000
,  // measure 33
0001
0000
0010
0001
0010
0000
0001
0000
2000
0000
0100
0000
0010
0000
3001
0000
,  // measure 34
0001
0000
1000
0100
1000
0000
0010
0000
0200
0000
0010
0000
0001
0000
0301
0000
,  // measure 35
0001
0000
1000
0010
0100
0000
0010
0000
1000
0000
0001
1000
0100
0000
1000
0000
,  // measure 36
0001
0000
1000
0000
0010
0100
0010
0100
0010
0000
0000
0000
1001
0000
0000
0000
,  // measure 37
0011
0000
1100
0000
0120
0100
0130
0000
,  // measure 38
0100
0001
0101
0010
1010
0000
0110
0000
,  // measure 39
0001
0000
1000
0000
0100
1000
0100
0000
1000
0000
0001
0000
0100
0001
0100
0000
,  // measure 40
0001
0010
0001
0010
0002
0000
0100
0000
0103
0000
0010
0000
0110
0000
0000
0000
,  // measure 41
0001
0000
1000
0000
0001
0100
0000
1000
0100
0000
0001
0000
2010
0000
0000
0000
,  // measure 42
3010
0000
1000
0000
1000
0010
0000
0001
0010
0000
1000
0000
0001
0000
0010
0000
,  // measure 43
0001
0000
0100
0000
2000
0001
0000
0000
3001
0000
0010
0000
2000
0001
0000
0000
,  // measure 44
3001
0010
0100
0010
0001
0000
1000
0000
0020
0000
0100
0000
0130
0000
0000
0000
,  // measure 45
1100
0000
0000
0000
0011
0000
0000
1000
0100
0000
0001
0000
1000
0000
0100
0000
,  // measure 46
0001
0000
1000
0000
0001
1000
0000
0010
0100
0000
0001
0000
0100
0000
0010
0000
,  // measure 47
1100
0000
0000
0000
0011
0000
0000
0100
0001
0000
1000
0000
0010
0000
1000
0000
,  // measure 48
0100
0000
1000
0000
0010
1000
0010
0100
0002
0000
1000
0000
1003
0000
0000
0000
,  // measure 49
0110
0000
0000
0000
1001
0000
0000
1000
0100
0000
0001
0000
0100
0000
1000
0000
,  // measure 50
0001
0000
0010
0000
0100
1000
0000
1000
0100
0000
0010
0000
0001
0000
1000
0000
,  // measure 51
1001
0000
0000
0000
0110
0000
0000
1000
0010
0000
0010
0000
0100
0000
0100
0000
,  // measure 52
0001
0000
1000
0000
0001
0010
0100
1000
0002
0000
1000
0000
1003
0000
0000
0000
,  // measure 53
2002
0000
3003
0000
;
