#TITLE:SHOTS;
#SUBTITLE:;
#ARTIST:LMFAO feat. Lil Jon;
#TITLETRANSLIT:;
#SUBTITLETRANSLIT:;
#ARTISTTRANSLIT:;
#CREDIT:;
#BANNER:;
#BACKGROUND:;
#LYRICSPATH:;
#CDTITLE:;
#MUSIC:80112505_192k.ogg;
#OFFSET:-2.920;
#SAMPLESTART:47.800;
#SAMPLELENGTH:14.980;
#SELECTABLE:YES;
#BPMS:0.000=128.000,192.000=64.000;
#STOPS:;
#BGCHANGES:;

//---------------dance-single - ----------------
#NOTES:
     dance-single:
     :
     Beginner:
     2:
     0.201,0.236,0.188,0.054,0.000:
0000
1000
0000
0001
,
0000
1000
0000
0001
,
0000
1000
0000
0001
,
0000
1000
0000
0001
,
0000
0100
0000
0010
,
0000
0100
0000
0010
,
0000
0100
0000
0010
,
0000
0100
0010
0100
,
0020
0000
1030
0000
,
0100
0100
0100
0000
,
2000
0000
3010
0000
,
0100
0100
0100
0000
,
0002
0000
0103
0000
,
0010
0010
0010
0000
,
0200
0000
0301
0000
,
0010
0010
0010
0000
,
0001
0000
1000
0000
,
0100
0000
1001
0000
,
0010
0000
0001
0000
,
1000
0000
0110
0000
,
1000
0000
0010
0000
,
0100
0000
1001
0000
,
0010
0000
0100
0000
,
0001
0000
0110
0000
,
1001
0000
1001
0000
,
0110
0000
0110
0000
,
1001
0000
0110
0110
,
0110
0000
0000
0000
,
0110
0000
0110
0000
,
1001
0000
1001
0000
,
0110
0000
1001
1001
,
1001
0000
0000
0000
,
1000
0000
0100
0000
,
0001
0001
0001
0000
,
1000
0000
0010
0000
,
0001
0001
0001
0000
,
0001
0000
0010
0000
,
1000
1000
1000
0000
,
0000
0001
0000
0100
,
0000
1000
0000
0100
,
1000
0100
1000
0000
,
0001
0100
0001
0000
,
1000
0010
1000
0000
,
0001
0010
0001
0000
,
1000
0001
1000
0000
,
0100
1000
0100
0000
,
1000
0010
1000
0000
,
0100
0010
0100
0010
,
0100
0010
1000
0001
,
0100
0010
1000
0001
,
0100
0010
1000
0001
,
0100
0010
1000
0001
,
2002
0000
0000
3003
;

//---------------dance-single - ----------------
#NOTES:
     dance-single:
     :
     Easy:
     4:
     0.337,0.425,0.403,0.188,0.000:
1000
0100
1000
0100
,
0010
0001
0010
0001
,
1000
0010
1000
0010
,
0100
0001
0100
0001
,
1001
0100
1000
0100
,
1001
0010
0001
0010
,
1001
0100
0010
0100
,
2000
3002
0203
0310
,
2000
0100
3001
0000
,
0100
0001
1001
0000
,
0002
0010
1003
0000
,
0010
1000
1001
0000
,
2000
3002
0203
0310
,
1000
1000
0001
0001
,
0020
0032
2003
3100
,
1000
1000
0001
0001
,
1000
0010
1001
0000
,
0001
1000
0001
0000
,
0001
0100
1001
0000
,
1000
0001
1000
0000
,
0001
0010
0101
0000
,
0010
0100
1000
0000
,
0100
1000
0101
0000
,
0010
0001
0100
1000
,
1001
1001
1001
1001
,
0110
0110
0110
0110
,
1001
1001
1001
1001
,
0110
0000
0000
0000
,
0110
0110
0110
0110
,
1001
1001
1001
1001
,
0110
0110
0110
0110
,
1001
0000
0000
0000
,
1000
0100
0001
0100
,
2000
0100
3001
0000
,
1000
0010
0001
0010
,
2000
0010
3001
0000
,
0001
0100
1000
0100
,
0002
0100
1003
0000
,
0001
0010
1000
0010
,
0002
0010
1003
0000
,
1000
0100
1000
1001
,
0001
0010
0001
1001
,
1000
0010
1000
1001
,
0001
0010
0001
1001
,
1000
0100
0010
1001
,
0001
0010
0100
1001
,
1000
0100
0001
0010
,
2000
3200
0320
0032
,
1003
0000
0100
0100
1000
1000
0001
0000
,
1100
0000
0001
0001
0100
0100
0010
0000
,
0101
0000
0010
0010
0001
0001
1000
0000
,
0011
0000
1000
1000
0100
0100
0010
0001
,
2002
0000
0000
3003
;

//---------------dance-single - Copied from----------------
#NOTES:
     dance-single:
     Copied from:
     Medium:
     6:
     0.435,0.425,0.636,0.179,0.036:
1000
0101
1000
0101
,
0010
1001
0010
1001
,
0100
0011
0100
0011
,
1000
0110
1000
0110
,
1001
0110
1000
0110
,
1001
0110
0001
0110
,
1001
0100
1001
0010
,
2000
3200
0302
0203
,
2300
0000
0000
0000
3002
0000
0000
0000
0100
0000
0000
0100
0003
0000
0000
0000
,
0010
1000
0001
0100
0010
0000
1001
0000
,
0020
0000
0000
0000
2030
0000
0000
0000
0100
0000
0000
0100
3000
0000
0000
0000
,
0001
0100
0010
1000
0001
0000
0110
0000
,
2000
0000
0000
0000
3002
0000
0000
0000
0010
0000
0000
0010
0003
0000
0000
0000
,
1000
0100
0010
0001
1000
0000
0110
0000
,
0002
0000
0000
0000
0023
0000
0000
0000
0100
0000
0000
0100
0030
0000
0000
0000
,
1000
0100
0001
0000
2000
0000
3001
0000
,
0010
0001
0100
0010
1000
0000
0000
0000
,
0001
1000
0100
1000
0001
0000
0000
0000
,
0010
0100
1000
0100
0010
0000
0000
0000
,
0100
0001
1000
0010
0100
0000
0000
0000
,
0010
1000
0001
1000
0010
0000
0000
0000
,
0001
1000
0010
1000
0100
0000
0000
0000
,
1000
0100
0001
0100
1000
0000
0000
0000
,
0000
1001
0000
0110
,
1100
1001
1100
1010
,
0110
0101
0011
1001
,
1100
0110
1010
1001
,
0011
1001
0000
1100
,
1001
0011
0110
0101
,
0011
0110
1100
1001
,
1010
0011
1010
1001
,
1100
0101
0000
1001
,
0100
1000
0100
1000
0100
0000
0010
0000
,
0001
1000
0100
0000
1001
0000
0000
0000
,
0010
0001
0010
0001
0010
0000
0100
0000
,
1000
0001
0100
0000
1001
0000
0000
0000
,
0010
1000
0010
1000
0010
0000
0100
1000
,
0100
2000
3001
0000
,
1000
0100
0001
0000
1000
0100
0001
0000
,
1000
0010
0001
0000
1001
0000
0000
0000
,
1100
0101
1100
0101
,
1000
0010
0100
0000
0010
1000
0001
0000
,
0011
1010
0011
1010
,
0001
1000
0100
0000
1000
0010
0100
0000
,
0101
0011
1010
1100
,
1000
0001
0010
0000
0001
0100
0010
0000
,
0101
0011
1010
1100
,
2000
3200
0302
0023
,
1030
0000
0000
0100
1000
0000
0001
0000
0100
0000
1000
0000
0100
0000
0001
0000
,
1000
0000
0000
0100
1000
0000
0010
0000
0001
0000
0010
0000
1000
0000
0100
0000
,
0010
0000
0000
0001
1000
0000
0100
0000
1000
0000
0010
0000
0001
0000
0010
0000
,
1000
0000
0000
0100
0010
0000
0001
0000
0010
0000
1000
0000
0010
0000
0001
0000
,
2002
0000
0000
3003
;

//---------------dance-single - ----------------
#NOTES:
     dance-single:
     :
     Hard:
     8:
     0.559,0.629,0.618,0.179,0.408: // measure 1
1000
0000
0000
0000
0100
0000
0000
0000
1000
0000
0000
0001
0100
0000
0001
0000
,  // measure 2
1000
0000
0000
0000
0010
0000
0000
0000
1000
0000
0000
0001
0010
0000
0001
0000
,  // measure 3
1000
0000
0000
0000
0100
0000
0000
0000
1000
0000
0000
0001
0010
0000
0001
0000
,  // measure 4
1000
0000
0000
0000
0010
0000
0000
0000
1000
0000
0000
0001
0100
0000
0001
0000
,  // measure 5
1001
0000
0000
0000
0010
0000
0000
0000
0001
0000
0000
1000
0010
0000
1000
0000
,  // measure 6
1001
0000
0000
0000
0100
0000
0000
0000
0001
0000
0000
1000
0100
0000
1000
0000
,  // measure 7
1001
0000
0000
0000
0010
0000
0000
0000
0001
0000
0000
1000
0100
0000
1000
0000
,  // measure 8
1001
0110
2000
3001
,  // measure 9
0020
0000
0000
0000
0032
0000
0000
0000
0100
0000
0000
1000
0003
0000
0000
0000
,  // measure 10
0010
0000
0010
0000
0001
0000
0001
0000
0100
0000
0100
1000
0000
0000
0000
0000
,  // measure 11
0200
0000
0000
0000
0302
0000
0000
0000
0010
0000
0000
1000
0003
0000
0000
0000
,  // measure 12
0100
0000
0100
0000
0001
0000
0001
0000
0010
0000
0010
1000
0000
0000
0000
0000
,  // measure 13
1010
0000
0000
0000
0011
0000
0000
0000
0101
0000
0000
0100
0000
0001
0100
0000
,  // measure 14
0101
0000
0000
0000
1100
0000
0000
0000
1010
0000
0000
0010
0000
1000
0010
0000
,  // measure 15
1010
0000
0000
0000
1100
0000
0000
0000
0101
0000
0000
0100
0000
0001
0100
0000
,  // measure 16
0001
1000
0100
1000
0020
0000
2030
0000
,  // measure 17
3100
0000
0010
0001
0010
0000
0001
1000
0002
0000
0000
0100
0000
0000
0103
0000
,  // measure 18
0010
0100
1000
0100
0002
0000
0000
0000
,  // measure 19
1003
0000
0100
1000
0100
1000
0100
0000
0020
0000
0000
0001
0000
0000
0031
0000
,  // measure 20
0100
0010
0001
0010
2000
0000
0000
0000
,  // measure 21
3100
0000
0001
0000
0010
0000
0001
0000
0200
0000
0000
0010
0000
0000
0310
0000
,  // measure 22
1000
0100
0001
0100
2000
0000
0000
0000
,  // measure 23
3001
0000
0100
0000
0010
1000
0010
1000
0020
0000
0000
0100
0000
0000
0130
0000
,  // measure 24
0001
0000
1000
0001
1000
0001
1000
0000
0200
0000
0000
0000
1300
0000
0000
0000
,  // measure 25
1001
0000
0000
0000
1010
0000
0000
0000
1001
0000
0000
1010
0000
0000
1001
0000
,  // measure 26
1001
0000
0000
0000
0011
0000
0000
0000
1001
0000
0000
0011
0000
0000
1001
0000
,  // measure 27
1001
0000
0000
0000
1100
0000
0000
0000
1001
0000
0000
1100
0000
0000
1001
0000
,  // measure 28
2002
0000
0000
3003
,  // measure 29
1001
0000
0000
0000
0101
0000
0000
0000
1001
0000
0000
0101
0000
0000
1001
0000
,  // measure 30
1001
0000
0000
0000
0011
0000
0000
0000
1001
0000
0000
0011
0000
0000
1001
0000
,  // measure 31
1001
0000
0000
0000
1010
0000
0000
0000
1001
0000
0000
1010
0000
0000
1001
0000
,  // measure 32
2002
0000
0000
3003
,  // measure 33
0100
0000
1000
0000
0100
0000
1000
0000
0001
0000
0000
0100
0000
0001
0100
0000
,  // measure 34
0001
0000
1000
0000
0100
0000
1000
0000
0100
0000
0000
0010
0000
0001
0010
0000
,  // measure 35
0001
0000
0100
0000
0001
0000
0100
0000
0010
0000
0000
0100
0000
0010
1000
0000
,  // measure 36
0100
0000
0010
0000
0001
0000
0010
0000
0001
0000
0000
1000
0000
0100
1000
0000
,  // measure 37
0010
0000
1000
0000
0010
0000
1000
0000
0100
0000
0000
0010
0000
0001
0010
0000
,  // measure 38
0001
0000
0100
0000
0010
0000
0100
0000
0010
0000
0000
0100
0000
0001
1000
0000
,  // measure 39
0100
1000
0100
0001
0100
1000
0010
0001
,  // measure 40
0010
1000
0100
0010
0002
0000
1003
0000
,  // measure 41
1001
0000
0000
0000
1100
0000
0000
0000
1001
0000
0000
1000
0000
0001
1000
0000
,  // measure 42
1001
0000
0000
0000
0011
0000
0000
0000
1001
0000
0000
0001
0000
1000
0001
0000
,  // measure 43
1001
0000
0000
0000
1010
0000
0000
0000
1001
0000
0000
1000
0000
0001
1000
0000
,  // measure 44
1001
0000
0000
0000
0101
0000
0000
0000
1001
0000
0000
0001
0000
1000
0001
0000
,  // measure 45
1001
0000
0000
0000
1100
0000
0000
0000
1001
0000
0000
1000
0000
0001
1000
0000
,  // measure 46
1001
0000
0000
0000
0011
0000
0000
0000
1001
0000
0000
0001
0000
1000
0001
0000
,  // measure 47
1001
0000
0000
0000
1010
0000
0000
0000
1001
0000
0000
1000
0000
0001
1000
0000
,  // measure 48
0100
1000
0100
0010
0001
0010
0100
1000
0100
0010
0001
0010
,  // measure 49
0110
0000
0000
1000
0100
0000
1000
0001
0100
0000
0001
0100
0010
0100
0001
1000
,  // measure 50
0100
0000
0000
0001
0100
0001
0100
0001
0100
0000
1000
0010
0100
0010
1000
0001
,  // measure 51
0100
0000
0000
0010
1000
0100
1000
0001
0100
0000
0001
0100
0001
1000
0100
1000
,  // measure 52
0010
0000
0000
0100
0001
0000
1000
0100
0001
0000
0100
1000
0100
1000
0010
0100
,  // measure 53
1001
0000
0000
0000
;
