#TITLE:Overdrive;
#SUBTITLE:;
#ARTIST:AAA;
#TITLETRANSLIT:;
#SUBTITLETRANSLIT:;
#ARTISTTRANSLIT:;
#GENRE:;
#CREDIT:Blinded_No_More/GuardianFrozen;
#MENUCOLOR:;
#METERTYPE:DDR;
#BANNER:Overdrive-bn.png;
#BACKGROUND:Overdrive-bg.png;
#LYRICSPATH:;
#CDTITLE:cdtitle.png;
#MUSIC:Overdrive.ogg;
#OFFSET:-0.060;
#SAMPLESTART:62.480;
#SAMPLELENGTH:14.820;
#SELECTABLE:YES;
#LISTSORT:;
#BPMS:0.000=160.000,218.000=158.000,220.000=160.000;
#STOPS:;
#BGCHANGES:;
#ATTACKS:;

//---------------dance-single - ----------------
#NOTES:
     dance-single:
     :
     Hard:
     8:
     0.528,0.665,0.213,0.261,0.198: // measure 1
0000
0000
0000
0000
,  // measure 2
0000
0000
0000
0000
,  // measure 3
0000
0000
0000
0000
,  // measure 4
0000
0000
0000
0000
,  // measure 5
2000
0000
0000
0000
,  // measure 6
3002
0000
0000
0000
,  // measure 7
0023
0000
0000
0000
,  // measure 8
0230
0000
0000
2300
0000
0000
3001
0000
,  // measure 9
1001
0000
0000
0000
0000
0000
0110
0000
0000
0000
0101
0000
0000
0011
0000
0000
,  // measure 10
0000
0010
0100
1000
0010
1000
0001
0010
,  // measure 11
0001
0000
0000
1000
0000
0000
0010
0000
0000
0100
0000
0000
0001
0000
0010
0000
,  // measure 12
0001
0000
0000
0100
0000
0000
0010
0000
0000
1000
0000
0000
0100
0000
0001
0000
,  // measure 13
0100
0000
0000
1000
0000
0000
0010
0000
0000
0100
0000
0000
0001
0000
0010
0000
,  // measure 14
0100
0000
0000
1000
0000
0000
0010
0000
0000
1000
0000
0000
0001
0000
0010
0000
,  // measure 15
0001
0000
0000
0100
0000
0000
1000
0000
0000
0100
0000
0000
0001
0000
0010
0000
,  // measure 16
0100
0000
0000
1000
0000
0000
0010
0000
0000
1000
0000
0000
0100
0000
0010
0000
,  // measure 17
0001
0000
0000
1000
0000
0000
0010
0000
0000
1000
0000
0000
0001
0000
0010
0000
,  // measure 18
0011
0000
0000
0110
0000
0000
1100
0000
0000
1010
0000
0000
0010
0000
0100
0000
,  // measure 19
0001
1000
0000
0010
1000
0000
0001
0010
,  // measure 20
0000
0001
0100
0000
0010
1000
0100
1000
,  // measure 21
0020
0000
0230
0000
0301
0010
0000
0100
,  // measure 22
0000
1000
0010
0000
1000
0010
0001
0000
,  // measure 23
0010
1000
0100
0001
0100
0000
1000
0010
,  // measure 24
0000
0100
0001
0000
0010
0001
0100
0020
,  // measure 25
0000
1030
0001
0200
0000
0310
1000
0001
,  // measure 26
0010
0100
1000
0100
0010
0001
0100
0010
,  // measure 27
1000
0000
1001
0000
0001
0010
0001
0100
,  // measure 28
0000
0010
1000
0001
0010
0000
0001
0100
,  // measure 29
0010
0020
0000
0000
1000
1000
0030
0000
,  // measure 30
0001
0000
0002
0000
0000
0000
0000
0000
0100
0000
0000
0100
0003
0000
0100
0000
,  // measure 31
0010
0000
1010
0000
0010
1000
0000
0100
,  // measure 32
0000
0010
0001
1000
0010
0000
1000
0001
,  // measure 33
0010
0020
0000
0000
0001
0001
0030
0000
,  // measure 34
0100
0000
0200
0000
0000
0000
0300
0000
0010
0000
0000
1000
0000
0000
0001
0000
,  // measure 35
0010
0100
1000
0001
0000
0010
0001
0100
,  // measure 36
0010
1000
0000
0100
0010
0000
0001
0000
,  // measure 37
1000
0010
1000
0010
0100
0001
0100
0001
,  // measure 38
1000
0000
0000
0100
0000
0000
0001
0000
0000
0100
0000
0000
1000
0000
0010
0000
,  // measure 39
0200
0001
0000
0301
0000
0010
0100
2000
,  // measure 40
0000
0001
0000
3001
0000
1000
0010
0100
,  // measure 41
0001
0010
0001
0100
0010
1000
0001
0100
,  // measure 42
0110
0000
0010
1000
0000
0001
0010
0001
,  // measure 43
0200
0000
0320
0000
1030
0001
0000
0010
,  // measure 44
0000
0001
0100
0000
0010
1000
0001
0010
,  // measure 45
0000
0001
0100
0000
0010
1000
0000
0100
,  // measure 46
0010
0001
1000
0100
1000
0010
0100
0001
,  // measure 47
0200
0000
0320
0000
1030
0001
0000
0010
,  // measure 48
0000
0001
0100
0000
0010
1000
0100
1000
,  // measure 49
0001
0000
0010
0000
0001
0100
0000
0010
,  // measure 50
1000
0100
0001
0100
1000
0010
0001
0020
,  // measure 51
0000
1030
0100
0002
0000
0103
1000
0020
,  // measure 52
0000
0230
0000
0301
2000
0000
3001
0010
,  // measure 53
0001
0100
0010
1000
0100
0010
0001
1000
,  // measure 54
0000
0010
0100
0001
0010
0001
0100
0020
,  // measure 55
0000
0000
0000
0000
0000
0000
0000
0030
,  // measure 56
0100
0000
0000
0010
0000
0000
1000
0000
0000
0001
0000
0000
0010
0000
0001
0000
,  // measure 57
0100
0000
0000
1000
0000
0000
0100
0000
0000
0001
0000
0000
0010
0000
0100
0000
,  // measure 58
1000
0000
0000
0010
0000
0000
1000
0000
0000
0001
0000
0000
0100
0000
0001
0000
,  // measure 59
0010
0000
0000
0100
0000
0000
1000
0000
0000
0010
0000
0000
1000
0000
0100
0000
,  // measure 60
0010
0000
0000
0001
0000
0000
1000
0000
0000
0010
0000
0000
1000
0000
0001
0000
,  // measure 61
0010
0000
0000
0001
0000
0000
0100
0000
0000
0010
0000
0000
1000
0000
0100
0000
,  // measure 62
0001
0000
0000
0100
0000
0000
1000
0000
0000
0010
0000
0000
0100
0000
0001
0000
,  // measure 63
0011
0000
0000
0000
0000
0000
0110
0000
0000
0000
1100
0000
0000
1010
0000
0000
,  // measure 64
0110
0000
0101
0000
0011
0000
0110
0000
1100
0000
1010
0000
,  // measure 65
0000
0000
0000
0000
0000
0000
0000
0000
0000
0220
0000
0000
0000
0000
0000
0000
0000
0000
0000
0000
0000
0000
0000
0000
0000
0000
0000
0000
0000
0000
0000
0000
,  // measure 66
0000
0000
0000
0000
,  // measure 67
0000
0000
0000
0000
,  // measure 68
0000
0000
0000
0000
,  // measure 69
0000
0000
0000
0330
;

//---------------dance-single - ----------------
#NOTES:
     dance-single:
     :
     Beginner:
     1:
     0.116,0.156,0.019,0.000,0.005:
0000
0000
0000
0000
,
0000
0000
0000
0000
,
0000
0000
0000
0000
,
0000
0000
0000
0000
,
1000
0000
0000
0000
,
0001
0000
0000
0000
,
0010
0000
0000
0000
,
0001
0000
0000
0000
,
1001
0000
0000
0000
,
0000
0000
0000
0000
,
1000
0000
1000
0000
,
1000
0000
0000
0000
,
0001
0000
0001
0000
,
0001
0000
0000
0000
,
0010
0000
0010
0000
,
0010
0000
0000
0000
,
0100
0000
0100
0000
,
0100
0000
0000
0000
,
1000
0000
0000
0000
,
0010
0000
0000
0000
,
0100
0000
0100
0000
,
0100
0000
0000
0000
,
0001
0000
0000
0000
,
0010
0000
0000
0000
,
0001
0000
0001
0000
,
0001
0000
0000
0000
,
1000
0000
1000
0000
,
1000
0000
1000
0000
,
1000
0000
0000
0000
,
0100
0000
0000
0000
,
0010
0000
0010
0000
,
0010
0000
0010
0000
,
0010
0000
0000
0000
,
0001
0000
0000
0000
,
1000
0000
0000
0000
,
0001
0000
0000
0000
,
0010
0000
0010
0000
,
0010
0000
0000
0000
,
0100
0000
0000
0000
,
1000
0000
0000
0000
,
0010
0000
0010
0000
,
0010
0000
0000
0000
,
0100
0000
0100
0000
,
0100
0000
0000
0000
,
0001
0000
0001
0000
,
0001
0000
0000
0000
,
1000
0000
1000
0000
,
1000
0000
0000
0000
,
0010
0000
0010
0000
,
0010
0000
0000
0000
,
0100
0000
0100
0000
,
0100
0000
0100
0000
,
0100
0000
0000
0000
,
0000
0000
0000
0000
,
0010
0000
0000
0000
,
1000
0000
1000
0000
,
1000
0000
0000
0000
,
0001
0000
0001
0000
,
0001
0000
0000
0000
,
0010
0000
0010
0000
,
0010
0000
0000
0000
,
0001
0000
0001
0000
,
0001
0000
0000
0000
,
1000
0000
0001
0000
,
0000
0000
0000
0000
0000
0000
0000
0000
0000
1001
0000
0000
0000
0000
0000
0000
0000
0000
0000
0000
0000
0000
0000
0000
0000
0000
0000
0000
0000
0000
0000
0000
;

//---------------dance-single - ----------------
#NOTES:
     dance-single:
     :
     Easy:
     4:
     0.243,0.280,0.039,0.058,0.005:
0000
0000
0000
0000
,
0000
0000
0000
0000
,
0000
0000
0000
0000
,
0000
0000
0000
0000
,
2000
0000
3000
0000
,
0002
0000
0003
0000
,
0020
0000
0030
0000
,
0200
0000
0300
0000
,
1001
0000
1001
0000
,
0000
0000
0000
0000
,
1000
0010
1000
0000
,
0001
0010
0001
0000
,
1000
0100
1000
0000
,
0001
0100
0001
0000
,
1000
0010
0100
0000
,
0001
0010
0100
0000
,
1000
0001
0010
0000
,
0001
1000
0010
1000
,
0001
0000
0010
0000
,
0001
0000
0100
0000
,
0010
1000
0100
1000
,
0010
0000
1000
0000
,
0001
0000
0010
0000
,
0001
0000
0100
0000
,
0001
0010
0100
1000
,
0001
0000
1000
0000
,
0010
1000
0100
0001
,
0100
0000
1000
0000
,
0010
0000
0100
0000
,
0001
0000
1000
0000
,
0001
0010
0001
1000
,
0010
0000
1000
0000
,
0001
0000
0010
0000
,
0001
0000
0100
0000
,
0010
1000
0100
0001
,
0100
1000
0010
0100
,
0001
0000
0010
0000
,
0001
1000
0010
1000
,
0001
0001
0001
0000
,
1000
1000
1000
0000
,
0100
0010
0001
1000
,
0001
0000
1000
0010
,
1000
0001
0010
0001
,
0100
0000
0010
0000
,
1000
0100
0001
0100
,
1000
0000
0010
0000
,
0100
0001
0010
0100
,
1000
0000
0010
0000
,
1000
0001
0010
0001
,
1000
0000
0010
0000
,
1000
1000
0001
0001
,
0010
0010
0001
0001
,
0100
0000
0010
1000
,
0000
0001
0010
0001
,
2002
0000
3003
0000
,
1000
0100
1000
0000
,
0010
0100
0010
0000
,
0100
0001
0100
0000
,
0001
0010
0001
0000
,
1000
0010
0100
0000
,
0001
0010
0100
0000
,
1000
0001
0010
0000
,
0001
0000
1000
0001
,
0010
0001
0100
0010
,
0000
0000
0000
0000
0000
0000
0000
0000
0000
1001
0000
0000
0000
0000
0000
0000
0000
0000
0000
0000
0000
0000
0000
0000
0000
0000
0000
0000
0000
0000
0000
0000
;

//---------------dance-single - ----------------
#NOTES:
     dance-single:
     :
     Medium:
     6:
     0.398,0.399,0.048,0.097,0.044:
0000
0000
0000
0000
,
0000
0000
0000
0000
,
0000
0000
0000
0000
,
0000
0000
0000
0000
,
2000
0000
0000
3000
,
0002
0000
0000
0003
,
0020
0000
0000
0030
,
0200
0000
0000
1300
,
1001
0000
0000
0000
0000
0000
0011
0000
0000
0000
0010
0000
0000
0100
0000
0000
,
0000
1000
0001
0010
,
0011
0000
0001
0000
0100
0000
0010
1000
,
0010
0000
1000
0000
0100
0000
0010
0001
,
0010
0000
0001
0000
0100
0000
0010
1000
,
0010
0000
1000
0000
0100
0000
0001
0100
,
0001
0000
1000
0000
0100
0000
0010
0001
,
0100
0000
0010
0000
1000
0000
0001
0010
,
0100
0000
1000
0000
0010
0000
1000
0001
,
0010
0000
0000
0001
0000
0000
0010
0000
0000
0100
0000
0000
1000
0000
0010
0000
,
1000
0000
0001
0010
0001
0000
0100
0000
,
0001
0100
0001
0000
0100
0000
0010
0100
,
0010
1000
0001
0010
,
0001
0100
0001
0000
1000
0000
0100
0000
,
1000
0000
0010
1000
0010
0000
0100
0000
,
0001
0100
0001
0000
0010
0000
0001
0010
,
0001
0010
0000
0001
0000
0010
0000
0100
,
0000
1000
0001
0000
0010
0000
0011
0000
,
0001
0100
0001
0000
2000
3100
0000
1000
,
0000
0010
0000
0100
0000
0001
0000
0010
,
0100
0100
0000
0000
1000
1000
0000
0000
,
0001
0001
0000
0000
0010
0000
0100
0010
,
0100
0000
1000
0000
0010
1000
0000
0001
,
0000
0010
0001
0000
0100
0000
0010
0000
,
1000
1000
0000
0000
0001
0001
0000
0000
,
0010
0010
0000
0000
0001
0000
0100
0001
,
0100
0000
0010
1000
0000
0010
0100
0000
,
0001
0010
0000
0100
1000
0000
0001
0000
,
0010
0000
0001
0000
0100
0000
0001
0100
,
0001
0000
0100
0000
0010
0000
1000
0020
,
0000
1000
0000
1030
0000
0010
0100
0002
,
0000
0010
0000
0013
0000
0001
1000
0100
,
1000
0010
0100
0001
,
0010
0000
0100
1000
0000
0001
0010
0000
,
0001
0000
0100
0000
0010
1000
0000
0100
,
0000
0010
0001
0000
1000
0000
0010
1000
,
0010
0000
0100
0000
0001
0010
0000
0001
,
0100
0000
0010
0000
1000
0000
0100
1000
,
0100
0000
0010
0000
0001
1000
0000
0010
,
0000
1000
0001
0000
0010
0000
0001
0100
,
0001
0000
1000
0000
0100
1000
0000
0010
,
1000
0000
0001
0000
0010
0000
0001
0100
,
0000
0010
0000
1000
0000
0100
0000
0010
,
0000
0001
0000
1000
0001
0000
0010
0001
,
0010
0000
0001
0000
0100
0000
0010
1000
,
0000
0000
0001
0000
0010
0000
0100
2000
,
0000
0000
0000
3000
,
0001
0000
0010
0000
0001
0000
0100
0010
,
0100
0000
0010
0000
1000
0000
0100
1000
,
0100
0000
0010
0000
0001
0000
1000
0001
,
1000
0000
0010
0000
0100
0000
0001
0100
,
0001
0000
0100
0000
0010
0000
1000
0100
,
1000
0000
0010
0000
0100
0000
0001
0010
,
0001
0000
0100
0000
0010
0000
1000
0001
,
1000
0000
0000
0000
0000
0000
0001
0000
0000
0000
0010
0000
0000
0001
0000
0000
,
1000
0000
0100
0000
0001
0000
1000
0000
0010
0000
0001
0000
,
0000
0000
0000
0000
0000
0000
0000
0000
0000
2002
0000
0000
0000
0000
0000
0000
0000
0000
0000
0000
0000
0000
0000
0000
0000
0000
0000
0000
0000
0000
0000
0000
,
0000
0000
0000
0000
,
0000
0000
0000
0000
,
0000
0000
0000
0000
,
0000
0000
0000
3003
;

//---------------dance-single - ----------------
#NOTES:
     dance-single:
     :
     Challenge:
     9:
     0.610,0.684,0.329,0.010,0.382:
0000
0000
0000
0000
,
0000
0000
0000
0000
,
0000
0000
0000
0000
,
0000
0000
0000
0000
,
0001
0000
0100
0010
,
1000
0000
0100
0010
,
0001
0000
0100
0001
,
1000
0000
0000
0001
0000
0000
1000
0000
,
0110
0000
0000
0000
0000
0000
0001
0000
0000
0000
1100
0000
0000
0101
0000
0000
,
0000
1000
0010
0001
0010
0100
0001
1000
,
0001
0010
0000
0001
0010
0000
0001
1000
0000
0001
0100
0000
0010
0000
1000
0000
,
0100
1000
0000
1000
0100
0000
0010
0001
0000
0100
0001
0000
0010
0000
0100
0000
,
1000
0010
0000
0010
0100
0000
0010
1000
0000
0001
0010
0000
0100
0000
0010
0000
,
0001
0000
0000
0100
0000
0000
0101
0000
0000
0010
0000
0000
1000
0000
0001
0000
,
1000
0100
0000
1000
0100
0000
1000
0001
0000
1000
0010
0000
0100
0000
0001
0000
,
0010
0001
0000
0001
0010
0000
0100
1000
0000
0010
1000
0000
0100
0000
0010
0000
,
0001
0100
0000
0100
0010
0000
0100
0001
0000
1000
0100
0000
0010
0000
0100
0000
,
1000
0000
0000
1010
0000
0000
1001
0000
0000
0011
0000
0000
0100
0000
0010
0000
,
1000
0000
0100
0000
0010
0000
0001
0100
,
0000
0100
0010
1000
0000
0001
1000
0001
,
0010
0000
0100
0000
0010
1000
0010
0001
,
0000
0100
0010
1000
0000
0010
0001
0010
,
0100
0000
0001
0000
1000
0000
0100
0000
0010
0000
0000
0010
0100
0000
1000
0000
,
0001
0000
0000
0100
0000
0000
0001
0000
0000
1000
0000
0000
0010
0000
1000
0000
,
0100
0000
0000
0010
0001
0000
0100
0000
0000
0001
0000
0000
1000
0000
0010
0000
,
0000
0000
0100
0000
0001
0000
1000
0000
0000
0100
0000
0000
0010
0000
0100
0000
,
1000
0100
0001
0000
0100
0010
0000
0001
,
0000
1000
0001
1000
0010
0100
0001
0010
,
0100
1000
0000
0000
0100
1000
0000
0000
,
0001
0000
0010
0000
0000
0000
0000
0000
0001
0000
0000
0010
0000
0000
0001
0000
,
0100
0000
0010
0000
1000
0001
0000
0100
,
0000
0001
1000
0001
0010
0000
0100
0010
,
0100
0100
0000
0000
0010
0010
0000
0000
,
0001
0000
0001
0000
0000
0000
0000
0000
1000
0000
1000
0001
0000
1000
0001
0000
,
0100
0100
0110
0001
0001
0011
1000
1000
,
1100
0010
0010
1010
0100
0001
0101
0000
,
0010
0100
1000
0100
0010
0000
0001
1000
,
0000
0001
0100
0010
1000
0001
1000
0001
,
0000
0001
0100
0001
0000
1000
0010
1000
,
0000
0100
1000
0100
0000
0010
0001
0010
,
0000
0000
0100
0000
1000
0000
0000
0000
0001
0000
0000
0100
0001
0000
1000
0000
,
0001
0001
1000
1000
0000
0001
0010
0011
,
0000
0100
1100
0000
0010
0001
0100
0000
,
0010
1000
0010
0000
0100
0000
0001
0000
0010
0100
1000
0000
0001
0000
0000
0100
,
0001
0010
0100
0000
1000
0001
0100
0001
,
0010
0001
0010
0000
0100
0000
1000
0000
0001
0000
0100
0000
0010
0000
1000
0000
,
0100
0000
0011
0000
1000
0001
0101
0000
,
0010
1000
0010
0000
0100
0000
0001
0000
1000
0001
1000
0000
0100
0000
0010
0000
,
0001
0000
0000
0001
0010
0000
0000
0010
0100
0000
1000
0000
0000
0000
1100
0000
,
0000
0000
0010
0000
0001
0000
1001
0000
0010
0000
0001
1000
0000
1000
0001
0000
,
0000
0010
1000
0110
0000
1000
0001
1010
,
0000
0100
0001
0000
0001
1000
0001
0010
,
0000
0100
0100
0000
1000
0001
1000
0001
,
0000
0010
0100
1000
0001
0100
1000
0002
,
0000
0000
0000
0000
,
0013
1000
0000
1000
0100
0000
0100
0001
0000
0001
0100
0000
0010
0000
0100
0000
,
1000
0001
0000
0001
0100
0000
0100
0010
0000
0010
1000
0000
0001
0000
0010
0000
,
0100
1000
0000
1000
0100
0000
0010
0001
0000
0001
0100
0000
0010
0000
1010
0000
,
0100
0000
0000
0101
0000
0000
1001
0000
0000
1100
0000
0000
0010
0000
0001
0000
,
1000
0001
0000
0100
0001
0000
0001
1000
0000
0100
1000
0000
0010
0000
0100
0000
,
0001
0010
0000
0010
1000
0000
0010
0100
0000
0100
1000
0000
0001
0000
0100
0000
,
0010
0001
0000
0010
0100
0000
0010
1000
0000
0001
1000
0000
0100
0000
0010
0000
,
0001
0000
0000
0000
0000
0000
1100
0000
0000
0000
0101
0000
0000
1001
0000
0000
,
0110
0000
0000
0011
0000
0000
1010
0000
1001
0000
0000
1100
0000
0000
0101
0000
,
0000
0000
0000
0000
0000
0000
0000
0000
0000
0110
0000
0000
0000
0000
0000
0000
0000
0000
0000
0000
0000
0000
0000
0000
0000
0000
0000
0000
0000
0000
0000
0000
;
