#TITLE:N Final Battle;
#SUBTITLE:;
#ARTIST:Pokemon Black and White;
#TITLETRANSLIT:;
#SUBTITLETRANSLIT:;
#ARTISTTRANSLIT:;
#GENRE:;
#CREDIT:;
#BANNER:N Stepmania Banner.png;
#BACKGROUND:N Stepmania Background.png;
#LYRICSPATH:;
#CDTITLE:;
#MUSIC:N Final Battle.mp3;
#OFFSET:0.081;
#SAMPLESTART:68.213;
#SAMPLELENGTH:12.000;
#SELECTABLE:YES;
#BPMS:0.000=189.941
,102.000=379.882
,106.000=189.941
;
#STOPS:;
#BGCHANGES:;
#KEYSOUNDS:;
#ATTACKS:;

//---------------dance-single - ----------------
#NOTES:
     dance-single:
     :
     Hard:
     9:
     0.780,0.797,0.399,0.678,0.139,472.000,43.000,73.000,0.000,0.000,0.000,0.780,0.797,0.399,0.678,0.139,472.000,43.000,73.000,0.000,0.000,0.000:
0000
0000
0000
0000
,
0000
0000
0000
0000
,
0202
0000
0300
0000
1000
1000
1003
0000
,
0220
0000
0030
0000
0001
0001
0301
0000
,
2002
0000
0003
0000
0001
0001
3001
0000
,
2002
0000
0000
3003
,
0002
0000
0000
0000
1003
0100
1000
0100
,
0020
0000
0030
0000
0001
0100
0001
0100
,
0020
0000
0030
0000
1000
0001
0100
0001
,
1000
0100
0001
0100
2000
0000
0000
0000
,
3001
0000
0000
0001
0100
0000
0000
0100
0010
0000
0000
0010
1000
0000
0001
0000
,
1000
0000
0100
0000
0010
0001
0000
1000
0001
0000
0010
0001
0000
1000
0001
0000
,
2000
0000
0000
0000
3001
0100
1000
0100
,
0001
1000
0002
0000
0000
0200
0003
0000
,
0020
0000
0300
0000
1030
0100
1000
0100
,
1000
0000
0001
0010
0001
0010
0001
0000
,
1000
0010
0100
0001
0100
0000
0001
0000
,
2002
0000
0000
0000
,
0000
0000
0000
0000
,
3003
0000
0002
0000
0000
0023
0000
0000
,
2030
0000
0001
0010
,
0001
0010
0100
0010
,
3100
0010
0001
0010
0100
1000
0010
1000
,
0010
0100
2002
0000
3003
0220
0000
0330
,
2010
0000
0000
0000
3001
0000
1000
0000
0002
0003
1000
0000
0001
0000
0010
0000
,
0100
1000
0100
0010
2002
0000
0000
0000
,
0000
0000
3003
0000
,
0100
0000
0100
0000
0000
0010
0001
0000
0100
0000
0010
0000
0010
0000
1000
0000
,
0100
0100
0010
0000
0021
0000
0031
0000
,
2010
0000
3001
0100
0010
1000
2002
3003
,
0000
0220
0330
0000
2010
0000
0001
0001
,
3001
0100
0010
1000
0001
0100
0010
1000
,
0100
0010
0001
1000
0020
0130
0001
0001
,
2000
0010
3010
0100
0001
1000
2002
3003
,
0000
2200
3300
0000
0220
0330
0000
0011
,
0000
1001
2002
0000
,
0000
0000
0000
0000
,
0000
3003
0022
0000
,
0000
0000
0000
0033
,
2000
0000
0000
0000
0000
3100
1000
0100
,
0010
0001
1000
0001
1000
0010
1000
0010
,
0100
0001
0100
0001
1000
0010
1000
0010
,
0001
0010
0001
0010
1000
0010
1000
0001
,
1000
0100
1000
0100
0001
0100
0001
0100
,
1000
0100
1000
0100
0010
0001
0010
0001
,
1000
0010
1000
0001
0100
0001
0100
0001
,
1000
0100
0001
0100
1000
0010
0001
0010
,
1000
0001
1000
0001
1000
0100
1000
0100
,
0010
0100
0001
0100
0010
1000
0010
0001
,
0010
1000
0100
0001
0100
1000
0010
0001
,
0010
0100
0001
0100
1000
0100
0010
1000
,
0010
0001
0010
0100
0001
0100
0010
1000
,
0010
0001
0010
0100
0001
0100
0010
1000
,
0010
0001
0010
0100
0010
0001
1000
0100
,
0001
0010
1000
0010
0100
0010
0001
1000
,
0100
0000
0010
0001
0010
0001
0010
0000
0100
0000
1000
0000
0200
0000
0000
0000
,
0310
0001
0200
0000
1300
0100
0002
0000
,
0103
0010
0002
0000
0013
0100
0002
0000
,
1003
0010
2000
0000
3001
0010
0002
0000
,
1003
0100
0002
0000
0103
0010
0200
0000
,
1300
0010
2000
0000
3100
0010
0002
0000
,
0013
0010
0200
0000
0310
0010
0002
0000
,
0103
0001
0101
0000
0001
1000
1100
0000
,
0100
0010
0110
0000
1002
0000
1003
0000
,
0012
0103
1002
0103
,
0201
0000
0301
0000
1010
1000
0010
1000
,
0001
0000
1000
0010
1000
0000
0001
0100
0001
0000
0010
0000
1000
0000
0001
0100
,
0001
0000
1000
0010
1000
0000
0001
0000
0101
0000
0000
0000
0000
0000
0100
0000
,
0010
0000
0001
0010
0100
0000
0010
0001
0010
0000
1000
0000
0001
0010
0000
0001
,
0100
0000
0001
0010
0000
0001
1000
0000
0002
0000
0000
0000
0000
0000
1003
0000
,
0010
0000
1000
0010
1000
0000
0001
0100
0001
0000
1000
0000
0100
0010
0000
0001
,
0010
0000
0001
0100
0000
0001
0010
0000
0100
0000
1000
0000
0010
0000
0100
0000
,
0001
0000
1000
0010
0100
0000
0001
0100
0010
0000
1000
0000
0100
0000
0010
0000
,
0001
0010
0100
1000
0002
0000
0000
0023
,
0000
0000
0130
1000
0100
0000
0010
0001
,
0010
0000
0001
0100
0010
1000
0010
1000
,
0100
0000
0010
0000
0100
0010
0100
0000
0010
0001
0010
0000
0100
0000
1000
0000
,
0100
0010
0110
0000
0011
0000
0001
0001
,
0001
0100
0010
1000
1000
1000
0000
2002
,
0000
3003
1001
0000
,
1100
1100
0000
0000
0110
0000
0110
0000
,
0000
0011
0000
0000
1001
0000
0000
0110
,
0000
0000
1001
0000
0001
1000
2002
0000
,
0000
0000
0000
0000
,
0000
0000
0000
0000
,
0000
0000
0000
0000
0000
0000
0000
3003
;

//---------------dance-single - Copied from----------------
#NOTES:
     dance-single:
     Copied from:
     Challenge:
     12:
     0.952,1.000,0.705,0.613,0.557,576.000,76.000,66.000,65.000,0.000,0.000,0.952,1.000,0.705,0.613,0.557,576.000,76.000,66.000,65.000,0.000,0.000:
0000
0000
0000
0000
,
0000
0000
0000
0000
,
1000
0100
1000
0100
0010
0001
0010
0000
0100
0000
1000
0000
0100
0000
0010
0000
,
0001
1000
0010
1000
0001
0100
0001
0000
1000
0000
0010
0000
1000
0000
0001
0000
,
1000
0010
1000
0010
0100
0001
0100
0000
0001
0000
1000
0000
0100
0000
1000
0000
,
20M2
0M00
00M0
0M00
00M0
0M00
00M0
0000
0000
0000
0000
0000
3003
0000
0000
0000
,
1000
0010
0100
0001
0100
0010
1000
0000
0001
0000
0100
0000
0001
0000
0100
0000
,
001M
1000
0010
1000
001M
1000
0010
0000
100M
0000
0100
0000
001M
0000
0100
0000
,
1000
0010
1000
0001
0100
0001
1000
0000
00M0
0000
0000
0000
0M00
0000
0000
0000
,
0001
0100
0010
1000
0001
0100
0100
0100
,
0001
0100
0010
0000
1000
0000
0010
0000
0100
0000
0001
1000
0010
1000
0001
1000
,
0001
0000
1000
0100
1000
0100
0000
0010
0001
1000
0001
1000
0000
0001
0100
0001
,
0100
0010
1000
0000
0001
0000
0100
0000
0001
0100
0010
1000
0001
1000
0001
0100
,
0001
1000
2000
0000
0000
3002
0000
0000
,
0023
0000
0000
0000
0000
0000
0000
0000
0130
0000
1000
0000
0100
0010
0100
0010
,
0100
0000
0000
0001
1000
0001
0000
1000
0001
1000
0001
1000
0000
0001
0100
0010
,
1000
0001
1000
0000
0001
0000
1000
0000
1000
0000
0001
0100
0001
0100
0001
0000
,
2000
00M0
00M0
000M
000M
00M0
00M0
000M
,
000M
00M0
00M0
000M
000M
00M0
00M0
000M
,
300M
0000
2002
0000
3003
0220
0000
0330
,
1000
0000
0001
0010
0001
0000
1000
0000
0001
0000
1000
0100
1000
0000
0010
0000
,
0100
0000
0001
0100
0001
0000
0010
0000
0100
0000
1000
0010
1000
0000
0001
0100
,
0001
1000
0001
0010
0001
0010
0001
0100
0010
0100
0001
1000
0010
1000
0001
0010
,
0001
0000
0022
0000
0033
0220
0000
0330
,
2010
0000
0000
0000
3001
0000
1000
0000
2002
3003
1000
0000
0001
0000
0010
0000
,
0100
1000
0100
0010
2002
0000
0000
0000
,
0000
0000
3003
0000
,
0100
0000
0100
0000
0000
0010
0001
1000
0001
0100
0001
1000
0010
0100
0001
1000
,
0001
1000
0001
1000
0001
0000
0000
0000
0200
0000
0000
0000
0301
0000
0000
0000
,
2000
0001
3001
0100
0010
1000
2002
0000
,
3003
0220
0000
0330
2010
0000
0001
0001
,
3001
0100
0010
1000
0001
0100
0010
1000
,
0100
0010
0001
1000
0020
0130
0001
0001
,
2000
0010
3010
0100
0001
1000
2002
0000
,
3003
2200
0000
3300
0220
0000
0330
0022
,
0000
0033
1001
0000
2002
0000
0M00
0000
,
00M0
0M00
00M0
0M00
,
00M0
3M03
M022
0M00
,
M000
0M00
M000
0M33
,
1000
0001
1000
0001
1000
0001
1000
0010
1000
0010
1000
0010
1000
0000
0000
0100
0000
0000
1000
0000
0000
0100
0000
0000
,
0010
0001
0020
0031
1000
0010
1000
0010
,
0100
0001
0100
0001
1000
0010
1000
0010
,
0001
0010
0001
0010
1000
0010
1000
0001
,
1000
0100
1000
0100
0001
0100
0001
0100
,
1000
0100
1000
0100
0010
0001
0010
0001
,
1000
0010
1000
0001
0100
0001
0100
0001
,
1000
0100
0001
0100
1000
0010
0001
0010
,
1000
0001
1000
0001
1100
1000
0010
1000
,
010M
1000
0001
1000
1100
0000
1100
0002
,
0000
0003
1100
0110
,
0020
0000
0030
0000
0110
0000
0101
2000
,
0000
0000
3000
0000
0101
0001
1000
0001
,
1000
0100
0001
0100
2000
0000
3MM2
0000
,
0000
0003
0000
0000
1000
0001
1000
0010
,
1010
0010
1000
0100
0010
0001
0100
0001
,
1000
0000
0001
0010
0001
0010
0001
0000
1000
0000
0100
0000
1100
0000
0000
0000
,
0100
0010
0011
0000
1000
0010
0110
0000
,
0001
0100
0101
0000
0001
1000
1001
0000
,
1000
0010
1010
0000
0001
0010
0011
0000
,
0001
1000
1001
0000
0100
0010
0110
0000
,
0001
1000
1001
0000
0100
0010
0110
0000
,
0001
0010
0011
0000
0001
1000
1001
0000
,
0101
0001
0101
0000
1001
1000
1100
0000
,
1100
0010
0101
0000
1002
0000
1003
0000
,
0012
0103
1002
0103
,
0201
0000
0301
0000
1010
1000
0010
1000
,
0001
0000
1000
0010
1000
0010
0100
0001
0100
0000
0010
0000
1000
0000
0001
0100
,
0001
0000
1000
0010
1000
0001
0100
0010
0110
0000
0000
0000
0000
0000
0110
0000
,
0010
0000
0001
0010
0100
0010
0100
0010
0001
0000
1000
0010
1000
0010
0000
0100
,
0001
1000
0010
1000
0000
0001
1000
0010
1000
0000
0000
0000
0000
0000
1100
0000
,
0001
0000
1000
0010
1000
0001
1000
0001
1000
0000
0100
0010
0100
0010
0000
0001
,
1000
0001
0100
0001
0000
1000
0001
1000
2001
0000
3001
0000
0010
0000
2001
0000
,
3001
0000
1000
0010
0100
0001
1000
0001
1000
0000
0100
0000
0001
0000
0100
0000
,
1000
0010
1000
0001
2002
0000
3003
0220
,
0000
0330
1000
0001
1000
0010
1000
0001
,
1000
0100
0001
0100
1001
0001
1000
0020
,
1030
0000
1100
0000
0100
0010
0100
0000
M010
0001
0010
0100
1000
0100
001M
0100
,
0010
0001
0022
0033
0022
0033
0001
2000
,
3001
1001
0001
0010
0011
1010
0000
2002
,
0M00
00M0
0M00
00M0
0M00
00M0
3M03
00M0
1M01
0000
0000
0000
M00M
0000
0000
0000
,
1100
1100
000M
0000
M11M
0000
M11M
0000
,
0000
0011
0000
0000
1001
0000
0000
M11M
,
0000
0000
0000
0000
1001
0000
0000
0000
0001
0000
1000
0100
2002
0000
0000
0000
,
0000
0000
0000
0000
,
0000
0000
0000
0000
,
0000
0000
0000
0000
0000
0000
0000
3003
;

//---------------dance-single - Copied from----------------
#NOTES:
     dance-single:
     Copied from:
     Medium:
     8:
     0.687,0.797,0.585,0.891,0.023,359.000,63.000,96.000,0.000,0.000,0.000,0.687,0.797,0.585,0.891,0.023,359.000,63.000,96.000,0.000,0.000,0.000:
0000
0000
0000
0000
,
0000
0000
0000
0000
,
0202
0000
0303
0000
1000
0001
1000
0000
,
0220
0000
0330
0000
0001
1000
0001
0000
,
2002
0000
3003
0000
0001
0100
0001
0000
,
2002
0000
0000
3003
,
0002
0000
0000
0000
1003
0100
1000
0100
,
0020
0000
0030
0000
0001
0100
0001
0100
,
0020
0000
0030
0000
1000
0001
1000
0000
,
0001
0100
0001
0100
0002
0000
0000
0000
,
1003
0100
1000
0000
0001
0000
0100
0000
,
0001
1000
0001
0000
0100
0000
0010
0000
,
0100
0010
0100
0000
0001
0000
1000
0100
,
0010
0100
0220
0330
0000
2002
3003
0000
,
0220
0000
0330
0000
1000
0100
1000
0100
,
1000
0000
0001
0010
0001
0010
0001
0000
,
1000
0010
0100
0001
0100
0000
0001
0000
,
2002
0000
0000
0003
,
0020
0000
0000
0030
,
0000
0000
3202
0303
0000
2002
3003
0000
,
2002
0003
3002
0203
,
0320
2030
3020
0230
,
0301
0001
0001
0000
0010
0010
0010
0000
,
1000
0001
2002
0000
3003
0220
0000
0330
,
2010
0000
3001
0000
1001
0000
0001
0010
,
0100
1000
0100
0000
2002
0000
0000
0000
,
0000
0000
3003
0000
,
0100
0000
0100
0000
0000
0010
0000
0000
0100
0000
0001
0000
0010
0000
0000
0000
,
0100
1000
0010
0000
0021
0000
0031
0000
,
2010
0000
3001
0100
0010
0000
2002
3003
,
0000
0220
0330
0000
2020
0000
3030
0000
,
0001
1000
0001
0000
0100
0000
0010
0000
,
0100
0010
0100
0000
0010
0000
0001
0000
,
1000
0001
1000
0000
0001
0000
2002
3003
,
0000
2200
3300
0000
0220
0330
0000
0022
,
0033
0000
2002
3003
2002
0000
0000
0000
,
0000
0000
0000
0000
,
0000
3003
0022
0000
,
0000
0000
0000
0033
,
2000
3000
1100
0100
,
1000
0100
1000
0000
0100
0010
0100
0000
,
0010
0001
0010
0000
1001
0000
0100
0000
,
0010
0100
0010
0000
0001
0010
0001
0000
,
0010
0001
0010
0000
1001
0000
0100
0000
,
0010
0100
0010
0000
0001
0010
0001
0000
,
0100
0001
0100
0000
0001
0000
1000
0000
,
0100
0010
0100
0000
0010
0001
0010
0000
,
0001
0100
0001
0000
1000
0001
1000
0001
,
1000
0100
1000
0000
0001
0100
0001
1000
,
0001
1000
0001
0000
0100
0001
0100
0001
,
1000
0001
0100
0000
0001
1000
0100
0010
,
0001
1000
0001
0000
1000
0001
1000
0000
,
0010
0000
0110
0000
0001
1000
0001
0000
,
1000
0000
0100
0000
0010
0100
0010
0001
,
1000
0001
0100
0010
1000
0001
0010
0001
,
1000
0001
0001
0001
1000
0100
0020
0000
,
0031
0010
0200
0000
1300
0100
0020
0000
,
0130
0010
0002
0000
0013
0100
2000
0000
,
3010
1000
0002
0000
0013
0001
2000
0000
,
3010
0010
0200
0000
0301
0010
0200
0000
,
1300
0010
2000
0000
3100
0010
0002
0000
,
0013
0010
0200
0000
0310
0010
0002
0000
,
0103
0101
0001
1100
,
0100
0110
1001
1010
,
0011
0101
1001
0110
,
0101
0000
0011
0000
1010
0010
1000
0000
,
0001
0100
0001
0000
1000
0100
0010
0000
,
0100
1000
0100
0010
2002
0000
0000
0000
,
0000
0000
0000
0000
0000
0000
0000
0000
3003
0000
0000
0000
0001
0000
0000
1000
,
0000
0000
0100
0000
0000
0001
0000
0000
0200
0000
0000
0000
0000
0000
1300
0000
,
0001
0000
0010
0000
0100
0000
0000
0000
1000
0000
0100
0000
1000
0000
0000
0001
,
0000
0000
0001
0000
0000
0001
0000
0000
0200
0000
0000
0000
1300
0000
0000
0000
,
0020
0130
0002
1003
,
0020
0000
0130
0000
0012
0000
0010
0003
,
0011
0000
0100
1000
0200
0000
0310
0001
,
0020
0000
0031
0100
0202
0000
0000
0303
,
0000
2010
0000
0000
3001
0000
0000
2001
,
0000
3010
1002
0000
,
0003
0210
0000
0000
0000
1300
0000
2002
,
0000
3003
1001
0000
,
1100
1100
0000
0000
0110
0000
0110
0000
,
0000
0011
0000
0000
1001
0000
0000
0110
,
0000
0000
1001
0000
0001
1000
2002
0000
,
0000
0000
0000
0000
,
0000
0000
0000
0000
,
0000
0000
0000
0000
0000
0000
0000
3003
;

//---------------dance-single - rollz----------------
#NOTES:
     dance-single:
     rollz:
     Edit:
     11:
     0.375,0.757,0.325,0.353,0.009,232.000,35.000,38.000,0.000,1.000,63.000,0.375,0.757,0.325,0.353,0.009,232.000,35.000,38.000,0.000,1.000,63.000:
0000
0000
0000
0000
,
0000
0000
0000
0000
,
0004
4000
0000
0000
0000
0000
3003
0000
,
0400
0040
0000
0000
0000
0000
0330
0000
,
4000
0040
0000
0000
0000
0000
3030
0000
,
4000
0004
0000
0000
0000
0000
3003
0000
,
0004
4000
0000
0000
0000
0000
3003
0000
,
4000
0400
0000
0000
0000
0000
3300
0000
,
0040
0004
0000
0000
0000
0000
0033
0000
,
1000
0100
0001
0100
2000
0000
0000
0000
,
3004
0400
0000
0000
0000
0000
0303
0000
,
0004
4000
0000
0000
0000
0000
3003
0000
,
0004
0400
0000
0000
0000
0000
0303
0000
,
0000
0000
0002
0000
0000
2003
0000
0000
,
0200
0000
0000
0000
,
0000
0000
0000
0000
,
0004
0040
0000
0000
0000
0000
0000
0000
,
0000
0000
0000
0000
,
0000
0000
0000
0000
0000
0000
0000
0033
,
3300
0000
0002
0000
0000
0200
0000
0000
,
2000
0000
0000
0000
,
0000
0000
0000
0000
,
3303
0000
0000
0000
0100
1000
0010
1000
,
0010
0100
2000
0000
0000
0200
0000
0000
,
0020
0000
3330
0000
2220
3330
0000
0000
,
0000
0000
2002
0000
,
0000
0000
3003
0000
,
0100
0000
0100
0000
0000
0010
0004
4000
0000
0000
0000
0000
0000
0000
0000
0000
,
0000
3003
0021
0031
,
2010
0000
3001
0100
0010
1000
2002
3003
,
0000
0220
0330
0000
2010
0000
0001
0001
,
3001
0100
0010
1000
0001
0100
0010
1000
,
0100
0010
0001
1000
0040
0130
0001
0001
,
2000
0010
3010
0100
0001
1000
2002
3003
,
0000
2200
3300
0000
0220
0330
0000
0011
,
0000
1001
4002
0000
,
0000
0000
0000
0000
,
0000
3003
0402
0000
,
0000
0000
0000
0303
,
2000
3000
1100
1000
,
0100
0010
0040
0000
,
0000
0030
0004
0000
,
0000
0003
0400
0000
,
0000
0300
0040
0000
,
0000
0030
4000
0000
,
0000
3000
0004
0000
,
0000
0003
4000
0000
,
0000
3000
0040
0000
,
0000
0000
0030
0000
4000
0040
0000
0000
,
0000
0000
3030
0000
0040
0400
0000
0000
,
0000
0000
0330
0000
0040
4000
0000
0000
,
0000
0000
3030
0000
4000
0004
0000
0000
,
0000
0000
3003
0000
0004
0400
0000
0000
,
0000
0000
0303
0000
0004
4000
0000
0000
,
0000
3003
0400
0000
,
0300
1000
L000
0100
,
0L00
0010
00L0
0001
,
000L
0100
0L00
0001
,
000L
0100
0L00
0010
,
00L0
1000
L000
0001
,
000L
0001
000L
0010
,
00L0
1000
L000
0001
,
000L
0100
0L00
0001
,
000L
0110
1002
1003
,
0012
0103
1002
0103
,
0201
0000
0301
0000
4000
0000
0000
3000
,
0040
0000
0000
0030
0400
0000
0000
0300
,
0004
0000
0000
0003
0040
0100
0000
0130
,
0004
0100
0000
0103
0004
1000
0000
1003
,
0040
0100
0000
0130
0004
0100
0000
0103
,
0040
1000
0000
1030
0400
0010
0000
0310
,
0004
1000
0000
1003
0004
0100
0000
0103
,
0004
0010
0000
0013
0004
1000
0000
1003
,
0000
0000
0001
0000
1001
1000
0100
0001
,
0100
1000
0010
0001
0010
1000
0100
0001
,
0100
1000
0001
1000
1001
0000
0000
0000
,
0000
L00L
0000
0000
0110
0000
0000
0LL0
,
0000
000L
00L0
0000
,
0000
0000
1000
0000
0000
L000
0001
0000
,
0000
0000
1001
0000
,
1100
1100
0000
0000
0110
0000
0110
0000
,
0000
0011
0000
0000
1001
0000
0000
0110
,
0000
0000
1001
0000
0001
1000
2002
0000
,
0000
0000
0000
0000
,
0000
0000
0000
0000
,
0000
0000
0000
0000
0000
0000
0000
3003
;

//---------------dance-single - Blank----------------
#NOTES:
     dance-single:
     Blank:
     Easy:
     5:
     0.318,0.399,0.176,0.121,0.000,208.000,19.000,13.000,0.000,0.000,0.000,0.318,0.399,0.176,0.121,0.000,208.000,19.000,13.000,0.000,0.000,0.000:
0000
0000
0000
0000
,
0000
0000
0000
0000
,
0000
0000
0001
0000
,
0100
0000
0010
0000
,
1000
0001
0010
0100
,
1000
0001
0100
0010
,
1001
0000
1001
0000
,
0110
0000
0110
0000
,
0001
0000
1000
0000
,
0100
0010
0001
1000
,
0010
0100
0100
0100
,
0001
0001
1000
1000
,
0001
1000
0100
0010
,
0001
0001
1000
1000
,
1001
0001
0001
0001
,
1000
2000
0000
0000
,
0000
0000
0000
0000
,
0000
0000
0000
0001
,
0100
0010
0000
0100
,
0001
0010
0000
0000
,
0002
0000
3000
0000
,
0000
0000
0000
0000
,
0000
1000
0000
0100
,
0000
0000
0010
0000
0003
0100
0000
0000
,
0202
0000
0000
0000
,
0000
0000
0303
0000
,
0000
0000
0000
0000
,
0000
0000
0000
0000
,
0000
0000
0000
0000
,
0000
1000
0000
1000
,
0000
0001
0000
0000
0002
0000
0000
0000
,
0000
0000
0100
0000
,
0000
0000
0000
0000
,
0000
0100
0000
1000
,
0003
1000
0000
0000
0100
0000
0000
0010
,
0000
0001
0200
0000
,
0010
0000
0300
0010
,
0001
0000
1000
1000
,
0000
1001
0100
0000
,
0010
0001
2002
0000
,
0000
0000
3000
0003
,
0100
1000
0010
0101
,
0000
0100
0010
0001
,
1000
0010
0100
0001
,
0010
0010
0001
0010
,
0100
1000
0001
0100
,
0010
1000
0001
0010
,
0100
1000
0001
0100
,
0010
1000
0001
0110
,
0000
0010
0100
0100
,
1001
0001
0001
0010
,
0110
0000
1100
0001
,
0010
0100
0010
1000
,
0001
0100
0010
1000
,
0001
0010
0100
1000
,
0001
0100
0010
1000
,
0001
1000
0001
0100
,
0010
0100
0010
1001
,
0010
0100
1000
0001
,
0100
0010
1000
0001
,
0100
0010
1000
0001
,
0010
0000
1100
0001
,
0100
0010
1000
0100
,
0010
0001
1000
0000
,
0100
0000
0010
0000
,
0001
0000
1000
0000
,
1000
0000
0100
0000
,
0010
0000
0000
0010
2000
0000
0000
0000
,
0000
0000
0000
0000
,
0000
0000
0002
3000
,
0000
0000
0000
0000
,
0000
0000
2000
0003
,
0000
0000
0000
0000
,
0000
0000
0002
3000
,
0000
0000
0000
0000
,
0000
0000
0010
0003
,
0000
0001
0001
1000
,
1000
1001
0000
0110
,
0000
1001
1001
0000
,
0100
0010
0010
1000
,
0001
0100
0010
1000
,
0001
0100
0010
0001
,
1000
1000
0010
0100
,
0001
0010
0100
1000
,
0001
0010
0200
0000
,
0000
0000
0000
0000
,
0300
0000
0000
0000
;

//---------------dance-single - Blank----------------
#NOTES:
     dance-single:
     Blank:
     Beginner:
     2:
     0.182,0.198,0.074,0.000,0.000,129.000,8.000,0.000,0.000,0.000,0.000,0.182,0.198,0.074,0.000,0.000,129.000,8.000,0.000,0.000,0.000,0.000: // measure 0
0000
0000
0000
0000
,  // measure 1
0000
0000
0000
0000
,  // measure 2
0000
1000
0000
0000
,  // measure 3
0001
0000
0000
0000
,  // measure 4
0100
0000
0000
0000
,  // measure 5
0010
0000
0000
0000
,  // measure 6
1000
0000
0000
0000
,  // measure 7
0001
0000
0000
0000
,  // measure 8
0100
0000
0000
0000
,  // measure 9
0100
0000
0000
0000
,  // measure 10
0000
0010
0000
0000
,  // measure 11
0010
0000
0000
0000
,  // measure 12
0001
0001
0001
0000
,  // measure 13
0000
0000
0000
0000
,  // measure 14
1000
1000
1000
0000
,  // measure 15
0000
0000
0100
0000
,  // measure 16
0000
0000
0010
0000
,  // measure 17
0000
0000
1000
0000
,  // measure 18
0000
0000
1001
0000
,  // measure 19
0000
0000
0110
0000
,  // measure 20
0000
0001
0000
0000
,  // measure 21
0000
1000
0000
0000
,  // measure 22
0000
1000
0000
0000
,  // measure 23
0000
0100
0000
0000
,  // measure 24
0000
0000
0010
0000
,  // measure 25
0000
0001
0000
0000
,  // measure 26
0000
0000
0000
1000
,  // measure 27
0000
0000
0000
0100
,  // measure 28
0000
0000
0000
0010
,  // measure 29
0000
0000
0000
0001
,  // measure 30
0000
0000
0000
1000
,  // measure 31
0000
0000
0000
0100
,  // measure 32
0000
0000
0000
0110
,  // measure 33
0000
0000
0000
1001
,  // measure 34
0000
0000
0000
0001
,  // measure 35
0000
0000
0000
0010
,  // measure 36
0010
0000
0000
0000
,  // measure 37
1000
1000
1000
0000
,  // measure 38
0001
0001
0000
0001
,  // measure 39
0000
0100
0000
0000
,  // measure 40
0010
0000
0000
0000
,  // measure 41
1000
0000
0000
0010
,  // measure 42
0000
0000
0100
0000
,  // measure 43
0001
0000
0000
1000
,  // measure 44
0000
0000
0010
0000
,  // measure 45
0100
0000
0000
0001
,  // measure 46
0000
0000
1000
0000
,  // measure 47
0000
0100
0000
0000
,  // measure 48
0010
0000
0000
1000
,  // measure 49
0000
0001
0000
0010
,  // measure 50
0000
0000
0100
0000
,  // measure 51
1000
0000
1001
0000
,  // measure 52
0001
0000
0100
0000
,  // measure 53
0000
1000
0000
0010
,  // measure 54
0000
0100
0000
0001
,  // measure 55
1000
0000
0100
0000
,  // measure 56
0000
0010
0000
0001
,  // measure 57
0000
1000
0000
0100
,  // measure 58
0000
0010
0000
0001
,  // measure 59
0000
1000
0000
1000
,  // measure 60
0000
1000
0000
0010
,  // measure 61
0000
0010
0000
0100
,  // measure 62
0000
0100
0000
0001
,  // measure 63
0000
0001
0000
1000
,  // measure 64
0000
1000
0000
0100
,  // measure 65
0000
0100
0000
0010
,  // measure 66
0000
0010
0000
0000
,  // measure 67
0001
0000
0001
0000
,  // measure 68
1000
0000
0100
0000
,  // measure 69
0010
0000
0001
0000
,  // measure 70
1000
0000
0100
0000
,  // measure 71
1001
0000
0100
0000
,  // measure 72
0010
0000
0010
0000
,  // measure 73
0001
0000
1000
0000
,  // measure 74
0100
0000
0110
0000
,  // measure 75
0001
0000
1000
0000
,  // measure 76
0010
0000
0100
0000
,  // measure 77
0000
0001
0000
1000
,  // measure 78
0000
0100
0000
0010
,  // measure 79
0000
0001
0000
1000
,  // measure 80
0000
0100
0000
0010
,  // measure 81
0000
1000
0001
0000
,  // measure 82
0010
0000
0100
0000
,  // measure 83
1000
0000
0100
0000
,  // measure 84
0001
0000
0010
0000
,  // measure 85
0000
1001
0000
0000
;
