#TITLE:Chemical Love;
#SUBTITLE:;
#ARTIST:John Desire;
#TITLETRANSLIT:;
#SUBTITLETRANSLIT:;
#ARTISTTRANSLIT:;
#CREDIT:Blinded_No_More/GuardianFrozen;
#BANNER:Chemical Love-bn.PNG;
#BACKGROUND:Chemical Love-bg.png;
#LYRICSPATH:;
#CDTITLE:cdtitle.png;
#MUSIC:Chemical Love.ogg;
#OFFSET:-0.020;
#SAMPLESTART:35.400;
#SAMPLELENGTH:17.200;
#SELECTABLE:YES;
#BPMS:0.000=160.000;
#STOPS:;
#BGCHANGES:;

//---------------dance-single - ----------------
#NOTES:
     dance-single:
     :
     Hard:
     9:
     0.573,0.532,0.089,0.000,0.151:
0000
0000
0000
0000
,
0000
0000
0000
0000
,
0000
0000
0000
0000
,
0000
0000
0000
0000
,
1000
0000
0001
0000
0000
0010
0000
0000
0001
0000
0000
0100
0000
0000
0010
0000
,
1000
0000
0100
0000
0000
0010
0000
0000
0001
0000
0000
1000
0000
0000
0010
0000
,
1000
0000
0001
0000
0000
0010
0000
0000
0001
0000
0000
0100
0000
0000
0010
0000
,
1000
0100
0010
0001
1000
0010
0100
0001
,
0010
0001
0100
0001
0010
0100
1000
0100
,
0010
0001
1000
0010
1000
0001
0010
0001
,
0000
0010
0001
0100
0010
1000
0100
0001
,
0100
1000
0010
0100
0001
1000
0001
0000
,
1000
0100
1000
0001
1000
0010
1000
0100
,
1000
0010
0100
0001
0100
0010
1000
0000
,
0001
0100
0010
1000
0001
0010
0001
0100
,
0110
0000
0000
0010
1010
0000
0000
0000
,
1000
0100
1000
0000
0001
0100
0001
0000
,
1000
0010
1000
0001
0010
0001
1000
0100
,
1000
0001
0100
0000
0010
1000
0100
0000
,
0110
0000
0011
0000
0001
0100
0000
0010
,
1000
0100
1000
0000
0010
0100
0010
0000
,
0100
0001
0100
0000
0001
0010
0001
0000
,
0010
0100
1000
0010
0100
0001
0000
1001
,
0000
0000
0000
0000
0000
1000
0100
0010
,
0001
0100
0010
0000
1000
0100
0001
0100
,
1000
0010
0100
0001
0010
0001
0100
0010
,
1000
0100
0010
0000
0001
0100
0110
0000
,
0010
1000
0100
0010
0000
0001
1000
0010
,
1000
0001
0010
0000
0001
0100
0010
1000
,
0100
0001
0100
1000
0010
0100
0001
0010
,
0001
0000
0000
1000
0001
0000
0010
0000
0100
0000
0000
0000
1100
0000
0000
0000
,
1000
0010
0100
0001
0010
0001
0100
0010
,
1000
0100
0001
0000
0100
1000
0010
0100
,
0001
0010
1000
0010
0001
0100
0010
1000
,
0100
0010
0001
0000
0100
0010
1010
0000
,
0010
0100
0001
0010
0100
1000
0010
1000
,
0001
0010
0001
0000
0010
0100
1000
0010
,
1000
0100
0001
0100
1000
0010
0001
0010
,
1000
0010
0100
0001
1000
0100
0010
0001
,
1000
1000
0010
0010
0100
0100
0001
0001
,
0010
0000
0100
0000
0000
1000
0000
0000
0010
0000
0000
0100
0000
0000
0001
0000
,
1000
0000
0010
0000
0000
1000
0000
0000
0001
0000
0000
0010
0000
0000
0001
0000
,
1000
0010
0000
0100
0001
0000
0010
0100
,
1000
0010
1000
0010
0100
0010
0100
0010
,
0100
0000
0010
0000
0000
1000
0000
0000
0100
0000
0000
0010
0000
0000
0001
0000
,
1000
0000
0010
0000
0000
1000
0000
0000
0001
0000
0000
0010
0000
0000
0001
0000
,
0100
0000
0010
0000
0000
1000
0000
0000
0100
0000
0000
0010
0000
0000
0001
0000
,
1000
0010
0100
0001
1000
0100
0010
0001
,
1000
0000
0010
0000
0000
1000
0000
0000
0001
0000
0000
0010
0000
0000
0001
0000
,
0100
0000
0010
0000
0000
1000
0000
0000
0010
0000
0000
0100
0000
0000
0001
0000
,
0010
0100
0000
1000
0001
0000
0010
0001
,
0100
0010
1000
0100
0001
0100
1000
0010
,
1000
0000
0001
0000
0000
0010
0000
0000
0001
0000
0000
0100
0000
0000
0010
0000
,
1000
0000
0100
0000
0000
0010
0000
0000
0001
0000
0000
1000
0000
0000
0010
0000
,
1000
0000
0001
0000
0000
0010
0000
0000
0001
0000
0000
0100
0000
0000
0010
0000
,
1000
0100
0010
0001
1000
0010
0100
0001
,
0010
0000
0000
0000
;

//---------------dance-single - ----------------
#NOTES:
     dance-single:
     :
     Beginner:
     1:
     0.096,0.125,0.000,0.000,0.000:
0000
0000
0000
0000
,
0000
0000
0000
0000
,
0000
0000
0000
0000
,
0000
0000
0000
0000
,
1000
0000
0000
0000
,
0100
0000
0000
0000
,
0010
0000
0000
0000
,
0001
0000
0000
0000
,
1000
0000
0000
0000
,
1000
0000
0000
0000
,
0001
0000
0000
0000
,
0001
0000
0000
0000
,
0010
0000
0000
0000
,
0010
0000
0000
0000
,
0100
0000
0000
0000
,
0100
0000
0000
0000
,
1000
0000
0000
0000
,
0001
0000
0000
0000
,
0010
0000
0000
0000
,
0100
0000
0000
0000
,
1000
0000
0000
0000
,
0010
0000
0000
0000
,
0100
0000
0000
0000
,
0001
0000
0000
0000
,
0010
0000
0000
0000
,
0001
0000
0000
0000
,
0100
0000
0000
0000
,
0010
0000
0010
0000
,
0010
0000
0000
0000
,
1000
0000
0000
0000
,
0100
0000
0000
0000
,
0010
0000
0010
0000
,
0010
0000
0000
0000
,
0001
0000
0000
0000
,
1000
0000
0000
0000
,
0100
0000
0100
0000
,
0100
0000
0000
0000
,
0010
0000
0000
0000
,
0001
0000
0001
0000
,
0001
0000
0000
0000
,
1000
0000
0000
0000
,
0010
0000
0000
0000
,
1000
0000
0000
0000
,
0100
0000
0000
0000
,
0010
0000
0000
0000
,
0001
0000
0000
0000
,
0100
0000
0000
0000
,
0010
0000
0010
0000
,
0010
0000
0000
0000
,
1000
0000
0000
0000
,
0100
0000
0000
0000
,
0010
0000
0010
0000
,
0010
0000
0000
0000
,
0001
0000
0000
0000
,
1000
0000
0000
0000
,
0100
0000
0100
0000
,
0100
0000
0000
0000
;

//---------------dance-single - ----------------
#NOTES:
     dance-single:
     :
     Easy:
     4:
     0.232,0.282,0.000,0.000,0.000:
0000
0000
0000
0000
,
0000
0000
0000
0000
,
0000
0000
0000
0000
,
0000
0000
0000
0000
,
1000
0000
0001
0100
,
0001
0000
1000
0010
,
1000
0000
0001
0010
,
0001
1000
0010
1000
,
0100
0000
0010
0000
,
0001
0000
0100
0100
,
0000
0010
0000
1000
,
0100
0010
0001
0000
,
0100
0000
0010
0000
,
1000
0000
0001
0000
,
0010
0000
0001
0000
,
0100
0001
0100
0000
,
0010
0000
1000
0000
,
0100
0010
0100
0000
,
0010
0000
0001
0000
,
1000
0001
1000
0000
,
0010
0000
1000
0000
,
0100
0000
0010
0000
,
0001
0100
0010
1000
,
0001
0000
0000
0000
,
1000
0000
0010
0000
,
0100
0000
0001
0000
,
0010
0100
0010
0100
,
1000
0001
1000
0001
,
1000
0000
0010
0000
,
0100
0000
0001
0000
,
0010
0000
0100
0000
,
1000
0001
0010
0001
,
1000
0000
0010
0000
,
1000
0000
0100
0000
,
0010
0000
0001
0000
,
0100
0010
1000
0010
,
0100
0000
0001
0000
,
0010
0000
0100
0000
,
1000
0010
1000
0001
,
0010
0000
0001
0000
,
0100
0000
0010
1000
,
0010
0000
1000
0100
,
1000
0000
0001
1000
,
0001
0010
0100
1000
,
0010
0000
0100
0001
,
0100
0000
0010
1000
,
0010
0000
1000
0100
,
1000
0001
0010
0001
,
0100
0000
0010
0100
,
0010
0000
1000
0100
,
1000
0000
0001
0000
,
0010
0001
0100
0010
,
1000
0000
0001
0010
,
0001
0000
1000
0010
,
1000
0000
0001
0100
,
0001
1000
0100
0010
,
0001
0000
0000
0000
;

//---------------dance-single - ----------------
#NOTES:
     dance-single:
     :
     Medium:
     6:
     0.390,0.438,0.022,0.000,0.028: // measure 1
0000
0000
0000
0000
,  // measure 2
0000
0000
0000
0000
,  // measure 3
0000
0000
0000
0000
,  // measure 4
0000
0000
0000
0000
,  // measure 5
1000
0000
0100
0000
0010
0000
0001
0010
,  // measure 6
0001
0000
0100
0000
0010
0000
1000
0001
,  // measure 7
1000
0000
0010
0000
1000
0000
0100
0010
,  // measure 8
0100
0010
0001
0100
,  // measure 9
0010
1000
0001
0010
,  // measure 10
0001
0000
0100
0000
0010
0000
1000
0010
,  // measure 11
0000
0100
0001
0010
,  // measure 12
0100
0000
1000
0000
0001
1000
0000
0000
,  // measure 13
0010
1000
0100
0010
,  // measure 14
0001
0100
0010
1000
,  // measure 15
0001
0010
0001
0100
,  // measure 16
0010
1000
0010
1000
0010
0000
1010
0000
,  // measure 17
0010
0100
0001
0010
,  // measure 18
0100
1000
0100
1000
0000
0000
0010
0000
,  // measure 19
0100
0001
0010
0001
,  // measure 20
0100
0000
0010
0000
1000
0100
0000
0000
,  // measure 21
0010
0000
0001
0000
1000
0010
0000
1000
,  // measure 22
0000
0001
0000
0010
0000
0001
0000
0100
,  // measure 23
0000
0010
1000
0000
0100
0010
0000
0001
,  // measure 24
0000
0000
0000
0000
0000
1000
0001
0000
,  // measure 25
1000
0000
0010
0000
1000
0001
0000
0010
,  // measure 26
0000
0001
0000
0100
0000
0010
0000
1000
,  // measure 27
0000
0100
0010
0000
0001
0010
0001
0000
,  // measure 28
0100
0000
0010
1000
0000
0010
0100
0000
,  // measure 29
0001
0000
0010
0000
0100
1000
0000
0001
,  // measure 30
0000
0010
0000
0001
0000
0100
0000
0010
,  // measure 31
1000
0000
0100
0000
0010
0000
0001
0010
,  // measure 32
0001
0000
0100
0000
0010
1000
0010
1000
,  // measure 33
0010
0000
1000
0000
0100
0010
0000
0001
,  // measure 34
0000
1000
0000
0010
0000
1000
0000
0001
,  // measure 35
0000
0010
0001
0000
0100
0001
0100
0000
,  // measure 36
0010
0000
1000
0100
0000
0010
0001
0000
,  // measure 37
1000
0000
0010
0000
1000
0001
0000
0010
,  // measure 38
0000
0001
0000
0100
0000
0010
0000
1000
,  // measure 39
0000
0100
0010
0000
0001
1000
0000
0010
,  // measure 40
1000
0001
0010
0001
,  // measure 41
1000
0000
0100
0000
0010
0000
0001
0100
,  // measure 42
0001
0000
0100
0000
0010
0000
1000
0010
,  // measure 43
1000
0100
0010
0001
,  // measure 44
1000
0010
1000
0000
0001
0010
0001
0000
,  // measure 45
1000
0000
0100
0000
0001
0000
0100
1000
,  // measure 46
0100
0000
0010
0000
0001
0000
0100
0010
,  // measure 47
0100
0000
0010
0000
1000
0000
0001
0010
,  // measure 48
0001
1000
0010
0100
,  // measure 49
0000
0000
0001
0000
0000
0000
0000
0000
0010
0000
0000
0010
0000
0000
0010
0000
,  // measure 50
0000
0000
0100
0000
0000
0000
0000
0000
1000
0000
0000
1000
0000
0000
1000
0000
,  // measure 51
0010
0100
0000
0010
0100
0000
0010
0000
,  // measure 52
0100
0001
0010
0000
0100
1000
0010
0100
,  // measure 53
0000
0000
0001
0000
0000
0000
0000
0000
0010
0000
0000
0010
0000
0000
0010
0000
,  // measure 54
0000
0000
0100
0000
0000
0000
0000
0000
1000
0000
0000
1000
0000
0000
1000
0000
,  // measure 55
0000
0000
0010
0000
0000
0000
0000
0000
0100
0000
0000
0100
0000
0000
0100
0000
,  // measure 56
0001
0010
0100
1000
0010
0100
0001
1000
,  // measure 57
1001
0000
0000
0000
;

//---------------dance-single - ----------------
#NOTES:
     dance-single:
     :
     Challenge:
     10:
     0.775,0.908,0.626,0.123,0.665:
0000
0000
0000
0000
,
0000
0000
0000
0000
,
0000
0000
0000
0000
,
0000
0000
0000
0000
,
0000
0000
0101
0000
0001
1000
0000
1000
0100
0000
1000
0001
0000
0100
0001
0000
,
0000
0000
1010
0000
1000
0010
0000
1000
0001
0000
0010
1000
0000
0001
0010
0000
,
0000
0000
1001
0000
0010
0100
0000
1000
0010
0000
0001
0100
0000
0010
0100
0000
,
1000
0100
0010
0100
1000
0000
0001
0010
0100
0010
0001
0000
1000
0100
0010
0001
,
1000
0010
0100
0010
1000
0000
0001
0010
,
0000
0100
0010
0001
1000
0001
0200
0010
,
0300
0010
0010
1000
0001
1000
0001
0010
,
0100
0100
0000
1100
0000
0101
0000
1001
,
0010
0000
0100
0010
0001
1000
0000
0010
,
1000
0001
0010
1000
0001
0100
1000
0100
,
0000
0010
0100
1000
0001
0100
0001
1000
,
2000
0000
0000
3001
0002
0000
0000
0003
,
0011
0100
0010
0000
0100
1000
0001
0000
,
1000
0000
0100
0000
1000
0000
0010
0000
1000
0010
1000
0010
1000
0100
1000
0100
,
1000
0010
0100
0001
1000
0001
0010
0000
,
0011
0000
1100
0000
1001
0020
0000
0031
,
0100
0001
1000
0100
0000
0011
0000
0100
,
0000
1010
0000
1001
0000
0010
0001
1000
,
0000
0001
0100
0001
0100
0010
0000
0210
,
0000
0000
0000
0000
0000
0010
0010
0310
,
1000
0000
0000
0000
1100
0000
0000
0000
0010
0000
0100
0000
0000
0100
1000
0000
,
0000
1000
0001
0000
0000
0001
0100
0000
0000
0100
0010
0000
0000
0010
0002
0000
,
0000
0013
1000
0200
0000
0310
0002
0000
,
1003
0010
1000
0010
1000
0000
0100
0000
0010
0001
0010
0000
0001
0000
0100
0000
,
1001
0000
1100
0000
0100
0010
0000
0011
,
0000
1001
0000
1010
0000
0110
0000
1001
,
0100
0001
0100
0001
0100
0010
0100
0010
1000
0001
1000
0001
0010
0100
0010
0100
,
1000
0000
1100
0000
0010
0001
1000
0001
,
0100
0000
0000
0000
1001
0000
0000
0000
0100
0000
0010
0000
0000
0010
0001
0000
,
0000
0001
1000
0000
0000
1000
0010
0000
0000
0010
0100
0000
0000
0100
2000
0000
,
0000
3100
0001
0020
0000
0130
2000
0000
,
3001
0100
0001
0000
0100
0000
0001
0000
1000
0100
1000
0000
0010
0000
0100
0000
,
1001
0000
1010
0000
0100
0001
0000
1100
,
0000
1001
0000
0101
0000
0110
0000
1010
,
0000
0001
0010
0100
1000
0100
0000
0011
,
1000
0100
0010
0000
0100
0010
0001
0000
1000
0100
0010
0000
0100
0010
0001
0000
,
0000
0000
0101
0000
0000
1001
0000
0100
0010
0000
0010
1000
0000
0001
1000
0000
,
0000
0000
1010
0000
0000
1100
0000
0010
0001
0000
1000
0001
0000
0001
0100
0000
,
0001
0010
0100
1000
0001
0000
0001
0010
0100
1000
0001
0000
0100
0001
0100
0000
,
0010
1000
0010
1000
0001
1000
0001
1000
0100
0010
0100
0010
0100
1000
0100
0000
,
0000
0000
1010
0000
0000
0101
0000
0000
1100
0000
0010
0001
0000
1000
0001
0000
,
0000
0000
0101
0000
0000
1010
0000
0000
0011
0000
0100
1000
0000
0001
1000
0000
,
0000
0000
0011
0000
1000
0010
0000
0001
1000
0000
0010
0001
0000
0010
1000
0000
,
0001
0010
0100
1000
0001
0000
1000
0100
0010
0001
1000
0000
0001
0100
0001
0000
,
1000
0100
1000
0000
0001
0100
0000
1000
0001
0000
1000
0001
0000
0100
1000
0000
,
0000
0000
0101
0000
0000
1100
0000
0000
1001
0000
0000
1100
0000
0000
0101
0000
,
1000
0010
0100
0010
1000
0000
0001
0100
0010
0100
0001
0000
1000
0010
0100
0001
,
1000
0100
1000
0100
0010
0001
0010
0001
1000
0001
1000
0010
0100
0001
1000
0000
,
0000
0000
0001
0000
1000
0010
0000
0001
1000
0000
0001
1000
0000
0010
0001
0000
,
0000
0000
1010
0000
0000
0011
0000
0000
1001
0000
0000
0011
0000
0000
1010
0000
,
0000
0000
1000
0100
0000
0011
0000
0001
0100
0000
0000
1010
0000
0000
1000
0000
,
0001
0010
0001
0010
0100
0000
1000
0010
1000
0010
0100
0000
1000
0010
0001
0000
,
1001
0000
0000
0000
;
