#TITLE:Blown My Heart Away;
#SUBTITLE:;
#ARTIST:good-cool feat. Jeff Coote;
#TITLETRANSLIT:;
#SUBTITLETRANSLIT:;
#ARTISTTRANSLIT:;
#CREDIT:;
#BANNER:;
#BACKGROUND:;
#LYRICSPATH:;
#CDTITLE:;
#MUSIC:Blown My Heart Away.mp3;
#OFFSET:-8.260;
#SAMPLESTART:23.730;
#SAMPLELENGTH:15.480;
#SELECTABLE:YES;
#BPMS:0.000=124.000;
#STOPS:;
#BGCHANGES:;

//---------------dance-single - ----------------
#NOTES:
     dance-single:
     :
     Hard:
     7:
     0.471,0.419,0.278,0.198,0.094:
0100
0010
0100
0001
0000
1001
0000
1000
,
0100
0010
0100
0010
0000
0011
0000
0001
,
0100
0010
0100
0000
0001
1000
0001
1000
,
0100
0000
0000
0010
0000
0000
0100
0000
1000
0000
0000
0000
1001
0000
0000
0000
,
0001
0100
0010
0100
0000
0110
0000
0010
,
1000
0100
0010
0001
0000
1001
0000
1000
,
0010
0100
0001
0000
0010
0100
0010
0001
,
1000
0000
0000
0001
0000
0000
1000
0000
0010
0000
0100
0000
0001
0000
0010
0000
,
0100
2100
0000
3020
0000
0230
0000
0302
,
0000
0013
0100
1000
1000
0001
0100
0000
,
0010
1000
0100
0002
0000
0203
0000
2300
,
0001
0000
0000
0001
0000
0000
3001
0000
0000
0000
1000
0000
1001
0000
0000
0000
,
0001
0010
0100
0020
0000
0032
0000
0203
,
0000
0320
0000
2030
0000
3001
0010
0100
,
0110
0000
0010
0001
0000
0001
1000
0010
,
0100
0000
0110
0000
0010
1000
0001
0000
,
1000
0000
0000
1000
0000
0000
1000
0000
0001
0000
0100
0000
0010
0000
0100
0000
,
0010
0000
0000
0010
0000
0000
0010
0000
0100
0000
0001
0000
0010
0000
0100
0000
,
0010
0000
0001
0010
0000
0100
1000
0001
,
0100
0000
0110
0000
0010
1000
1001
0000
,
0001
0000
0000
0010
0000
0000
0001
0000
1000
0000
0010
0000
0100
0000
0001
0000
,
1000
0000
0000
0100
0000
0000
1000
0000
0001
0000
0010
0000
0100
0000
0010
0000
,
0001
0000
1000
0010
0000
0100
0001
0010
,
0100
0000
0110
0000
0001
0100
1000
0000
,
1001
0000
0110
0000
0010
1000
1100
0000
,
0010
0001
0100
1000
0100
0000
0101
0000
,
0001
0000
1000
0001
0000
0001
1000
0000
0001
0000
1000
0000
1100
0000
0000
0000
,
0100
0000
0000
0010
0000
0000
0001
0000
1000
0000
0001
0000
1001
0000
0000
0000
,
1000
0010
0100
0002
0000
0023
0000
2030
,
0000
3002
0000
0203
0000
1300
0001
0000
,
1000
0000
0001
0010
0000
0001
0010
0000
0001
0000
0200
0000
0000
0000
0320
0000
,
0000
2030
0000
0200
0000
0000
3300
0000
,
1000
0000
0000
1000
0100
0000
0010
0000
0002
0000
0000
0000
1003
0000
0000
0000
,
1000
0000
0000
0001
0100
0000
0001
0000
0000
0000
1000
0000
1100
0000
0000
0000
,
0010
0000
0000
0010
0001
0000
0100
0000
0010
0000
0000
0000
1001
0000
0000
0000
,
1000
0000
0000
0010
0000
0000
0100
0000
0000
0100
0001
0000
1001
0000
0000
0000
,
1000
0100
0000
0101
0000
1100
0000
1000
,
0001
0100
0010
0100
0000
0010
1000
0000
,
0001
0010
0000
0011
0000
1100
0000
1000
,
0010
0100
0001
0010
0100
0001
0100
1000
,
0001
0100
0000
0101
0000
1010
0000
0010
,
1000
0100
0010
0001
0000
0010
0001
0100
,
0010
0000
0010
1000
0000
1000
0100
0010
,
0001
0000
0011
0000
0001
0100
1000
0100
,
0001
0000
0100
0001
0100
0010
1000
0100
,
0010
0000
0100
1000
0001
0100
0010
1000
,
0001
0000
0000
0001
0010
0000
0001
0000
0100
0000
0000
0010
0000
0000
0100
0000
,
0001
0000
0000
1000
0000
0000
0100
0000
0010
0000
0000
0000
0001
0000
1000
0000
,
1001
0000
0001
0100
0000
1000
0100
0001
,
0010
0000
0100
0010
0000
0001
1000
0000
,
0001
0100
0100
0010
0010
1000
1000
0100
,
0010
0000
0000
0011
0000
0000
0001
0000
0100
0000
1000
0000
0100
0000
0110
0000
;

//---------------dance-single - ----------------
#NOTES:
     dance-single:
     :
     Medium:
     6:
     0.370,0.373,0.099,0.260,0.004:
1000
0100
0000
1000
0000
0001
0000
0100
,
0010
0100
0000
0010
0000
1000
0000
0001
,
0010
0100
0000
0010
0000
0001
0000
1000
,
0010
0000
0100
0000
0010
1000
0001
0000
,
1000
0100
0000
0010
0000
0001
0000
0010
,
0001
0100
0000
0010
0000
1000
0000
0001
,
1000
0100
0000
0001
0000
0100
0000
1000
,
0001
0100
0000
0010
0100
0000
1001
0000
,
1000
2000
0000
0010
0000
0010
0000
0001
,
0000
0001
0000
0100
0000
0200
3300
0000
,
0100
0200
0000
1000
0000
1000
0000
0001
,
0000
0001
0000
0020
0000
0000
0330
0000
,
0001
0002
0000
0010
0000
0010
0000
1000
,
0000
1000
0000
0100
0000
0200
0303
0000
,
0001
0000
1000
0001
0000
0000
0001
2000
,
0000
0000
3001
0000
1000
0000
0001
0010
,
0001
0000
1000
0010
0000
0100
0001
0000
,
0010
0000
0001
0010
0000
0100
1000
0100
,
0010
0000
0100
0000
0010
0000
0001
1000
,
0010
0000
0100
0000
0010
1000
0100
0000
,
0010
0000
0001
0010
0000
0100
1000
0100
,
0010
0000
0100
0010
0000
0100
0010
0001
,
1000
0000
0001
0000
1000
0010
1000
0000
,
0001
0000
0100
0000
0010
0100
0001
1000
,
0001
1001
1000
0100
,
0010
0100
0000
0110
0000
1001
0000
0000
,
1000
0001
0000
0001
0100
0000
0010
0000
,
0100
0000
0000
0100
0000
0000
0200
0000
0000
0000
0000
0000
0310
0000
0000
0000
,
2002
3003
1000
1001
,
0001
0000
0100
0000
0010
0100
0001
0000
,
1000
2000
0000
3020
0000
0230
0000
0302
,
0000
0023
0000
0200
0000
0000
0330
0000
,
0010
0000
1001
0000
1000
0001
0100
0000
,
0010
0100
0001
0000
0010
0001
1000
0000
,
0001
0000
1001
0000
1000
0010
0100
0000
,
0001
0000
0010
0000
0100
0010
0001
0010
,
0001
2000
0000
3001
0000
0002
0000
0103
,
0000
0200
0000
0310
0000
0010
1000
0000
,
0001
0020
0000
0130
0000
0200
0000
1300
,
0000
2000
0000
3001
0000
0001
1000
0000
,
1000
0200
0000
0320
0000
0032
0000
2003
,
0000
3020
0000
0230
0000
0001
0301
0000
,
0001
0000
1000
0100
0000
0000
0010
0001
,
1000
0001
0100
0110
,
1001
0000
1000
0100
0000
0010
0001
0000
,
1000
0000
0001
0100
0000
0010
1000
0100
,
0020
0001
0100
1000
,
0100
0001
0100
0031
,
1000
0000
0001
0100
0000
0010
1000
0010
,
1000
0000
0001
0010
0000
0100
1000
0100
,
0010
0000
0100
0000
0010
0000
0001
1000
,
0001
0000
0100
0000
0010
1000
0001
1001
;

//---------------dance-single - ----------------
#NOTES:
     dance-single:
     :
     Easy:
     2:
     0.149,0.163,0.063,0.000,0.000:
1000
0000
0001
0000
,
0100
0100
0100
0000
,
0010
0000
0100
0000
,
0001
0001
0001
0000
,
1000
0000
0100
0000
,
0010
0010
0010
0000
,
0100
0000
0010
0000
,
0001
0001
0001
0000
,
1001
0000
0000
0000
,
0001
0000
0000
0000
,
1000
0000
0010
0000
,
0100
0000
0010
0000
,
0110
0000
0000
0000
,
0100
0000
0000
0000
,
0001
0000
1000
0000
,
0001
0000
1000
0000
,
0100
0000
0000
0000
,
0010
0000
0000
0000
,
0001
0000
1000
0000
,
0001
0000
0000
0100
,
0100
0000
0000
0010
,
0010
0000
0000
1000
,
1000
0000
0001
0000
,
0100
0000
0000
0000
,
1001
0000
0000
0000
,
0110
0000
0000
0000
,
0100
0000
0001
0000
,
1000
0000
0100
0000
,
0110
0000
0000
0010
,
0010
0000
0001
0000
,
1000
0000
0001
0000
,
0100
0100
0100
0000
,
1001
0000
0001
0000
,
1000
0000
0001
0001
,
0001
0000
0100
0000
,
0010
0000
1000
1000
,
1000
0000
0001
0000
,
0100
0100
0100
0000
,
0010
0000
0100
0000
,
0001
0001
0001
0000
,
1000
0000
0100
0000
,
0010
0010
0010
0000
,
0100
0000
1000
1000
,
1000
0000
0001
0001
,
0001
0000
0000
1000
,
1000
0000
0000
0010
,
0010
0000
0100
0000
,
0001
0000
1000
1000
,
1000
0000
0000
0100
,
0100
0000
0000
0010
,
0010
0000
0001
0000
,
1000
0000
0001
1001
;

//---------------dance-single - ----------------
#NOTES:
     dance-single:
     :
     Beginner:
     1:
     0.118,0.139,0.108,0.000,0.000:
1001
0000
0000
0000
,
1000
0000
0000
0000
,
0001
0000
0010
0000
,
0001
0000
0100
0000
,
0010
0000
0000
0000
,
0100
0000
0000
0000
,
0010
0000
1000
0000
,
0001
0000
1000
0000
,
0100
0000
0000
0000
,
0010
0000
0000
0000
,
0001
0000
0000
0000
,
1000
0000
0001
0000
,
1000
0000
0000
0000
,
0001
0000
0000
0000
,
0100
0000
0100
0000
,
0100
0000
0010
0000
,
1001
0000
0000
0000
,
1000
0000
0000
0000
,
0001
0000
0010
0000
,
0001
0000
1000
0000
,
1001
0000
0000
0000
,
0001
0000
0000
0000
,
0100
0000
0001
0000
,
0100
0000
0010
0000
,
0110
0000
0000
0000
,
1001
0000
0000
0000
,
1000
0000
0100
0000
,
0010
0000
0001
0000
,
1001
0000
0000
0000
,
1000
0000
0010
0000
,
0100
0000
0010
0000
,
0100
0000
0001
0000
,
1001
0000
0000
0000
,
1000
0000
0100
0000
,
0010
0000
0000
0000
,
0100
0000
0010
0000
,
1001
0000
0000
0000
,
1000
0000
0100
0000
,
1000
0000
0001
0000
,
0100
0000
0010
0000
,
0100
0000
0000
0000
,
0001
0000
0000
0000
,
1000
0000
0001
0000
,
0100
0000
0010
0000
,
0110
0000
0000
0000
,
1001
0000
0000
0000
,
1000
0000
0100
0000
,
0010
0000
0001
0000
,
1001
0000
0000
0000
,
0110
0000
0000
0000
,
0100
0000
0001
0000
,
1000
0000
0001
0001
;

//---------------dance-double - ----------------
#NOTES:
     dance-double:
     :
     Hard:
     7:
     0.479,0.419,0.395,0.162,0.117: // measure 1
00100000
01000000
00001000
00010000
00000000
00001000
00010000
00000000
,  // measure 2
00000100
00000010
00000100
00010000
00000000
00001000
00010000
00000000
,  // measure 3
00001000
00100000
00010000
02000000
00000000
23000000
00000000
32000000
,  // measure 4
00000000
03020000
00000000
00230000
00000000
00310000
00100000
00001000
,  // measure 5
00011000
00000000
00010000
00000100
00000000
00000110
00000000
00000100
,  // measure 6
00010000
00001000
00000100
00000010
00000000
00001010
00000000
00001000
,  // measure 7
00000100
00000000
00000010
00000001
00000000
00000001
00000100
00001000
,  // measure 8
00000100
00000001
00000000
00001001
00000000
00001000
00000100
00000000
,  // measure 9
00000100
00010000
00000000
00011000
00000000
00101000
00000000
00110000
,  // measure 10
00000000
00010000
01000000
00000000
00100000
01000000
00010000
00000000
,  // measure 11
00100000
00001000
00000000
00011000
00000000
00010100
00000000
00000110
,  // measure 12
00000010
00000000
00000000
00001001
00000000
00000000
00000100
00000000
00000000
00000000
00000110
00000000
00000110
00000000
00000000
00000000
,  // measure 13
00000010
00001000
00000000
00001100
00000000
00010100
00000000
00011000
,  // measure 14
00000000
00001000
01000000
00100000
01000000
00010000
00100000
01000000
,  // measure 15
10000000
00000000
10000000
00010000
00000000
00010000
00100000
00001000
,  // measure 16
00010000
00000000
00000000
00010100
00000000
00000000
00000200
00000000
00000000
00000000
00000010
00000000
00000310
00000000
00000000
00000000
,  // measure 17
00000011
00000000
00000000
00000001
00000100
00000000
00000010
00000000
00001000
00000000
00000100
00000000
00000100
00000000
00000100
00000000
,  // measure 18
00010000
00000000
00000000
00001000
00100000
00000000
00010000
00000000
01000000
00000000
00100000
00000000
00100000
00000000
00100000
00000000
,  // measure 19
10000000
00000000
10000000
01000000
00000000
00100000
00001000
00010000
,  // measure 20
00000100
00000000
00000110
00000000
00000010
00000001
00000101
00000000
,  // measure 21
00001001
00000000
00000000
00000001
00001000
00000000
00000100
00000000
00000001
00000000
00000100
00000000
00001000
00000000
00000100
00000000
,  // measure 22
00010000
00000000
00000000
00001000
00010000
00000000
00001000
00000000
01000000
00000000
00100000
00000000
00010000
00000000
00100000
00000000
,  // measure 23
10000000
00000000
00010000
00100000
00000000
00100000
00001000
00010000
,  // measure 24
00000100
00000000
00000000
00000000
00000010
00000000
00000001
00000000
00000100
00000000
00000010
00000000
00001000
00000001
00001000
00000000
,  // measure 25
00001100
00000000
00010100
00000000
00010000
00001000
01000000
00000000
,  // measure 26
00100000
01000000
00010000
00100000
00000000
00010000
10010000
00000000
,  // measure 27
10000000
00000000
01000000
00100000
00000000
00100000
00010000
00000000
00100000
00000000
00001000
00000000
00011000
00000000
00000000
00000000
,  // measure 28
00010000
00000000
00000000
00001000
00000000
00000000
02002000
00000000
00000000
00000000
00000000
00000000
03003000
00000000
00000000
00000000
,  // measure 29
01000000
00100000
10010000
00000000
10000000
01000000
00010000
00000000
,  // measure 30
01000000
00100000
00001000
00010000
00001000
00000010
00000011
00000000
,  // measure 31
00000001
00000000
00000100
00000010
00000000
00000010
00000100
00000000
00000010
00001000
00000000
00001000
00000010
00000000
00000000
00000000
,  // measure 32
00001000
00000000
00000000
00001100
00000000
00000000
00020200
00000000
00000000
00000000
00000000
00000000
00030300
00000000
00000000
00000000
,  // measure 33
00010000
00000000
00000000
00001000
00010000
00000000
00100000
00000000
20000000
00000000
00000000
00000000
30010000
00000000
00000000
00000000
,  // measure 34
10000000
00000000
00000000
00010000
00000000
00000000
01000000
00000000
00000000
00000000
00010000
01000000
00010000
00000000
00000000
00000000
,  // measure 35
00100000
00000000
00000000
00100000
00001000
00000000
00010000
00000000
00000200
00000000
00000000
00000000
00000300
00000000
00000000
00000000
,  // measure 36
00000001
00000000
00000000
00001000
00000000
00000000
00000001
00000000
00000000
00000000
00001000
00000010
00001000
00000010
00000000
00000000
,  // measure 37
00001000
00000001
00000000
00000101
00000000
00001010
00000000
00001000
,  // measure 38
00000100
00000000
00001000
00000000
00000100
00010000
00001000
00000000
,  // measure 39
00010000
00001000
00000000
01001000
00000000
01010000
00000000
00010000
,  // measure 40
10000000
01000000
00100000
01000000
00000000
00100000
00110000
00000000
,  // measure 41
00010000
00002000
00000000
00003020
00000000
00000032
00000000
00001003
,  // measure 42
00000010
00000002
00000000
00000023
00000000
00002030
00000000
00003010
,  // measure 43
00001000
00000000
00001000
00000100
00000000
00001000
00000100
00010000
,  // measure 44
00110000
01100000
00101000
00011000
,  // measure 45
00010100
00000000
00000100
00000010
00000000
00000100
00010000
00001000
,  // measure 46
00000100
00000000
00000010
00010000
00000000
00001000
01000000
00100000
,  // measure 47
10000000
00000000
00000000
01000000
00000000
00000000
00100000
00000000
00010000
00000000
00000000
00100000
00000000
00000000
00001000
00000000
,  // measure 48
00010000
00000000
00000000
00001000
00000000
00000000
00010000
00000000
00001000
00000000
00010000
00000000
00000100
00000000
00000010
00000000
,  // measure 49
00000011
00000000
00000001
00000100
00000010
00000001
00000010
00001000
,  // measure 50
00000100
00000000
00000010
00000100
00010000
00001000
00100000
00010000
,  // measure 51
10000000
01000000
00100000
00001000
00010000
00000100
00000010
00000001
,  // measure 52
00000101
00000000
00000000
00001010
00000000
00000000
00000010
00000000
00010000
00000000
00001000
00000000
00010000
00000000
00011000
00000000
;

//---------------dance-double - ----------------
#NOTES:
     dance-double:
     :
     Medium:
     6:
     0.366,0.349,0.117,0.072,0.022: // measure 1
10000000
00000000
00010000
00100000
00000000
00100000
00010000
00000000
,  // measure 2
00100000
00000000
00001000
00010000
00000000
00010000
00001000
00000000
,  // measure 3
00000010
00000000
00000001
00001000
00000000
00001000
00000010
00000000
,  // measure 4
00000100
00000001
00000100
00000000
00000010
00001000
00000100
00000000
,  // measure 5
00000010
00000000
00000100
00010000
00000000
00010000
00001000
00000000
,  // measure 6
00100000
00000000
00010000
10000000
00000000
10000000
00010000
00000000
,  // measure 7
01000000
00010000
00100000
00000000
00100000
00001000
00010000
00000000
,  // measure 8
00001000
00010000
00000100
00000020
00000000
00000100
00000130
00000000
,  // measure 9
00001001
00000000
00000001
00000000
00000001
00000100
00001000
00000000
,  // measure 10
01000000
00100000
10000000
00010000
,  // measure 11
10000000
00000000
00010000
00000000
10000000
01000000
00010000
00000000
,  // measure 12
00000100
00000000
00000010
00000000
00000001
00001000
00000001
00000000
,  // measure 13
00000100
00000020
00000000
00000100
00000000
00000100
00000000
00001000
,  // measure 14
00000000
00001000
00000000
00000100
00000000
00000130
00000000
00000100
,  // measure 15
00000010
00000000
00000010
00001000
00000000
00000000
00001000
00000100
,  // measure 16
00000000
00000100
00010000
00000000
00001000
00000000
01000000
00010000
,  // measure 17
01000000
00000000
00000000
01000000
00000000
00000000
01000000
00000000
00010000
00000000
00000000
00000000
00110000
00000000
00000000
00000000
,  // measure 18
00100000
00000000
00000000
00100000
00000000
00000000
00100000
00000000
00001000
00000000
00000000
00000000
00011000
00000000
00000000
00000000
,  // measure 19
00010000
00000000
00000100
00001000
00000000
00001000
00000100
00000010
,  // measure 20
00000001
00000100
00001000
00000100
,  // measure 21
00000001
00000000
00000000
00001000
00000000
00000000
00000001
00000000
00001000
00000000
00000000
00000000
00001100
00000000
00000000
00000000
,  // measure 22
00000100
00000000
00000000
00010000
00000000
00000000
00001000
00000000
00010000
00000000
00000000
00000000
00011000
00000000
00000000
00000000
,  // measure 23
00001000
00000000
01000000
00010000
00000000
00010000
01000000
00100000
,  // measure 24
10000000
00000000
00010000
00000000
10000000
01000000
10000000
00000000
,  // measure 25
00220000
00000000
00330000
00000000
00100000
00001000
00100000
00000000
,  // measure 26
00001000
00000000
00010000
00000000
00001000
00010000
00000100
00000000
,  // measure 27
00000010
00000001
00000100
00000000
00000010
00001000
00000100
00000000
,  // measure 28
00010000
00000000
00000000
00001000
00000000
00000000
00022000
00000000
00000000
00000000
00000000
00000000
00033000
00000000
00000000
00000000
,  // measure 29
00001000
00100000
00000000
01000000
00000000
00100000
00000000
10000000
,  // measure 30
00000000
00100000
00000000
00010000
00000000
00100000
00001000
00010000
,  // measure 31
00001000
00010000
00000000
00000100
00000000
00000010
00000000
00000001
,  // measure 32
00000000
00000100
00000000
00000220
00000000
00000000
00000330
00000000
,  // measure 33
00001001
00000000
00001000
00000100
00001000
00000000
00000100
00000000
,  // measure 34
00010000
00001000
00010000
00000000
00001000
01000000
00001000
00000000
,  // measure 35
01000000
00000000
00100000
10000000
01000000
00000000
01100000
00000000
,  // measure 36
00100000
00010000
01000000
00010000
00100000
00000000
00101000
00000000
,  // measure 37
00001000
00010000
00000000
00001000
00000000
00000010
00000000
00000001
,  // measure 38
00000000
00000100
00000000
00001000
00000000
00000100
00000001
00000100
,  // measure 39
00001000
00000100
00000000
00000010
00000000
00010000
00000000
00001000
,  // measure 40
00000000
00100000
00000000
00010000
00000000
10000000
01000000
00100000
,  // measure 41
00010000
00100000
00000000
00001000
00000000
00000010
00000000
00000001
,  // measure 42
00000000
00000100
00000000
00001000
00000000
00000100
00000010
00001000
,  // measure 43
00000100
00000000
00001000
00000100
00000000
00000100
00010000
00001000
,  // measure 44
00010000
00000000
00001000
00000000
00100000
00001000
00100000
00000000
,  // measure 45
10010000
00000000
10000000
00000000
01000000
00100000
01000000
00000000
,  // measure 46
00100000
00000000
00010000
00000000
00100000
00001000
00100000
00000000
,  // measure 47
00001000
00010000
00001000
00000000
00010000
00000100
00010000
00000000
,  // measure 48
00000100
00000000
00000010
00000000
00000001
00001000
00000001
00001000
,  // measure 49
00000001
00000000
00001000
00000000
00000010
00001000
00000100
00000000
,  // measure 50
00001000
00000000
00000100
00000000
00010000
00001000
01000000
00000000
,  // measure 51
00100000
01000000
00010000
00000000
10000000
01000000
00100000
00000000
,  // measure 52
01000000
00000000
00100000
00000000
00001000
00010000
00001000
00011000
;

//---------------dance-double - ----------------
#NOTES:
     dance-double:
     :
     Easy:
     3:
     0.214,0.232,0.090,0.018,0.000: // measure 1
10000000
00000000
01000000
00000000
,  // measure 2
00010000
01000000
10000000
00000000
,  // measure 3
00010000
00000000
01000000
00000000
,  // measure 4
00010000
00100000
00001000
00000000
,  // measure 5
00010000
00000000
00000100
00000000
,  // measure 6
00000001
00000100
00001000
00000000
,  // measure 7
00000001
00001000
00000001
00000000
,  // measure 8
00001000
00000010
00001000
00000001
,  // measure 9
00001001
00000000
00001000
00000000
,  // measure 10
00000100
00010000
00000100
00000000
,  // measure 11
00010000
00000000
00001000
00100000
,  // measure 12
00010000
00100000
00010000
00000000
,  // measure 13
10010000
00000000
10000000
00100000
,  // measure 14
01000000
00100000
01000000
00000000
,  // measure 15
00010000
00000000
00100000
00001000
,  // measure 16
00100000
00000000
00001000
00010000
,  // measure 17
00011000
00000000
00010000
00000000
,  // measure 18
00000100
00000000
00000010
00000001
,  // measure 19
00000100
00000010
00001000
00000100
,  // measure 20
00010000
00000000
00001000
00000000
,  // measure 21
00011000
00000000
00010000
00000000
,  // measure 22
01000000
00000000
00100000
00000000
,  // measure 23
00010000
00000000
10000000
00100000
,  // measure 24
01000000
00000000
00010000
10000000
,  // measure 25
20020000
30030000
10000000
01000000
,  // measure 26
00000000
00100000
00010000
00100000
,  // measure 27
00001000
00000000
00010000
00000000
,  // measure 28
00000100
00010000
00000100
00001000
,  // measure 29
00001001
00000000
00000001
00000000
,  // measure 30
00000100
00000010
00001000
00000100
,  // measure 31
00010000
00000000
00001000
00000000
,  // measure 32
00100000
00010000
00100000
00000000
,  // measure 33
10010000
10000000
00010000
00000000
,  // measure 34
00100000
00000000
00001000
00010000
,  // measure 35
00001000
00010000
00000100
00000000
,  // measure 36
00000010
00000000
00000100
00001000
,  // measure 37
00000001
00000100
00001000
00000000
,  // measure 38
00001000
00000100
00000001
00000000
,  // measure 39
00001000
00000100
00010000
00001000
,  // measure 40
01000000
00010000
01000000
00000000
,  // measure 41
00010000
00100000
10000000
00000000
,  // measure 42
10000000
00100000
00010000
00000000
,  // measure 43
10000000
01000000
00100000
00010000
,  // measure 44
00100000
00001000
00010000
00000100
,  // measure 45
00000110
00000000
00000010
00000001
,  // measure 46
00001000
00000000
00000010
00001000
,  // measure 47
00000100
00001000
00000100
00010000
,  // measure 48
00001000
00000000
00010000
00001000
,  // measure 49
00011000
00000000
00001000
01000000
,  // measure 50
00010000
00000000
01000000
00010000
,  // measure 51
10000000
01000000
00100000
00010000
,  // measure 52
00100000
00001000
00010000
00011000
;
