#TITLE:trezire de spirit;
#SUBTITLE:;
#ARTIST:倉持武志;
#TITLETRANSLIT:;
#SUBTITLETRANSLIT:;
#ARTISTTRANSLIT:TAKESHI KURAMOCHI;
#CREDIT:DMAxel;
#BANNER:trezire de spirit.png;
#BACKGROUND:trezire de spirit-bg.png;
#LYRICSPATH:trezire de spirit.lrc;
#CDTITLE:pop'n music.png;
#MUSIC:trezire de spirit.mp3;
#OFFSET:-7.720;
#SAMPLESTART:14.880;
#SAMPLELENGTH:12.000;
#SELECTABLE:YES;
#BPMS:0.000=268.000,240.000=134.000,272.000=268.000;
#STOPS:;
#BGCHANGES:;

//---------------dance-single - ----------------
#NOTES:
     dance-single:
     :
     Hard:
     8:
     0.581,0.733,0.302,0.187,0.000: // measure 1
0001
0000
1000
0000
0100
1000
0010
0100
,  // measure 2
0000
0000
0001
0000
,  // measure 3
0001
0010
0100
1000
,  // measure 4
0001
0000
0001
1000
,  // measure 5
0010
0000
0000
1010
0000
0000
0100
0000
,  // measure 6
0000
0101
0000
0000
0010
0000
1000
0000
,  // measure 7
0002
0000
1000
0000
,  // measure 8
1003
0000
0010
0100
0010
0000
0010
0000
,  // measure 9
1000
0100
0010
0001
,  // measure 10
0100
0010
1000
0100
,  // measure 11
0001
0100
1000
0100
,  // measure 12
0010
0100
1000
0001
,  // measure 13
0101
0000
1100
0000
,  // measure 14
0010
0001
0100
0010
,  // measure 15
1000
0100
0001
0100
,  // measure 16
1000
0001
0010
1000
,  // measure 17
1002
0000
0100
0000
,  // measure 18
1003
0100
0010
0001
,  // measure 19
0101
0000
1100
0000
,  // measure 20
0010
0001
0100
0010
,  // measure 21
1000
0100
0001
0100
,  // measure 22
1000
0001
0010
1000
,  // measure 23
0010
0000
0000
0011
0000
0000
1100
0000
,  // measure 24
0000
1000
0100
0010
,  // measure 25
0001
0100
0010
1000
,  // measure 26
0100
0010
0001
0010
,  // measure 27
1000
0010
0001
0010
,  // measure 28
0100
0010
0001
1000
,  // measure 29
1010
0000
0011
0000
,  // measure 30
0100
1000
0001
0100
,  // measure 31
1000
0100
0001
1000
,  // measure 32
0010
0001
0010
1000
,  // measure 33
2001
0000
3100
0000
,  // measure 34
1001
0010
0100
1000
,  // measure 35
0001
0100
0000
0000
0110
0000
0000
0000
,  // measure 36
1010
0000
0100
0001
,  // measure 37
1001
0000
0100
0000
0010
1000
0010
0000
,  // measure 38
0100
0000
0001
0000
0100
0010
0100
0000
,  // measure 39
0001
0000
0000
0100
0000
0000
1100
0000
,  // measure 40
0000
0000
0002
0000
,  // measure 41
1003
0000
0100
1000
0100
0000
1000
0100
,  // measure 42
1000
0001
0010
0100
,  // measure 43
0010
0000
0001
0010
0001
0000
0010
0001
,  // measure 44
0010
0100
1000
0010
,  // measure 45
0100
0000
0001
0100
0001
0000
1000
0100
,  // measure 46
1000
0100
1000
0000
0001
0000
0100
0000
,  // measure 47
0001
0000
1000
0010
1000
0000
0001
0010
,  // measure 48
0001
0010
0001
0000
1000
0000
0010
0000
,  // measure 49
1000
0000
0001
0100
0001
0000
0100
0001
,  // measure 50
1000
0100
1000
0000
0010
0000
0100
0000
,  // measure 51
0010
0000
1000
0010
1000
0000
0010
1000
,  // measure 52
0001
0010
0001
0000
0100
0000
0010
0000
,  // measure 53
1000
0010
1000
0001
0010
0000
0001
0000
,  // measure 54
1000
0010
1000
0001
0010
0000
0001
0000
,  // measure 55
0100
0001
1000
0100
1000
0000
0001
0000
,  // measure 56
0100
0001
1000
0100
1000
0000
0001
0000
,  // measure 57
0100
0001
0100
0001
0100
0001
0100
0000
,  // measure 58
0010
1000
0010
1000
0010
1000
0010
0000
,  // measure 59
0220
0000
0000
0000
,  // measure 60
0000
0000
0000
0330
,  // measure 61
0200
0000
0301
0010
,  // measure 62
0200
0000
2300
3010
,  // measure 63
0100
0000
0110
0000
0001
0010
0100
1000
,  // measure 64
0020
0000
1030
0000
,  // measure 65
0200
0000
0000
0000
0301
0000
0100
0001
,  // measure 66
0010
0011
0100
1100
,  // measure 67
1002
0000
2003
0010
,  // measure 68
3020
0000
0130
0100
,  // measure 69
0001
0000
0100
0000
0010
1000
0010
0000
,  // measure 70
0100
0000
0010
0000
0100
0001
0010
0000
,  // measure 71
0100
1000
0100
0001
,  // measure 72
0100
1000
0001
0001
,  // measure 73
1000
0000
0010
0000
0100
0001
0100
0000
,  // measure 74
0010
0000
0100
0000
0010
1000
0100
0000
,  // measure 75
0010
0001
0100
1000
,  // measure 76
0100
0001
1000
1000
,  // measure 77
1002
0000
0100
0103
,  // measure 78
2001
0000
0010
3010
,  // measure 79
0110
0000
0000
0000
0100
0000
0000
0100
,  // measure 80
0001
0000
0000
1000
0000
0000
1000
0000
,  // measure 81
0110
0000
0010
0000
,  // measure 82
1010
0000
0001
0000
,  // measure 83
1001
0000
0000
0000
,  // measure 84
0100
0010
0100
0001
1000
0000
0000
0000
,  // measure 85
0010
1000
0010
1000
0010
0100
0001
0010
,  // measure 86
0000
0000
0002
0000
,  // measure 87
1000
0000
0100
0000
,  // measure 88
1003
0100
1000
0000
0001
0100
0001
0000
,  // measure 89
2002
0000
0000
3003
,  // measure 90
1100
0000
0000
0110
0000
0000
0101
0000
,  // measure 91
1001
0000
1000
0000
,  // measure 92
1001
0000
0000
0001
0100
0000
0010
0000
,  // measure 93
0100
0001
0100
0001
0100
0010
1000
0100
,  // measure 94
0000
0000
1000
0000
,  // measure 95
1000
0100
0010
0001
,  // measure 96
1000
0010
1000
0000
0001
0010
0001
0000
,  // measure 97
0100
0000
0001
0100
0000
0001
0100
0000
,  // measure 98
0010
1000
0000
0001
0010
0001
0010
0001
,  // measure 99
2000
0000
0000
0000
,  // measure 100
0000
0000
3001
0000
,  // measure 101
1000
0010
1000
0001
0010
0100
0000
1000
,  // measure 102
0001
0000
0100
0001
0010
0100
1000
0020
,  // measure 103
0000
0000
0000
0000
,  // measure 104
0030
0000
0000
0000
;

//---------------dance-single - ----------------
#NOTES:
     dance-single:
     :
     Medium:
     6:
     0.409,0.458,0.267,0.213,0.000: // measure 1
1000
0000
0100
0000
0010
0000
0001
1000
,  // measure 2
0000
0000
0100
0000
,  // measure 3
0000
0000
0100
0000
,  // measure 4
1000
0001
1000
0001
,  // measure 5
1000
0000
0000
0100
0000
0000
0010
0000
,  // measure 6
0000
0001
0000
0000
1000
0000
0000
0000
,  // measure 7
2000
0000
0000
0000
,  // measure 8
0000
0000
3000
0000
,  // measure 9
1002
0000
1000
0000
,  // measure 10
1003
0100
0010
0001
,  // measure 11
0200
0000
0301
0000
,  // measure 12
0101
0000
1000
0001
,  // measure 13
1000
0000
1001
0000
,  // measure 14
0100
1000
0001
0010
,  // measure 15
0200
0000
0010
0000
,  // measure 16
0310
0000
0000
0000
,  // measure 17
2001
0000
0001
0000
,  // measure 18
3001
0010
0100
1000
,  // measure 19
0020
0000
1030
0000
,  // measure 20
1010
0000
0001
1000
,  // measure 21
0001
0000
0100
0001
,  // measure 22
2000
0000
0100
0000
,  // measure 23
3100
0000
0000
1000
0000
0000
0001
0000
,  // measure 24
0000
1000
0100
0010
,  // measure 25
0002
0000
0103
0000
,  // measure 26
0101
0000
1000
0100
,  // measure 27
1000
0001
0010
0000
,  // measure 28
0001
0010
0100
0000
,  // measure 29
2000
0000
3010
0000
,  // measure 30
1010
0000
0001
0010
,  // measure 31
0001
1000
0100
0000
,  // measure 32
1000
0100
0010
0000
,  // measure 33
1001
0000
1000
0000
,  // measure 34
1001
0000
0001
0000
,  // measure 35
0110
0000
0110
0000
,  // measure 36
0110
0000
1000
0000
,  // measure 37
1000
0010
0100
0001
,  // measure 38
1000
0000
1000
0001
,  // measure 39
0010
0000
0000
0100
0000
0000
1000
0000
,  // measure 40
0000
0000
0000
0000
,  // measure 41
0001
0010
0100
0010
,  // measure 42
0001
0010
0100
0010
,  // measure 43
0001
0100
1000
0100
,  // measure 44
0001
0010
0100
1000
,  // measure 45
1000
0100
0010
0100
,  // measure 46
1000
0100
0010
0100
,  // measure 47
1000
0010
0001
0010
,  // measure 48
1000
0010
0100
0001
,  // measure 49
0101
0000
1100
0000
,  // measure 50
0010
0001
1000
0100
,  // measure 51
1100
0000
0101
0000
,  // measure 52
0010
1000
0001
0010
,  // measure 53
0100
0100
0100
0000
,  // measure 54
0010
0010
0010
0000
,  // measure 55
0001
0001
0001
0000
,  // measure 56
1000
1000
1000
0001
,  // measure 57
0101
0000
0001
1000
,  // measure 58
0010
0000
0110
0000
,  // measure 59
2002
0000
0000
0000
,  // measure 60
0000
0000
3003
0000
,  // measure 61
0002
0000
0013
0100
,  // measure 62
2000
0000
3001
0100
,  // measure 63
0010
0100
0001
1000
,  // measure 64
0020
0000
0130
0000
,  // measure 65
0002
0000
2003
0000
,  // measure 66
3001
0010
0100
1000
,  // measure 67
0020
0000
0230
0000
,  // measure 68
0320
0000
0130
0000
,  // measure 69
0001
0010
0100
1000
,  // measure 70
0001
1000
0001
1000
,  // measure 71
0100
0010
0100
0000
,  // measure 72
1000
0100
0010
0000
,  // measure 73
1001
0000
1001
0000
,  // measure 74
0100
0001
1000
0100
,  // measure 75
2000
0000
0001
0000
,  // measure 76
0100
0000
3001
0000
,  // measure 77
1001
0000
0100
0000
,  // measure 78
1001
0000
0010
0100
,  // measure 79
0010
0000
0010
0000
,  // measure 80
0010
0000
0010
0000
,  // measure 81
0101
0000
0000
0000
,  // measure 82
1100
0000
0000
0000
,  // measure 83
1001
0000
0000
0000
,  // measure 84
1000
0001
1001
0000
,  // measure 85
0001
0000
0100
0000
1000
0000
0100
0010
,  // measure 86
0000
0000
1000
0000
,  // measure 87
0100
0000
0010
0000
,  // measure 88
0001
0100
0010
1000
,  // measure 89
1001
0000
0000
0000
,  // measure 90
0100
0000
0000
0100
0000
0000
0100
0000
,  // measure 91
1001
0000
0000
0000
,  // measure 92
0001
0000
0001
0000
,  // measure 93
1000
0000
0100
0000
0001
0000
0100
0010
,  // measure 94
0000
0000
0001
0000
,  // measure 95
0010
0000
0100
0000
,  // measure 96
1000
0010
0100
0001
,  // measure 97
1000
0000
0000
0100
0000
0000
1000
0000
,  // measure 98
0000
0001
0000
0000
0200
0000
0000
0000
,  // measure 99
0020
0000
0000
0000
,  // measure 100
0000
0000
0330
0000
,  // measure 101
0100
0000
0001
0000
1000
0100
0000
0000
,  // measure 102
0010
0000
0000
0011
0000
0000
0200
0020
,  // measure 103
0000
0000
0000
0000
,  // measure 104
0330
0000
0000
0000
;

//---------------dance-single - ----------------
#NOTES:
     dance-single:
     :
     Easy:
     3:
     0.248,0.366,0.133,0.258,0.000: // measure 1
2002
0000
0000
0000
,  // measure 2
3003
0000
0100
0000
,  // measure 3
0000
0000
0100
0000
,  // measure 4
0200
0000
0000
0000
,  // measure 5
0301
0000
0010
0000
,  // measure 6
0100
0000
1000
0000
,  // measure 7
2002
0000
0000
0000
,  // measure 8
0000
0000
3003
0000
,  // measure 9
0001
0000
0000
0000
,  // measure 10
0100
0000
0001
0000
,  // measure 11
2000
0000
0000
0000
,  // measure 12
3010
0000
1000
0000
,  // measure 13
0001
0000
0000
0000
,  // measure 14
0100
0000
0010
0000
,  // measure 15
0200
0000
0000
0000
,  // measure 16
0310
0000
0000
0000
,  // measure 17
1002
0000
0000
0000
,  // measure 18
1003
0000
0010
0000
,  // measure 19
0100
0000
0000
0000
,  // measure 20
0010
0000
0100
0000
,  // measure 21
0010
0000
0000
0000
,  // measure 22
1000
0000
0001
0000
,  // measure 23
0200
0000
0000
0000
,  // measure 24
0000
0000
0000
0000
,  // measure 25
0302
0000
0000
0000
,  // measure 26
1003
0000
0100
0000
,  // measure 27
0020
0000
0000
0000
,  // measure 28
0031
0000
1000
0000
,  // measure 29
0001
0000
1000
0000
,  // measure 30
0010
0000
0100
0000
,  // measure 31
0020
0000
0000
0000
,  // measure 32
0130
0000
0000
0000
,  // measure 33
0110
0000
0000
0000
,  // measure 34
0100
0000
0010
0000
,  // measure 35
1000
0000
1001
0000
,  // measure 36
2000
0000
0000
0000
,  // measure 37
3002
0000
0000
0000
,  // measure 38
0000
0000
0100
0000
,  // measure 39
0203
0000
0000
0000
,  // measure 40
0000
0000
0000
0000
,  // measure 41
0310
0000
0100
0000
,  // measure 42
0010
0000
0100
0000
,  // measure 43
0001
0000
1000
0000
,  // measure 44
0001
0000
1000
0000
,  // measure 45
0100
0000
0010
0000
,  // measure 46
0001
0000
1000
0000
,  // measure 47
0010
0000
0100
0000
,  // measure 48
0010
0000
0100
0000
,  // measure 49
0001
0000
1000
0000
,  // measure 50
0001
0000
1000
0000
,  // measure 51
0001
0000
0010
0000
,  // measure 52
0100
0000
1000
0000
,  // measure 53
0010
0000
0100
0000
,  // measure 54
0010
0000
1000
0000
,  // measure 55
0001
0000
0100
0000
,  // measure 56
0010
0000
0100
0000
,  // measure 57
0002
0000
0000
0000
,  // measure 58
2003
0000
0000
0000
,  // measure 59
3001
0000
0000
0000
,  // measure 60
0000
0000
0000
0000
,  // measure 61
0200
0000
0000
0000
,  // measure 62
0010
0000
0010
0000
,  // measure 63
0320
0000
1000
0000
,  // measure 64
1000
0000
0000
0000
,  // measure 65
2030
0000
0001
0000
,  // measure 66
0001
0000
0000
0000
,  // measure 67
3002
0000
0100
0000
,  // measure 68
0103
0000
0000
0000
,  // measure 69
1001
0000
0010
0000
,  // measure 70
0100
0000
1000
0000
,  // measure 71
0010
0000
0100
0000
,  // measure 72
0010
0000
1000
0000
,  // measure 73
0100
0000
0010
0000
,  // measure 74
0001
0000
1000
0000
,  // measure 75
0010
0000
0100
0000
,  // measure 76
0010
0000
1000
0000
,  // measure 77
1001
0000
0001
0000
,  // measure 78
1001
0000
0100
0000
,  // measure 79
0110
0000
0000
0000
,  // measure 80
1001
0000
0000
0000
,  // measure 81
0200
0000
0000
0000
,  // measure 82
0010
0000
0000
0000
,  // measure 83
0320
0000
0000
0000
,  // measure 84
0000
0000
0030
0000
,  // measure 85
0220
0000
0000
0000
,  // measure 86
0330
0000
1000
0000
,  // measure 87
0100
0000
0010
0000
,  // measure 88
0001
0000
1000
0000
,  // measure 89
1001
0000
0000
0000
,  // measure 90
0001
0000
0000
1000
0000
0000
0000
0000
,  // measure 91
1001
0000
0000
0000
,  // measure 92
0010
0000
0000
0000
,  // measure 93
0220
0000
0000
0000
,  // measure 94
0330
0000
0000
0000
,  // measure 95
0001
0000
0010
0000
,  // measure 96
0100
0000
1000
0000
,  // measure 97
0010
0000
0100
0000
,  // measure 98
0010
0000
1000
0000
,  // measure 99
0001
0000
0000
0000
,  // measure 100
0000
0000
0000
0000
,  // measure 101
0001
1000
0001
0000
,  // measure 102
0100
0000
0010
0000
0100
0000
0000
0220
,  // measure 103
0000
0000
0000
0000
,  // measure 104
0330
0000
0000
0000
;

//---------------dance-single - ----------------
#NOTES:
     dance-single:
     :
     Beginner:
     2:
     0.117,0.227,0.089,0.000,0.000: // measure 1
0000
0000
0000
0000
,  // measure 2
0000
0000
0000
0000
,  // measure 3
0000
0000
0000
0000
,  // measure 4
0000
0000
0000
0000
,  // measure 5
0000
0000
0000
0000
,  // measure 6
0000
0000
0000
0000
,  // measure 7
0000
0000
0000
0000
,  // measure 8
0000
0000
0000
0000
,  // measure 9
1000
0000
0000
0000
,  // measure 10
0001
0000
0000
0000
,  // measure 11
1000
0000
0000
0000
,  // measure 12
0000
0000
0000
0000
,  // measure 13
0001
0000
0000
0000
,  // measure 14
1000
0000
0000
0000
,  // measure 15
0001
0000
0000
0000
,  // measure 16
0000
0000
0000
0000
,  // measure 17
1001
0000
0000
0000
,  // measure 18
1000
0000
0000
0000
,  // measure 19
1000
0000
0000
0000
,  // measure 20
1000
0000
0000
0000
,  // measure 21
0001
0000
0000
0000
,  // measure 22
0001
0000
0000
0000
,  // measure 23
0001
0000
0000
0000
,  // measure 24
0000
0000
0000
0000
,  // measure 25
0100
0000
0000
0000
,  // measure 26
0010
0000
0000
0000
,  // measure 27
0100
0000
0000
0000
,  // measure 28
0000
0000
0000
0000
,  // measure 29
0010
0000
0000
0000
,  // measure 30
0100
0000
0000
0000
,  // measure 31
0010
0000
0000
0000
,  // measure 32
0000
0000
0000
0000
,  // measure 33
1001
0000
0000
0000
,  // measure 34
0001
0000
0000
0000
,  // measure 35
0001
0000
0000
0000
,  // measure 36
1000
0000
0000
0000
,  // measure 37
1000
0000
0000
0000
,  // measure 38
0010
0000
0000
0000
,  // measure 39
0100
0000
0000
0000
,  // measure 40
0000
0000
0000
0000
,  // measure 41
0001
0000
0000
0000
,  // measure 42
0010
0000
0000
0000
,  // measure 43
0001
0000
0000
0000
,  // measure 44
0010
0000
0000
0000
,  // measure 45
0100
0000
0000
0000
,  // measure 46
1000
0000
0000
0000
,  // measure 47
0100
0000
0000
0000
,  // measure 48
1000
0000
0000
0000
,  // measure 49
0010
0000
0000
0000
,  // measure 50
0100
0000
0000
0000
,  // measure 51
0010
0000
0000
0000
,  // measure 52
0100
0000
0000
0000
,  // measure 53
0001
0000
0000
0000
,  // measure 54
0001
0000
0000
0000
,  // measure 55
1000
0000
0000
0000
,  // measure 56
1000
0000
0000
0000
,  // measure 57
0001
0000
0000
0000
,  // measure 58
0001
0000
0000
0000
,  // measure 59
1001
0000
0000
0000
,  // measure 60
0000
0000
0000
0000
,  // measure 61
1000
0000
0000
0000
,  // measure 62
0000
0000
0000
0000
,  // measure 63
0001
0000
0000
0000
,  // measure 64
0000
0000
0000
0000
,  // measure 65
1000
0000
0000
0000
,  // measure 66
0000
0000
0000
0000
,  // measure 67
1000
0000
0000
0000
,  // measure 68
0001
0000
0000
0000
,  // measure 69
0001
0000
0000
0000
,  // measure 70
1000
0000
0000
0000
,  // measure 71
0001
0000
0000
0000
,  // measure 72
1000
0000
0000
0000
,  // measure 73
0010
0000
0000
0000
,  // measure 74
1000
0000
0000
0000
,  // measure 75
0010
0000
0000
0000
,  // measure 76
1000
0000
0000
0000
,  // measure 77
0001
0000
0000
0000
,  // measure 78
0100
0000
0000
0000
,  // measure 79
0001
0000
0000
0000
,  // measure 80
0000
0000
0000
0000
,  // measure 81
1001
0000
0000
0000
,  // measure 82
1000
0000
0000
0000
,  // measure 83
1001
0000
0000
0000
,  // measure 84
0000
0000
0000
0000
,  // measure 85
0010
0000
0000
0000
,  // measure 86
0000
0000
0010
0000
,  // measure 87
0100
0000
0010
0000
,  // measure 88
0100
0000
0000
0000
,  // measure 89
1001
0000
0000
0000
,  // measure 90
0001
0000
0000
0000
,  // measure 91
1001
0000
0000
0000
,  // measure 92
1000
0000
0000
0000
,  // measure 93
1001
0000
0000
0000
,  // measure 94
0000
0000
0000
0000
,  // measure 95
0100
0000
0000
0000
,  // measure 96
0010
0000
0000
0000
,  // measure 97
0100
0000
0000
0000
,  // measure 98
0001
0000
0000
0000
,  // measure 99
1000
0000
0000
0000
,  // measure 100
0000
0000
0000
0000
,  // measure 101
1001
0000
0000
0000
,  // measure 102
0100
0000
0000
0000
0000
0000
0000
1001
;
