#TITLE:fffff op.2;
#SUBTITLE:;
#ARTIST:Five Hammer;
#TITLETRANSLIT:;
#SUBTITLETRANSLIT:;
#ARTISTTRANSLIT:;
#CREDIT:348;
#BANNER:fffff op.2 Banner.png;
#BACKGROUND:fffff op.2 Background.png;
#LYRICSPATH:;
#CDTITLE:;
#MUSIC:fffff op.2.mp3;
#OFFSET:-1.231;
#SAMPLESTART:9.350;
#SAMPLELENGTH:15.000;
#SELECTABLE:YES;
#BPMS:0.000=266.000;
#STOPS:32.000=0.677
,96.000=0.902
,257.000=0.677
,482.000=0.451
;
#BGCHANGES:;

//---------------dance-single - ----------------
#NOTES:
     dance-single:
     :
     Beginner:
     2:
     0.150,0.201,0.000,0.000,0.000: // measure 1
0000
0000
0000
0000
,  // measure 2
0000
0000
0000
0000
,  // measure 3
0000
0000
0000
0000
,  // measure 4
0000
0000
0000
0000
,  // measure 5
0000
0000
0000
0000
,  // measure 6
0000
0000
0000
0000
,  // measure 7
0000
0000
0000
0000
,  // measure 8
0000
0000
0000
0000
,  // measure 9
0000
1000
0000
0000
,  // measure 10
0000
0000
0000
0000
,  // measure 11
0000
1000
0000
0000
,  // measure 12
0000
1000
0000
0000
,  // measure 13
0000
0001
0000
0000
,  // measure 14
0000
0000
0000
0000
,  // measure 15
0000
0001
0000
0000
,  // measure 16
0000
0001
0000
0000
,  // measure 17
0000
0100
0000
0000
,  // measure 18
0000
0100
0000
0000
,  // measure 19
0000
0100
0000
0000
,  // measure 20
0000
0100
0000
0000
,  // measure 21
0000
0010
0000
0000
,  // measure 22
0000
0010
0000
0000
,  // measure 23
0000
0010
0000
0000
,  // measure 24
0000
0010
0000
0000
,  // measure 25
0100
0000
0000
0000
,  // measure 26
0000
0001
0000
0001
,  // measure 27
0000
0001
0000
0000
,  // measure 28
0000
1000
0000
0000
,  // measure 29
0000
0000
0000
0000
,  // measure 30
0000
1000
0000
1000
,  // measure 31
0000
1000
0000
0000
,  // measure 32
0000
0010
0000
0000
,  // measure 33
0000
1000
0000
0000
,  // measure 34
0000
1000
0000
0000
,  // measure 35
0000
0100
0000
0000
,  // measure 36
0000
0100
0000
0000
,  // measure 37
0000
0010
0000
0000
,  // measure 38
0000
0010
0000
0000
,  // measure 39
0000
0001
0000
0000
,  // measure 40
0000
0001
0000
0000
,  // measure 41
0000
1000
0000
0000
,  // measure 42
0000
0010
0000
0010
,  // measure 43
0000
0100
0000
0000
,  // measure 44
0000
0001
0000
0001
,  // measure 45
0000
0001
0000
0000
,  // measure 46
0000
0100
0000
0100
,  // measure 47
0000
0010
0000
0000
,  // measure 48
0000
1000
0000
1000
,  // measure 49
0000
0001
0000
0000
,  // measure 50
0000
0001
0000
0000
,  // measure 51
0000
1000
0000
0000
,  // measure 52
0000
1000
0000
0000
,  // measure 53
0000
0010
0000
0000
,  // measure 54
0000
0010
0000
0000
,  // measure 55
0000
0100
0000
0000
,  // measure 56
0000
0100
0000
0000
,  // measure 57
0000
0001
0000
0000
,  // measure 58
0000
0000
0000
0000
,  // measure 59
0000
1000
0000
0000
,  // measure 60
0000
0000
0000
0000
,  // measure 61
0000
0001
0000
0000
,  // measure 62
0000
1000
0000
0000
,  // measure 63
0000
0001
0000
0000
,  // measure 64
0000
1000
0000
0000
,  // measure 65
0000
0001
0000
0000
,  // measure 66
1000
0000
0000
0000
,  // measure 67
1000
0000
0000
0000
,  // measure 68
0001
0000
0100
0000
,  // measure 69
0001
0000
0000
0000
,  // measure 70
0001
0000
0000
0000
,  // measure 71
0001
0000
0000
0000
,  // measure 72
1000
0000
0010
0000
,  // measure 73
1000
0000
0001
0000
,  // measure 74
0000
0000
0100
0000
,  // measure 75
0000
0000
0010
0000
,  // measure 76
0000
0000
1000
0000
,  // measure 77
0000
0000
0001
0000
,  // measure 78
1000
0000
0001
0000
,  // measure 79
0000
0000
0100
0000
,  // measure 80
0010
0000
0100
0000
,  // measure 81
0000
0000
0010
0000
,  // measure 82
0000
0000
0000
0000
,  // measure 83
0010
0000
0010
0000
,  // measure 84
0000
0000
0000
0000
,  // measure 85
1000
0000
1000
0000
,  // measure 86
0000
0000
0000
0000
,  // measure 87
0001
0000
0001
0000
,  // measure 88
0000
0000
0000
0000
,  // measure 89
0100
0000
0100
0000
,  // measure 90
0000
0000
0001
0000
,  // measure 91
0000
0000
1000
0000
,  // measure 92
0000
0000
0010
0000
,  // measure 93
0000
0000
1000
0000
,  // measure 94
0100
0000
0010
0000
,  // measure 95
0000
0000
0001
0000
,  // measure 96
0010
0000
0100
0000
,  // measure 97
0000
0000
1000
0000
,  // measure 98
1000
0000
0000
0000
,  // measure 99
1000
0000
0100
0000
,  // measure 100
0100
0000
0000
0000
,  // measure 101
0100
0000
0010
0000
,  // measure 102
0010
0000
0000
0000
,  // measure 103
0010
0000
0001
0000
,  // measure 104
0001
0000
0000
0000
,  // measure 105
0001
0000
1000
0000
,  // measure 106
0000
0000
0001
0000
,  // measure 107
0000
0000
0100
0000
,  // measure 108
0000
0000
0010
0000
,  // measure 109
0000
0000
1000
0000
,  // measure 110
0001
0000
0100
0000
,  // measure 111
0000
0000
0010
0000
,  // measure 112
1000
0000
0001
0000
,  // measure 113
0000
0000
0100
0000
,  // measure 114
0000
0000
0000
0000
,  // measure 115
0000
0000
0010
0000
,  // measure 116
0000
0000
0000
0000
,  // measure 117
0000
0000
0100
0000
,  // measure 118
0000
0000
0010
0000
,  // measure 119
0000
0000
0100
0000
,  // measure 120
0000
0000
0010
0000
,  // measure 121
0000
0000
1000
0001
;

//---------------dance-single - ----------------
#NOTES:
     dance-single:
     :
     Easy:
     5:
     0.311,0.406,0.100,0.250,0.000: // measure 1
0000
0000
0000
0000
,  // measure 2
0000
0000
0000
0000
,  // measure 3
0000
0000
0000
0000
,  // measure 4
0000
0000
0000
0000
,  // measure 5
0000
0000
0000
0000
,  // measure 6
0000
0000
0000
0000
,  // measure 7
0000
0000
0000
0000
,  // measure 8
0000
0000
0000
0000
,  // measure 9
0000
1000
0000
0000
,  // measure 10
0000
0100
0000
0000
,  // measure 11
0000
1000
0000
0100
,  // measure 12
0000
1000
0000
0100
,  // measure 13
0000
0010
0000
0000
,  // measure 14
0000
0001
0000
0000
,  // measure 15
0000
0010
0000
0001
,  // measure 16
0000
0010
0000
0001
,  // measure 17
0000
1000
0000
1000
,  // measure 18
0000
0100
0000
0100
,  // measure 19
0000
0010
0000
0010
,  // measure 20
0000
0001
0000
0001
,  // measure 21
0000
1000
0000
0100
,  // measure 22
0000
1000
0000
0010
,  // measure 23
0000
0100
0000
0001
,  // measure 24
0000
0010
0000
0002
,  // measure 25
0003
1000
1000
1000
,  // measure 26
0000
0010
0000
0100
,  // measure 27
0000
0001
0001
0001
,  // measure 28
0000
0100
0000
0010
,  // measure 29
0000
1000
0000
0001
,  // measure 30
0000
0100
0010
0100
,  // measure 31
0000
0001
1000
0001
,  // measure 32
0000
0100
0000
0010
,  // measure 33
0000
1000
0000
0100
,  // measure 34
0000
0001
0000
0100
,  // measure 35
0000
1000
0001
1000
,  // measure 36
0000
0010
0000
0100
,  // measure 37
0000
0010
0100
0010
,  // measure 38
0000
0100
0000
0001
,  // measure 39
0000
0100
0000
0001
,  // measure 40
0000
1000
0000
0010
,  // measure 41
0000
2000
0000
3100
,  // measure 42
0000
0020
0000
0031
,  // measure 43
0000
1001
0000
0000
,  // measure 44
0000
0100
0000
0010
,  // measure 45
0000
0200
0000
0310
,  // measure 46
0000
2000
0000
3001
,  // measure 47
0000
0110
0000
0000
,  // measure 48
0000
0001
0000
1000
,  // measure 49
0000
0002
0000
0103
,  // measure 50
0000
0020
0000
1030
,  // measure 51
0000
1100
0000
0000
,  // measure 52
0000
0001
0000
0100
,  // measure 53
0000
0020
0000
0130
,  // measure 54
0000
0002
0000
1003
,  // measure 55
0000
0011
0000
0000
,  // measure 56
0000
1000
0000
0010
,  // measure 57
0000
2000
0000
0000
,  // measure 58
0000
0000
0000
0000
,  // measure 59
3000
0002
0000
0000
,  // measure 60
0000
0000
0000
0000
,  // measure 61
0003
2000
0000
0000
,  // measure 62
3000
0002
0000
0000
,  // measure 63
0003
1000
0000
0001
,  // measure 64
0000
1000
0000
0001
,  // measure 65
0000
1000
0010
0000
,  // measure 66
0010
0000
0100
0001
,  // measure 67
0100
0000
0001
0000
,  // measure 68
0001
0000
1000
0010
,  // measure 69
1000
0000
0001
0000
,  // measure 70
0010
0000
0001
0000
,  // measure 71
0101
0000
1000
0000
,  // measure 72
0100
0000
1000
0000
,  // measure 73
1010
0000
0001
0000
,  // measure 74
1000
0010
1000
0000
,  // measure 75
0001
0000
1000
0000
,  // measure 76
0001
0010
0001
0000
,  // measure 77
1000
0000
0001
0000
,  // measure 78
0001
0000
1000
0000
,  // measure 79
1000
0000
0020
0000
,  // measure 80
2030
0000
3002
0000
,  // measure 81
0203
0000
0301
0000
,  // measure 82
0001
0000
0001
0000
,  // measure 83
0100
0100
0100
0000
,  // measure 84
0010
0000
0010
0000
,  // measure 85
0010
0010
0010
0000
,  // measure 86
1000
0000
0001
0000
,  // measure 87
0011
0000
0100
0000
,  // measure 88
0001
0000
1000
0000
,  // measure 89
1100
0000
0001
0000
,  // measure 90
0010
0000
0001
0100
,  // measure 91
0001
0000
1000
0000
,  // measure 92
0010
0000
1000
0010
,  // measure 93
1000
0000
0010
0000
,  // measure 94
0010
0000
0100
0000
,  // measure 95
0100
0000
0002
0000
,  // measure 96
0203
0000
0320
0000
,  // measure 97
2030
0000
3001
0000
,  // measure 98
1000
0000
0001
0000
,  // measure 99
1000
0000
0010
0000
,  // measure 100
0100
0000
0010
0000
,  // measure 101
0100
0000
0001
1000
,  // measure 102
0001
0000
1000
0010
,  // measure 103
1000
0000
0010
0100
,  // measure 104
0010
0000
0100
0001
,  // measure 105
0100
0000
0001
0000
,  // measure 106
0010
0000
0100
0000
,  // measure 107
1001
0000
0100
0000
,  // measure 108
0001
0000
1000
0000
,  // measure 109
0110
0000
1001
0000
,  // measure 110
0000
0000
0110
0000
,  // measure 111
0000
0000
2000
0000
,  // measure 112
3002
0000
0203
0000
,  // measure 113
0320
0000
0230
0000
,  // measure 114
0000
0000
0000
0000
,  // measure 115
0000
0300
0020
0000
,  // measure 116
0000
0000
0000
0000
,  // measure 117
0000
0030
0200
0000
,  // measure 118
0000
0300
0020
0000
,  // measure 119
0000
0030
0100
0000
,  // measure 120
0010
0000
0100
0000
,  // measure 121
0010
0000
0100
0200
,  // measure 122
0000
0000
0000
0300
;

//---------------dance-single - ----------------
#NOTES:
     dance-single:
     :
     Medium:
     8:
     0.550,0.609,0.242,0.342,0.000: // measure 1
0000
0000
0000
0000
,  // measure 2
0000
0000
0000
0000
,  // measure 3
0000
0000
0000
0000
,  // measure 4
0000
0000
0000
0000
,  // measure 5
0000
0000
0000
0000
,  // measure 6
0000
0000
0000
0000
,  // measure 7
0000
0000
0000
0000
,  // measure 8
0000
0000
0000
0000
,  // measure 9
0000
1000
0100
1000
,  // measure 10
0010
1000
0001
0100
,  // measure 11
0010
1000
0100
0010
,  // measure 12
0001
1000
0010
0100
,  // measure 13
0001
0100
1000
0100
,  // measure 14
0010
1000
0010
0001
,  // measure 15
0010
1000
0001
0100
,  // measure 16
0001
1000
0010
1000
,  // measure 17
0001
2000
0100
3100
,  // measure 18
0000
0200
0010
0310
,  // measure 19
0000
0020
0001
0031
,  // measure 20
0000
0002
1000
1003
,  // measure 21
0000
2000
0010
3010
,  // measure 22
0000
0020
0100
0130
,  // measure 23
0000
0200
0001
0301
,  // measure 24
0000
0000
0001
0000
0000
0110
0000
0000
,  // measure 25
2000
0000
3001
0010
0001
0000
0100
0000
,  // measure 26
0001
0100
0010
0100
,  // measure 27
1000
0100
0001
1000
,  // measure 28
0100
1000
0001
0100
,  // measure 29
0010
0000
1000
0100
1000
0000
0100
0000
,  // measure 30
0010
0001
0100
0010
,  // measure 31
0100
0001
1000
0100
,  // measure 32
1000
0100
0010
0002
,  // measure 33
0000
1003
1000
0100
,  // measure 34
1000
0000
0010
0000
0000
0010
0000
0000
,  // measure 35
0010
0100
0100
0001
,  // measure 36
0100
0000
0001
0000
0000
0001
0000
0000
,  // measure 37
0001
1000
0100
0010
,  // measure 38
0100
0001
0100
1000
,  // measure 39
0001
1100
0000
0011
,  // measure 40
0000
1010
0000
0101
,  // measure 41
0000
2000
0010
3020
,  // measure 42
0100
0230
0001
0302
,  // measure 43
1000
0000
1003
0000
0000
0011
0000
0000
,  // measure 44
1000
0000
0001
0000
0000
1100
0000
0000
,  // measure 45
0001
0200
0001
0302
,  // measure 46
1000
2003
0010
3020
,  // measure 47
0100
0000
0130
0000
0000
1010
0000
0000
,  // measure 48
0100
0000
0010
0000
0000
0101
0000
0000
,  // measure 49
0010
2000
0100
3200
,  // measure 50
0010
0320
0001
0032
,  // measure 51
1000
0000
1003
0000
0000
0101
0000
0000
,  // measure 52
0100
0000
0010
0000
0000
1010
0000
0000
,  // measure 53
0001
0020
0001
0032
,  // measure 54
1000
2003
0100
3200
,  // measure 55
0010
0000
0310
0000
0000
0011
0000
0000
,  // measure 56
1000
0000
0001
0000
0000
1100
0000
0000
,  // measure 57
0100
1000
0000
0100
,  // measure 58
0000
0010
0000
0001
,  // measure 59
0000
1000
0100
1000
,  // measure 60
0000
0001
0010
0001
,  // measure 61
0000
1000
0100
0010
,  // measure 62
0001
1000
0010
0100
,  // measure 63
0001
0000
1000
0000
0100
0000
0010
0001
,  // measure 64
0010
0000
0001
0000
0010
0000
0100
1000
,  // measure 65
0100
2000
0000
0000
3001
0000
1000
0000
,  // measure 66
0100
0010
0100
1000
,  // measure 67
0100
0001
0100
1000
,  // measure 68
0001
0000
0100
0000
0010
0000
1000
0100
,  // measure 69
0000
0100
1000
0000
0001
0000
0010
0000
,  // measure 70
0001
0100
1000
0100
,  // measure 71
0001
1000
0010
0100
,  // measure 72
0010
0000
1000
0000
0001
0000
0100
0001
,  // measure 73
0000
0001
0100
0000
0001
0000
0010
0000
,  // measure 74
0002
0000
1003
0100
,  // measure 75
2000
0000
3010
1000
,  // measure 76
0020
0000
0130
0001
,  // measure 77
0200
0000
0301
0010
,  // measure 78
0100
1000
0010
0100
,  // measure 79
0001
0000
1100
0000
,  // measure 80
0101
0000
1010
0000
,  // measure 81
0011
0000
1000
0100
,  // measure 82
0010
0000
0001
0000
1000
0000
0000
1000
,  // measure 83
0001
0100
0001
0010
,  // measure 84
1000
0001
0100
1000
,  // measure 85
0001
1000
0001
0100
,  // measure 86
0010
0000
1000
0000
0010
0000
0000
0010
,  // measure 87
1000
0100
1000
0001
,  // measure 88
1000
0100
0010
0100
,  // measure 89
1000
0001
1000
0100
,  // measure 90
0200
0000
0310
0001
,  // measure 91
0002
0000
0103
0010
,  // measure 92
0020
0000
1030
0001
,  // measure 93
0002
0000
1003
0001
,  // measure 94
0100
0010
0110
0000
,  // measure 95
1001
0000
0011
0000
,  // measure 96
0101
0000
1010
0000
,  // measure 97
1100
0000
1000
2000
,  // measure 98
0000
3001
0100
0200
,  // measure 99
0000
0310
1000
0010
,  // measure 100
0100
0001
1000
0002
,  // measure 101
0000
0103
0001
1000
,  // measure 102
0100
0010
0001
1000
,  // measure 103
0010
0000
0100
0001
0100
0000
0010
0000
,  // measure 104
1000
0001
0010
1000
,  // measure 105
0010
0001
2000
0000
,  // measure 106
3001
0001
0002
0000
,  // measure 107
0103
0010
0110
0000
,  // measure 108
1001
0000
1000
0001
,  // measure 109
0100
0000
0010
1000
,  // measure 110
0001
0000
1000
0001
,  // measure 111
1000
0000
0110
0000
,  // measure 112
1001
0000
1001
0000
,  // measure 113
0110
0000
1000
0000
,  // measure 114
0001
0000
0100
0000
,  // measure 115
0010
0000
1000
0100
,  // measure 116
0010
0000
0001
0010
,  // measure 117
0100
0000
1000
0100
,  // measure 118
1000
0100
0010
0001
,  // measure 119
0010
0001
1000
0001
,  // measure 120
0100
0010
0100
0000
0010
0000
0100
0000
,  // measure 121
0001
1000
0001
2000
0000
0000
3020
0000
,  // measure 122
0000
0000
0000
0030
;

//---------------dance-single - ----------------
#NOTES:
     dance-single:
     :
     Hard:
     9:
     0.677,0.761,0.400,0.183,0.033: // measure 1
0000
0000
0000
0000
,  // measure 2
0000
0000
0000
0000
,  // measure 3
0000
0000
0000
0000
,  // measure 4
0000
0000
0000
0000
,  // measure 5
0000
0000
0000
0000
,  // measure 6
0000
0000
0000
0000
,  // measure 7
0000
0000
0000
0000
,  // measure 8
0000
0000
0000
0000
,  // measure 9
0000
0000
1000
0100
1000
0100
1000
0000
,  // measure 10
0001
0010
0001
1000
,  // measure 11
0001
0000
0010
0001
0010
0001
0010
0000
,  // measure 12
0001
0010
1000
0010
,  // measure 13
0001
0000
1000
0001
1000
0001
1000
0000
,  // measure 14
0010
0100
0001
2000
,  // measure 15
0010
0000
3010
0100
0010
0100
0010
0000
,  // measure 16
0100
0001
1000
0020
,  // measure 17
1000
0000
1030
0001
0000
0100
0000
0001
,  // measure 18
0000
1010
0000
0010
0000
0100
0000
0001
,  // measure 19
0000
1100
0000
1000
0000
0001
0000
0100
,  // measure 20
0000
0011
0000
0010
0000
0001
0000
1000
,  // measure 21
0000
0101
0000
1000
0000
0001
0000
0100
,  // measure 22
0000
1001
0000
0100
0000
0010
0000
1000
,  // measure 23
0000
0110
0000
0001
0000
1000
0000
0010
,  // measure 24
0000
0100
0001
0000
0000
1001
0000
0000
,  // measure 25
0110
0000
1000
0100
1000
0000
0001
0010
,  // measure 26
0001
1000
0100
0001
,  // measure 27
0100
0000
1000
0000
0001
0010
0000
0100
,  // measure 28
1000
0001
0100
0010
,  // measure 29
0100
0000
0001
0000
0010
0000
0100
1000
,  // measure 30
0100
0000
1000
0000
0001
0000
0100
0001
,  // measure 31
0100
0000
0001
0010
0001
0010
0002
0000
,  // measure 32
1000
1003
0000
1001
,  // measure 33
1001
0000
1000
0000
0100
0000
1000
0010
,  // measure 34
0100
0000
0001
0000
0100
0001
0000
0001
,  // measure 35
0100
0000
0010
0000
1000
0000
0010
0100
,  // measure 36
0010
0000
1000
0000
0010
1000
0000
1000
,  // measure 37
0010
0000
1000
0000
0100
0000
0010
0001
,  // measure 38
0010
0001
0010
0000
0001
0000
1000
0000
,  // measure 39
0100
2000
0001
0001
,  // measure 40
0001
3001
0000
0110
,  // measure 41
0110
1000
1100
0001
,  // measure 42
0011
0001
0101
1000
,  // measure 43
1010
0000
0001
0000
0200
0010
0000
0310
,  // measure 44
0100
0000
0010
0000
2000
0001
0000
3001
,  // measure 45
1000
0010
1010
0100
,  // measure 46
0101
0010
0011
0100
,  // measure 47
1100
0000
0001
0000
2000
0010
0000
3100
,  // measure 48
1000
0000
0010
0000
0200
0001
0000
0310
,  // measure 49
0100
0001
0101
0100
,  // measure 50
0110
0010
1010
1000
,  // measure 51
1001
0000
1000
0000
0002
0100
0000
0013
,  // measure 52
0001
0000
0100
0000
0020
1000
0000
0130
,  // measure 53
0010
1000
1100
0100
,  // measure 54
0110
0010
0011
0001
,  // measure 55
1001
0000
0001
0000
1000
0000
0010
0100
,  // measure 56
0010
0000
1000
0100
0010
0001
2000
0000
,  // measure 57
3001
1000
0100
0001
,  // measure 58
0100
1000
0010
0001
,  // measure 59
0010
0000
1000
0000
0001
0000
1000
0100
,  // measure 60
0010
0000
0100
0000
0010
0000
0001
0010
,  // measure 61
0100
0000
1000
0100
1000
0000
0001
0010
,  // measure 62
0001
0000
0100
0001
0100
0000
0010
1000
,  // measure 63
0010
0000
1000
0100
1000
0010
1000
0100
,  // measure 64
1000
0000
0001
0010
0001
0100
0001
1000
,  // measure 65
0001
2000
0000
0000
3001
0000
1000
0100
,  // measure 66
1000
0100
1000
0000
0001
0000
1000
0000
,  // measure 67
0010
0100
0001
1000
,  // measure 68
0001
1000
0100
0000
1000
0000
0001
0000
,  // measure 69
1000
0000
0001
0000
0100
0000
0010
1000
,  // measure 70
0010
1000
0010
0000
0100
0000
0001
0000
,  // measure 71
1000
0100
0010
0001
,  // measure 72
1000
0010
1000
0000
0001
0000
0100
0000
,  // measure 73
0001
1000
0001
0010
,  // measure 74
0001
1010
1000
0100
,  // measure 75
1000
0101
1000
0010
,  // measure 76
0100
0001
1000
0100
,  // measure 77
0010
1001
0001
1000
,  // measure 78
0002
0000
0103
0010
,  // measure 79
0100
0000
0012
0000
,  // measure 80
0103
0000
2010
0000
,  // measure 81
3100
0000
0001
0010
,  // measure 82
1000
0010
0001
1000
,  // measure 83
0100
0000
0001
0000
0100
0000
1000
0010
,  // measure 84
1000
0010
1000
0010
1000
0000
0001
0000
,  // measure 85
0010
0010
0001
1000
,  // measure 86
0100
0000
1000
0000
0001
0000
0100
0001
,  // measure 87
0100
0001
0100
0001
0100
0000
0001
0000
,  // measure 88
0010
0100
1000
0001
,  // measure 89
1001
0000
1000
1000
,  // measure 90
0100
1000
0001
0010
,  // measure 91
0002
0000
0103
0100
,  // measure 92
0010
0100
0001
1000
,  // measure 93
0020
0000
1030
0001
,  // measure 94
1100
0000
0001
1000
,  // measure 95
0011
0000
1200
0000
,  // measure 96
0310
0000
0021
0000
,  // measure 97
0130
0000
0000
0000
0010
0000
0001
0010
,  // measure 98
0001
0100
0001
0000
1000
0000
1000
0000
,  // measure 99
0001
0000
0001
0000
1000
0000
0010
1000
,  // measure 100
0010
0100
0010
0000
0100
0000
0100
0000
,  // measure 101
0010
0000
0000
0010
0000
0000
1000
0000
0100
0000
0010
0000
,  // measure 102
0001
0000
0000
0000
0000
0000
0001
0000
0100
0000
0010
0000
,  // measure 103
1000
0000
0000
0000
0000
0000
0001
0000
1000
0000
0001
0000
,  // measure 104
0100
0000
0010
0000
0100
0000
1001
0000
0000
0000
0000
0000
,  // measure 105
0110
0000
0001
1000
,  // measure 106
0010
0100
0010
0000
1000
0000
0100
0000
,  // measure 107
0010
0100
1000
0001
,  // measure 108
0100
0010
0100
0000
0001
0000
1000
0000
,  // measure 109
0010
0100
0011
0000
,  // measure 110
1100
0000
0010
0100
,  // measure 111
0110
0000
1001
0000
,  // measure 112
0110
0000
0110
0000
,  // measure 113
1001
0000
0001
0010
,  // measure 114
1000
0010
0001
0100
,  // measure 115
1000
0100
0001
0100
,  // measure 116
0001
0100
0010
0000
1000
0000
0010
0000
,  // measure 117
1000
0010
0100
0000
0001
0010
0100
0000
,  // measure 118
0100
0010
0001
0000
1000
0100
0010
0000
,  // measure 119
0010
0100
1000
0000
0001
0100
0001
0010
,  // measure 120
0001
0100
0001
0000
1000
0010
1000
0100
,  // measure 121
1000
0000
0010
0000
1000
0000
0002
0000
0000
0003
0000
0000
0220
0000
0000
0000
,  // measure 122
0000
0000
0000
0330
;

//---------------dance-single - ----------------
#NOTES:
     dance-single:
     :
     Challenge:
     10:
     0.774,0.913,0.450,0.158,0.050: // measure 1
0000
0000
0000
0000
,  // measure 2
0000
0000
0000
0000
,  // measure 3
0000
0000
0000
0000
,  // measure 4
0000
0000
0000
0000
,  // measure 5
0000
0000
0000
0000
,  // measure 6
0000
0000
0000
0000
,  // measure 7
0000
0000
0000
0000
,  // measure 8
0000
0000
0000
0000
,  // measure 9
0000
0000
1000
0100
1000
0010
1000
0001
,  // measure 10
1000
0010
1000
0000
0100
0000
0010
0000
,  // measure 11
0002
1000
0100
0010
,  // measure 12
2003
0001
0100
0010
,  // measure 13
3001
0000
0001
0010
0001
0100
0001
1000
,  // measure 14
0010
1000
0100
0000
1000
0000
0001
0000
,  // measure 15
0100
0020
1000
0100
,  // measure 16
1030
0200
0001
0010
,  // measure 17
0301
0000
0001
0010
0000
0001
1000
0001
,  // measure 18
0000
1000
0100
1000
0000
0010
0100
0010
,  // measure 19
0000
0100
0001
0100
0000
0001
1000
0001
,  // measure 20
0000
1000
0001
0100
0000
0010
1000
0001
,  // measure 21
0000
1000
0100
0010
0000
0001
0010
0100
,  // measure 22
0000
1000
0001
1000
0000
0010
0100
0010
,  // measure 23
0000
1000
0010
1000
0000
0001
0100
0001
,  // measure 24
0000
0100
0010
0000
0000
0110
0000
0000
,  // measure 25
2002
3003
0000
0000
0001
0000
0010
0000
0001
0000
0100
0000
0010
0000
1000
0000
,  // measure 26
0100
1000
0001
0010
0100
1000
0000
1000
,  // measure 27
0001
0000
1000
0100
1000
0000
0010
0100
,  // measure 28
0010
0000
1000
0100
0010
0001
0000
1000
,  // measure 29
0001
0000
0100
0010
0100
0010
1000
0001
,  // measure 30
1000
0001
0100
0010
0100
0000
0001
1000
,  // measure 31
0001
0000
1000
0000
0100
0000
1000
0010
,  // measure 32
0100
0000
0001
0000
0010
0000
0100
1000
,  // measure 33
0100
1000
0200
0000
1300
0000
1000
0100
,  // measure 34
0010
0000
0100
1000
0001
0010
0000
0010
,  // measure 35
0001
0000
0020
0000
0031
0000
0001
1000
,  // measure 36
0100
0000
0010
0001
1000
0001
0000
0001
,  // measure 37
1000
0001
0010
0001
,  // measure 38
0100
1000
0100
0001
,  // measure 39
1000
0000
0001
0010
0001
0010
0100
1000
,  // measure 40
0100
1000
0001
0000
1000
0010
0000
0010
,  // measure 41
0100
0011
0011
1100
,  // measure 42
1100
1010
1010
0101
,  // measure 43
0101
0000
1000
0100
0010
0100
0000
1000
,  // measure 44
0001
0000
0001
0010
0001
0100
0000
0100
,  // measure 45
0001
1010
1010
0011
,  // measure 46
0011
1100
1100
0101
,  // measure 47
0101
0000
1000
0100
1000
0100
0000
0010
,  // measure 48
0001
0000
0010
0001
0100
0010
0000
1000
,  // measure 49
0001
1100
1100
1001
,  // measure 50
1001
0011
0011
0110
,  // measure 51
0110
0000
0001
0010
0001
1000
0000
0010
,  // measure 52
0100
0000
0010
1000
0010
1000
0000
0001
,  // measure 53
0100
0101
0101
0110
,  // measure 54
0110
1010
1010
1001
,  // measure 55
1001
0000
0001
0000
1000
0000
0010
0100
,  // measure 56
0010
0000
1000
0010
1000
0010
0100
0001
,  // measure 57
0100
0001
1000
0000
0100
0000
1000
0000
,  // measure 58
0100
0010
0001
0010
,  // measure 59
0001
0000
1000
0100
1000
0000
0001
0010
,  // measure 60
0001
0000
1000
0010
1000
0000
0001
0100
,  // measure 61
0001
0000
1000
0100
1000
0010
1000
0001
,  // measure 62
1000
0001
1000
0001
0100
0001
0010
0001
,  // measure 63
1000
0001
1000
0010
1000
0010
0100
0001
,  // measure 64
0100
0001
1000
0100
1000
0100
0010
0001
,  // measure 65
0010
0002
0000
0000
1003
0000
0100
0000
,  // measure 66
0010
0000
0001
0000
1000
0100
1000
0010
,  // measure 67
1000
0100
1000
0000
0001
0010
0000
1000
,  // measure 68
0000
0010
0001
0000
1000
0010
0100
0000
,  // measure 69
0001
0100
0010
0000
1000
0100
0000
1001
,  // measure 70
0000
0100
1000
0000
0001
0010
0000
0110
,  // measure 71
0000
0010
0001
0000
1000
0000
0001
0000
,  // measure 72
0100
0001
1000
0001
,  // measure 73
0110
0000
1000
0100
,  // measure 74
1000
0010
1000
0001
,  // measure 75
1010
0000
0000
0000
0001
0000
1000
0100
,  // measure 76
1000
0001
1000
0010
,  // measure 77
0101
0000
0000
0000
1000
0000
0001
0100
,  // measure 78
0010
0000
1000
0000
1000
0010
0100
0000
,  // measure 79
0002
1003
1001
0000
,  // measure 80
0010
0100
0110
0000
,  // measure 81
1001
0000
0000
0000
1000
0100
1000
0000
,  // measure 82
0001
0000
0100
0000
0001
0010
0001
0000
,  // measure 83
0100
0000
0001
0000
0100
0001
0100
0000
,  // measure 84
0010
0000
0100
0000
0010
1000
0010
0000
,  // measure 85
1000
0000
0001
0000
0100
0001
1000
0010
,  // measure 86
1000
0001
0100
0010
1000
0000
0001
0000
,  // measure 87
0110
0001
2000
0000
,  // measure 88
3002
0000
0000
0000
0203
0000
0000
0310
,  // measure 89
1000
0001
1000
0100
,  // measure 90
1000
0000
0001
0000
0010
0001
0010
0001
,  // measure 91
0010
0002
1003
0010
,  // measure 92
1000
0000
0001
0000
0100
0010
0100
0010
,  // measure 93
0200
0301
1000
0100
,  // measure 94
1100
0000
0010
0001
,  // measure 95
0011
0000
1010
0000
,  // measure 96
0001
1000
1001
0000
,  // measure 97
0101
0000
0000
0000
1000
0010
1000
0010
,  // measure 98
0100
0001
0100
0001
1000
0000
0100
0000
,  // measure 99
0001
0000
0100
0000
1000
0010
0100
0010
,  // measure 100
0100
0001
1000
0001
0010
0000
0001
0000
,  // measure 101
0100
0000
0000
0010
0000
0000
1000
0000
0100
0000
1000
0000
,  // measure 102
0001
0000
0010
0000
0001
0000
1000
0000
0100
0000
0010
0000
,  // measure 103
0100
0000
1000
0000
0001
0000
0100
0000
1000
0000
0100
0000
,  // measure 104
0001
0000
1000
0000
0001
0000
1001
0000
0000
0000
0000
0000
,  // measure 105
0110
0000
0000
0000
0001
0000
1000
0100
,  // measure 106
0000
0100
1000
0000
0010
0000
1000
0000
,  // measure 107
0001
0000
0100
0000
0010
0000
0100
0001
,  // measure 108
0000
0001
0100
0000
0001
0000
1000
0000
,  // measure 109
0010
0100
0001
1000
,  // measure 110
0010
0000
0000
1000
0001
0000
0100
0000
,  // measure 111
0010
0000
0110
0000
,  // measure 112
1000
0001
1001
0000
,  // measure 113
0110
0000
1000
0001
,  // measure 114
0100
0010
0100
0010
,  // measure 115
1000
0000
0001
0000
1000
0100
0010
0000
,  // measure 116
0010
0100
1000
0000
0001
0100
0010
0000
,  // measure 117
0010
0100
0001
0000
1000
0010
1000
0010
,  // measure 118
1000
0001
0100
0010
0100
0010
1000
0001
,  // measure 119
0100
0001
0100
0001
0100
0010
0100
0010
,  // measure 120
1000
0100
1000
0100
0010
0001
0010
0001
,  // measure 121
1000
0000
0001
0000
0200
0000
0020
0000
0000
0330
0000
0000
2002
0000
0000
0000
,  // measure 122
0000
0000
0000
3003
;
