#TITLE:VOX UP;
#SUBTITLE:;
#ARTIST:sampling masters MEGA vs 青龍;
#TITLETRANSLIT:;
#SUBTITLETRANSLIT:;
#ARTISTTRANSLIT:sampling masters MEGA vs Seiryuu;
#GENRE:Rotterdam Techno;
#CREDIT:AznPunk07/Frozen_Heat/GuardianFrozen;
#MENUCOLOR:#000a90;
#METERTYPE:DDR;
#BANNER:VOX UP-bn.png;
#BACKGROUND:[BEMANI Week] - VOX UP-bg.png;
#LYRICSPATH:;
#CDTITLE:cdtitle.png;
#MUSIC:[BEMANI Week] - VOX UP.mp3;
#OFFSET:-1.226;
#SAMPLESTART:98.660;
#SAMPLELENGTH:11.900;
#SELECTABLE:YES;
#LISTSORT:;
#BPMS:0.000=404.000,160.000=202.000,176.000=404.000,304.000=202.000,344.000=101.000,380.000=202.000,384.000=404.000;
#STOPS:380.000=0.148
,380.500=0.297
,381.000=0.149
,381.500=0.148
,382.500=0.149
,383.000=0.148
,383.500=0.149
;
#BGCHANGES:0.000=[BEMANI Week] - VOX UP-bg.png=1.000=0=0=1,
648.000=[BEMANI Week] - VOX UP-bg.png=1.000=0=0=1,
99999=-nosongbg-=1.000=0=0=0 // don't automatically add -songbackground-
;
#ATTACKS:;

//---------------dance-single - ----------------
#NOTES:
     dance-single:
     :
     Hard:
     10:
     0.829,1.000,0.751,0.341,0.004: // measure 1
0000
0000
0000
0000
,  // measure 2
0000
0000
0000
0000
,  // measure 3
0000
0000
0000
0000
,  // measure 4
0000
0000
0000
0000
,  // measure 5
0000
0000
0000
0000
,  // measure 6
0000
0000
0000
0000
,  // measure 7
0000
0000
0000
0000
,  // measure 8
0000
0000
0000
0000
,  // measure 9
0001
0010
0100
1000
,  // measure 10
0001
1000
0100
0010
,  // measure 11
0001
0000
0100
0001
0100
0000
0010
0000
,  // measure 12
1000
0001
0010
0100
,  // measure 13
1000
0010
0100
0001
,  // measure 14
1000
0001
0100
0010
,  // measure 15
1000
0000
0010
0100
0010
0000
0000
0000
,  // measure 16
1000
1000
0001
0001
,  // measure 17
0010
0000
0100
1000
0100
0000
0010
0000
,  // measure 18
0001
1000
0001
0100
,  // measure 19
0001
0000
0010
0001
0010
0000
0100
0000
,  // measure 20
1000
0001
1000
0010
,  // measure 21
0100
0001
0100
0001
0100
0000
0010
0000
,  // measure 22
1000
0100
1000
0100
1000
0000
0001
0000
,  // measure 23
0010
0100
1100
0000
,  // measure 24
0011
1000
0001
0000
,  // measure 25
0100
0001
0010
0000
,  // measure 26
0100
1000
0010
1000
,  // measure 27
0100
0010
0001
0000
,  // measure 28
0001
0100
1000
0000
,  // measure 29
0100
0010
1000
0000
,  // measure 30
0100
0010
0100
0100
,  // measure 31
1000
1000
0001
1000
,  // measure 32
0001
0010
0010
0010
,  // measure 33
0100
1000
0001
0000
,  // measure 34
0100
0001
0100
0001
,  // measure 35
0010
0001
1000
0000
,  // measure 36
0010
1000
0001
0000
,  // measure 37
0010
0100
1000
0001
,  // measure 38
0010
0100
1000
0001
,  // measure 39
0100
1000
0001
0010
,  // measure 40
1000
0100
0010
0000
,  // measure 41
0002
0000
0000
1003
0000
0000
1010
1001
,  // measure 42
0000
0100
0000
0110
0000
0010
1000
0100
,  // measure 43
2100
0000
0000
3001
0000
0000
0010
1001
,  // measure 44
0000
0100
0000
0101
0000
0010
0010
0010
,  // measure 45
1000
0000
0100
0000
1000
0100
1000
0000
,  // measure 46
0000
1100
0000
0010
,  // measure 47
0001
0000
0010
0000
0001
0010
0001
0000
,  // measure 48
0000
0011
0000
0001
,  // measure 49
1000
0000
0001
0000
0100
0010
0100
0000
,  // measure 50
0000
0110
0000
1010
,  // measure 51
0000
0011
0000
0101
,  // measure 52
0000
1100
0001
1000
,  // measure 53
0001
0000
0001
0010
0001
0010
0001
0000
,  // measure 54
0000
0110
0000
0110
,  // measure 55
1000
0000
1000
0100
1000
0100
1000
0000
,  // measure 56
0000
0110
0000
0110
,  // measure 57
0001
0000
1000
0010
0001
0100
1000
0000
,  // measure 58
0000
0110
0000
1001
,  // measure 59
0010
0000
0110
0000
,  // measure 60
0001
0010
0100
1000
,  // measure 61
0002
0100
0003
1000
,  // measure 62
0200
0010
0300
1000
,  // measure 63
0000
0001
0000
0100
,  // measure 64
0001
0010
0100
1000
,  // measure 65
0020
0100
0030
0001
,  // measure 66
2000
0100
3000
0001
,  // measure 67
0000
0100
0000
0001
,  // measure 68
1000
0100
0010
0100
,  // measure 69
2000
0001
3000
0100
,  // measure 70
0020
0001
0030
0100
,  // measure 71
0000
1000
0000
0001
,  // measure 72
0010
1000
0010
0001
,  // measure 73
0200
0001
0300
1000
,  // measure 74
0002
0010
0003
0100
,  // measure 75
0001
0010
0001
0000
1000
0100
1000
0000
,  // measure 76
0001
0100
0001
0000
1000
0010
1000
0000
,  // measure 77
1001
0000
0000
0010
0001
0000
0010
0100
,  // measure 78
0000
1100
0000
1010
0000
1001
0100
0001
,  // measure 79
0010
0000
0000
0110
0000
0000
0100
1000
,  // measure 80
0000
1100
0000
0101
0000
1100
0001
0100
,  // measure 81
0010
0000
0100
0010
0001
0000
0010
1000
,  // measure 82
0000
1010
0000
0011
0000
1010
0001
1000
,  // measure 83
0001
0000
0000
1001
0000
0000
0001
0010
,  // measure 84
0000
0011
0000
1010
0000
0101
0000
1010
,  // measure 85
0000
1001
0000
0110
0000
1100
0000
0011
,  // measure 86
0000
1001
0000
1100
0000
1001
0000
0110
,  // measure 87
0002
0203
0320
0030
2000
3200
0302
0003
,  // measure 88
0020
0230
2300
3000
0020
0100
2030
0001
,  // measure 89
3200
0320
0032
0003
0200
0302
0023
0030
,  // measure 90
0200
2300
3002
0003
0200
0010
0302
1003
,  // measure 91
1200
0010
2300
3002
,  // measure 92
0203
0320
0032
2003
,  // measure 93
3200
0001
0320
0100
,  // measure 94
2030
0100
3002
0013
,  // measure 95
1100
0000
0000
0000
0101
0000
0000
0000
1100
0000
0101
0000
0010
0100
0010
0000
,  // measure 96
0011
1001
0110
1001
0101
1100
1001
0110
,  // measure 97
0001
0010
0100
1000
,  // measure 98
0000
1100
0000
0101
,  // measure 99
0010
0000
1100
0000
,  // measure 100
0010
0001
0100
0001
,  // measure 101
0010
0100
1000
0001
,  // measure 102
0000
0011
0000
1010
,  // measure 103
0100
0000
0011
0000
,  // measure 104
0100
1000
0001
0100
,  // measure 105
1000
0100
0001
0100
,  // measure 106
1000
0100
0001
0010
,  // measure 107
0100
1000
0100
0000
0010
0001
0010
0000
,  // measure 108
0100
1000
0100
1000
0001
0010
0001
0010
,  // measure 109
0100
1000
0001
0100
,  // measure 110
0000
0101
0000
1001
,  // measure 111
1100
0000
0010
0001
,  // measure 112
1000
0001
0100
0010
,  // measure 113
1000
0100
1000
0001
,  // measure 114
0000
0011
0000
1100
,  // measure 115
0011
0100
1000
0100
,  // measure 116
0010
0010
0001
0001
,  // measure 117
1000
0001
0100
0110
,  // measure 118
0000
0101
0000
0110
,  // measure 119
1000
0100
0010
0011
,  // measure 120
0000
0110
0000
0011
,  // measure 121
0100
1000
0010
1100
,  // measure 122
0000
0110
0000
0000
,  // measure 123
1001
0000
0110
0001
,  // measure 124
1000
0100
0000
0000
,  // measure 125
0010
0000
0001
0000
0100
0001
0100
0000
,  // measure 126
0010
1000
0100
1000
,  // measure 127
0001
0100
1000
0100
,  // measure 128
0010
1000
0100
0000
,  // measure 129
0010
0100
1100
0000
,  // measure 130
0010
0001
0101
0100
,  // measure 131
0010
1000
0100
0010
,  // measure 132
0100
0100
1000
1000
,  // measure 133
0001
0000
0100
0000
0010
1000
0010
0000
,  // measure 134
0100
0001
1000
1000
,  // measure 135
0001
0100
1010
0000
,  // measure 136
0011
0100
1000
0000
,  // measure 137
0010
0010
0110
0000
,  // measure 138
1001
0100
1001
0100
,  // measure 139
0001
0000
0010
0000
0100
0000
1000
0010
,  // measure 140
0001
0010
0100
0001
,  // measure 141
1000
0000
1100
0010
,  // measure 142
0001
0100
0001
1001
,  // measure 143
0000
0101
0010
0000
,  // measure 144
0001
0001
0010
0100
,  // measure 145
1100
0000
0010
0100
,  // measure 146
1000
1000
0001
0100
,  // measure 147
0010
0000
0001
0000
0010
0100
0010
0100
,  // measure 148
0010
1000
0100
0100
,  // measure 149
0011
0000
1100
0000
,  // measure 150
0000
0101
0000
1100
,  // measure 151
0101
0010
0100
1000
,  // measure 152
0001
0100
1000
0001
,  // measure 153
0010
0010
1000
1000
,  // measure 154
0001
0001
0010
0010
,  // measure 155
0100
1000
0100
0000
0010
0001
0010
0000
,  // measure 156
1000
0010
1000
0000
0001
0100
0001
0000
,  // measure 157
1000
0100
1000
0100
0010
0001
0010
0001
,  // measure 158
1000
0010
1000
0010
0100
0001
0100
0001
,  // measure 159
1000
0100
0010
0001
1000
0100
0010
0001
,  // measure 160
1000
0010
0100
0001
1000
0010
0100
0001
,  // measure 161
0020
0000
0000
0000
,  // measure 162
0000
0000
0000
0000
,  // measure 163
0030
0000
0000
0000
;

//---------------dance-single - ----------------
#NOTES:
     dance-single:
     :
     Medium:
     9:
     0.620,1.000,0.348,0.256,0.000:
0000
0000
0000
0000
,
0000
0000
0000
0000
,
0000
0000
0000
0000
,
0000
0000
0000
0000
,
0000
0000
0000
0000
,
0000
0000
0000
0000
,
0000
0000
0000
0000
,
0000
0000
0000
0000
,
1000
0010
0001
0000
,
1000
0010
0001
0000
,
1010
0000
0101
0000
,
1100
0000
0011
0000
,
0001
0100
1000
0000
,
0001
0100
1000
0000
,
0011
0000
1100
0000
,
0101
0000
1010
0000
,
1000
0100
0001
0000
,
1000
0010
0001
0000
,
1010
0000
0101
0000
,
1100
0000
0011
0000
,
0001
0100
1000
0000
,
0001
0010
1000
0000
,
0110
0000
1001
0000
,
0110
0000
1001
0000
,
0001
0010
0100
0000
,
0100
0010
0001
0010
,
0100
0010
0001
0000
,
0001
0010
0100
0000
,
1000
0010
0100
0000
,
0100
0010
1000
0010
,
0100
0010
1000
0000
,
0010
1000
0100
0010
,
0001
0100
0010
0000
,
0010
0100
0001
0100
,
0010
0100
0001
0000
,
0010
0100
1000
0000
,
1000
0100
0010
0000
,
0010
0100
1000
0100
,
0010
0001
0100
0010
,
1000
0001
1000
0000
,
1001
0000
0000
0100
0000
0000
0010
0010
,
0000
1000
0000
0001
0000
1000
0000
0000
,
1001
0000
0000
0010
0000
0000
0100
0100
,
0000
0001
0000
1000
0000
0001
0001
0001
,
1000
0100
0010
0001
,
0000
0101
0000
0011
,
0001
0010
0100
1000
,
0000
1010
0000
1100
,
1000
0100
0010
0001
,
0000
0011
0000
1100
,
0000
0011
0000
1100
,
0000
0011
0000
1100
,
0001
0100
0010
1000
,
0000
1010
0000
1100
,
1000
0010
0100
0001
,
0000
0011
0000
0101
,
0001
0100
0010
1000
,
0000
1010
0000
0101
,
1010
0000
0101
0000
,
1000
0100
1001
0000
,
0001
0010
0200
0000
,
0310
0000
0100
1000
,
0000
0100
1000
0000
,
0001
1000
0010
0001
,
0020
0000
0130
0000
,
1000
0001
0000
1000
,
0001
0000
0010
0000
,
0100
1000
0001
1000
,
0010
0100
0002
0000
,
0013
0000
0100
1000
,
0000
0100
0010
0000
,
0001
1000
0001
0000
,
2000
0000
3010
0100
,
0001
0000
0001
0010
,
0100
1000
0001
1000
,
0001
0100
0010
1000
,
0001
0000
0000
0001
0000
0000
0001
0001
,
0000
0001
0000
0001
0000
0001
1000
1000
,
1000
0000
0000
1000
0000
0000
1000
1000
,
0000
1000
0000
1000
0000
1000
0010
0010
,
0010
0000
0000
0010
0000
0000
0010
0010
,
0000
0010
0000
0010
0000
0010
0100
0100
,
0100
0000
0000
0100
0000
0000
0100
0100
,
0000
0100
0000
0100
0000
0100
0000
0100
,
0001
1000
0000
1000
0000
1000
0100
1000
,
0100
0010
0000
0010
0000
0010
0001
1000
,
0002
0000
0000
0000
,
2003
0000
3020
2030
,
3200
0000
0000
0000
,
0320
0000
0032
2003
,
3020
0000
0230
0302
,
2003
3020
0230
0302
,
2003
0100
3002
0100
,
2003
0010
3002
0010
,
2003
0000
3002
0000
2003
3200
0320
0032
,
1003
1000
0001
0001
0100
0100
0010
0010
,
1000
0100
1000
0100
,
0000
0100
0000
0100
,
0010
0000
0010
0000
,
0001
1000
0001
0000
,
0001
0100
0001
0100
,
0000
0100
0000
0100
,
0010
0000
0010
0000
,
0010
1000
0100
0010
,
0001
0010
0100
1000
,
0001
0010
0100
1000
,
0001
0000
0101
0000
,
1000
0000
1100
0000
,
0010
0100
1000
0010
,
0000
0100
0001
0000
,
1100
0000
0101
0000
,
1000
0100
0001
0000
,
0010
0100
1000
0001
,
0000
0001
0000
1000
,
0010
0100
0001
0000
,
0010
0100
1000
1000
,
0001
0100
0001
0100
,
0020
0230
0300
0000
,
0010
1000
0100
0010
,
0001
1000
0000
0000
,
1001
0000
0000
0000
,
0020
0230
0300
0000
,
1100
0000
0101
0000
,
0001
1000
0000
0000
,
0001
0001
0010
0100
,
1000
1000
0010
0100
,
0001
1000
0001
0000
,
1000
0001
1000
0000
,
0100
1000
0100
0000
,
0010
0001
0010
0100
,
1000
0100
0010
0000
,
0001
1000
0001
1000
,
0010
0010
0100
0001
,
1000
1000
0100
0010
,
0001
0001
0010
0100
,
1000
0100
0000
0000
,
0010
0001
1000
0000
,
0010
1000
0001
1000
,
0100
0010
0001
0000
,
0100
0001
0100
0000
,
0010
0000
1000
0100
,
0010
0000
0001
1000
,
0001
0000
0100
0001
,
0010
0000
0100
1000
,
0001
0000
1000
0000
,
0010
0100
0001
0000
,
1000
0100
1000
0001
,
0100
0010
1000
0001
,
0010
0000
0010
0000
,
0000
0100
0000
0100
,
0000
1000
0000
0001
,
0000
1001
0000
0001
,
0100
0001
0010
0000
,
1000
0100
0010
0000
,
0001
0100
0010
0000
,
1000
0100
0010
0000
,
0001
0100
0010
1000
,
0100
0010
0001
0100
,
0010
1000
0001
0010
,
1000
0010
0001
0100
,
1000
0000
0000
0000
;

//---------------dance-single - ----------------
#NOTES:
     dance-single:
     :
     Challenge:
     10:
     0.866,1.000,0.767,0.039,0.147:
0000
0000
0000
0000
,
0000
0000
0000
0000
,
0000
0000
0000
0000
,
0000
0000
0000
0000
,
0000
0000
0000
0000
,
0000
0000
0000
0000
,
0000
0000
0000
0000
,
0000
0000
0000
0000
,
0001
0000
0010
0000
0100
1000
0100
0000
,
0010
0001
0100
0001
,
0100
0000
0010
1000
0010
0000
0100
0000
,
0001
0010
0010
0001
,
1000
0000
0100
0000
0010
0001
0010
0000
,
0100
1000
1000
0010
,
0100
0000
0001
0010
0100
0000
0010
0000
,
0001
0001
1000
1000
,
0010
0000
1000
0001
1000
0000
0010
1000
,
0010
0100
0001
0010
,
0100
0001
0100
0001
0100
0000
0010
0100
,
1000
0010
0010
0010
,
0100
0001
0100
0001
0100
0000
0010
0000
,
1000
0100
0010
0001
0010
0000
0100
0000
,
1000
0000
0001
0000
0100
0000
0010
0100
,
0010
0100
0010
0100
0010
0000
0000
0000
,
1000
0100
0011
0000
,
1000
0100
0010
0001
,
0100
0010
1010
0000
,
0001
0010
1100
0000
,
1000
0010
0101
0000
,
0001
0010
0100
1000
,
0010
0100
0101
0001
,
0011
0100
1000
0100
,
0010
0001
1001
0000
,
0000
0110
0000
1001
,
0000
0110
0000
1001
,
0010
0100
1001
0010
,
1000
0010
0001
0010
,
0100
1000
0010
0001
,
0010
0100
0001
0001
,
1000
1000
0100
0000
,
0011
0000
0000
1100
0000
0000
0001
1000
,
0000
1010
0000
0011
0000
0001
0100
1000
,
0101
0000
0000
1010
0000
0000
0010
0001
,
0000
0101
0000
1100
0000
1000
0100
0100
,
0010
0000
0001
0010
0100
0001
0100
0000
,
0000
1100
0000
0110
,
1000
0000
0010
0001
0010
0100
1000
0000
,
0000
1100
0000
0101
,
0010
0000
1000
0010
0100
1000
0100
0000
,
0000
1010
0000
0101
,
0000
1010
0000
0101
,
0000
1010
0001
1000
,
0100
0000
1000
0100
0010
1000
0010
0000
,
0000
0011
0000
0110
,
0001
0000
0100
1000
0100
0010
0001
0000
,
0000
0011
0000
1010
,
0100
0000
0001
0100
0010
0001
0010
0000
,
0000
0101
0000
1010
,
0101
0000
1001
0000
,
1100
0001
0100
0001
,
0010
0100
0000
1000
,
0001
1000
0100
0001
,
0100
0010
0100
0000
,
1000
0001
0100
0010
,
0001
0010
1000
0000
,
0100
0001
0000
1000
,
0100
0010
0001
0000
,
0100
0100
0010
0010
,
1000
0001
1000
0000
,
0010
0100
0000
0001
,
1000
0001
1000
0100
,
0010
0010
0001
0001
,
1000
0001
0100
0001
,
1000
0000
1100
0000
,
0010
0001
0010
0001
1000
0100
1000
0100
,
0001
0100
0001
0100
0010
1000
0010
1000
,
0001
0100
1000
0010
0001
0000
0010
0100
,
0000
0001
0000
1000
0000
0001
1000
0100
,
0010
0001
1000
0010
0000
1000
0001
0100
,
0000
1100
0000
0101
0000
1010
0001
0010
,
0100
1000
0001
0100
0001
0010
0100
1100
,
0000
0011
0000
0100
0000
0001
1000
0001
,
0100
0010
0100
0100
0000
1100
0000
1010
,
0000
0011
0000
0101
0000
1100
0000
0101
,
0000
0011
0000
1100
0000
1001
0000
0110
,
0000
1010
0000
0011
0000
1001
0000
0100
,
0001
0000
0010
0000
0100
0010
0000
0001
0000
0100
0000
0010
1000
0000
0100
0000
,
0010
0000
0100
0000
1000
0010
0000
0100
0000
0001
0000
1000
0100
0000
1000
0000
,
0010
0000
0100
0000
0001
1000
0000
0001
0000
0010
0000
0100
0010
0000
0001
0000
,
0100
0000
1000
0000
0100
0010
0000
1000
0000
0001
0000
0010
0100
0000
1000
0000
,
0100
0000
0010
0000
0001
1000
0000
0001
0000
0100
0000
0010
1000
0000
0001
0000
,
0010
0000
0100
0000
0010
0001
0000
1000
0000
0001
0000
0100
0010
0000
1000
0000
,
0200
0300
0020
0030
,
0002
0003
2000
3000
,
0001
0000
0100
0000
1000
0000
0000
0000
1000
0000
0100
0000
0001
0000
0000
0000
1000
0100
1000
0100
0010
0001
0010
0001
1000
0010
1000
0010
0100
0001
0100
0001
,
1000
1100
0001
1010
0101
1001
0110
0011
,
1000
0100
0010
0001
,
0000
0001
1000
0001
,
0101
0000
1010
0000
,
0001
0010
0100
1000
,
0001
0100
0010
1000
,
0000
1000
0010
0100
,
0101
0000
1010
0000
,
0001
0010
0100
1000
,
0001
0001
0100
0010
,
1000
1000
0100
0010
,
0001
0010
1000
0010
0001
0100
1000
0100
,
0001
0010
0001
0010
0200
0000
0300
0000
,
1000
0100
0001
0100
,
0000
0010
0100
0000
,
1000
0010
0101
0000
,
0001
0001
1100
0001
,
0100
0010
1000
1010
,
0000
1100
0000
0011
,
0100
1000
0100
1000
0001
0100
0001
0100
,
0010
1010
1000
1010
,
0001
0100
1000
0100
,
0000
0110
1000
0001
,
0010
1000
0010
0110
,
0000
0001
1000
0001
,
0100
0000
0100
0010
,
0000
0110
0000
0010
,
1010
0000
0011
0000
,
0100
0110
0000
0000
,
1000
0000
0100
0010
0001
0010
0100
0000
,
1000
0010
0001
0010
,
0100
0001
0010
0100
,
1000
0010
1000
0010
0100
0000
0000
0000
,
0001
0010
1100
0000
,
0001
0010
1100
0010
,
0001
0101
1001
0000
,
1010
1010
0001
1000
,
0001
0000
0010
0100
1000
0100
0010
0000
,
0001
1000
0010
0100
,
0001
1000
0100
0010
,
0001
0100
1000
0100
0001
0000
0000
0000
,
1000
0100
0011
0000
,
1000
0100
0011
0100
,
1000
1010
1001
0000
,
0101
0101
1000
0001
,
1000
0000
0010
0001
,
0010
0100
0001
1000
,
0000
1100
0001
0000
,
0011
1000
0001
0101
,
0010
0000
1010
0001
,
1000
0001
0010
0100
,
1000
1100
0000
1100
,
0010
0001
0100
0010
,
0001
0010
1000
0001
,
0010
1000
0010
0100
,
1000
0010
0100
0001
,
1000
0100
0010
0001
,
1000
0100
1000
0000
0010
0000
0100
0000
,
0001
0010
0001
0000
1000
0000
0100
0000
,
0010
0100
1000
0000
0010
0000
0100
0000
,
0001
0010
0100
0000
0010
0000
0001
0000
,
1000
0010
0001
0010
1000
0100
0010
0001
,
0100
1000
0001
0010
1000
0001
0010
0100
,
1000
0010
0100
1000
0100
0001
0010
1000
,
0010
0100
1000
0100
0010
0001
1000
0100
,
1001
0000
0000
0000
;

//---------------dance-single - ----------------
#NOTES:
     dance-single:
     :
     Easy:
     7:
     0.415,0.814,0.139,0.155,0.000:
0000
0000
0000
0000
,
0000
0000
0000
0000
,
0000
0000
0000
0000
,
0000
0000
0000
0000
,
0000
0000
0000
0000
,
0000
0000
0000
0000
,
0000
0000
0000
0000
,
0000
0000
0000
0000
,
1000
0000
0100
0000
,
1000
0000
0010
0000
,
1000
0000
1100
0000
,
1000
0000
1010
0000
,
0001
0000
0100
0000
,
0001
0000
0010
0000
,
0001
0000
0101
0000
,
0001
0000
0011
0000
,
1000
0000
0100
0000
,
0010
0000
0001
0000
,
1000
0000
1010
0000
,
0001
0000
0101
0000
,
1000
0000
1000
0000
,
0001
0000
0001
0000
,
0010
0100
0010
0000
,
0110
0000
0000
0000
,
1000
0000
1000
0000
,
0100
0000
0100
0000
,
1000
0000
0100
0000
,
1000
0000
1000
0000
,
0001
0000
0001
0000
,
0100
0000
0100
0000
,
0001
0000
0100
0000
,
0001
0000
0001
0000
,
0010
0000
0010
0000
,
0100
0000
0100
0000
,
0010
0000
0100
0000
,
0010
0000
0010
0000
,
0001
0000
0010
0000
,
0100
0000
1000
0000
,
0001
0010
0100
1000
,
0001
0010
0100
0000
,
2000
0000
0000
3000
0000
0000
0010
0010
,
0000
0010
0000
0100
0000
0100
0000
0000
,
0002
0000
0000
0003
0000
0000
0100
0100
,
0000
0100
0000
0010
0000
0000
0000
0000
,
1000
0000
0000
0100
,
0000
0100
0000
0000
,
0001
0000
0000
0010
,
0000
0010
0000
0000
,
0100
0000
0000
0001
,
0000
0001
0000
0001
,
0000
0010
0000
0010
,
0000
0010
0000
0000
,
0001
0000
0000
0100
,
0000
0100
0000
0000
,
0010
0000
0000
1000
,
0000
1000
0000
0000
,
0001
0000
0000
0100
,
0000
0100
0000
0100
,
0001
0000
0001
0000
,
0001
0000
0001
0000
,
2000
0000
0000
0000
,
3200
0000
0000
0000
,
0300
0000
0000
0000
,
0001
0000
1000
0000
,
0002
0000
0000
0000
,
0023
0000
0000
0000
,
0030
0000
0000
0000
,
1000
0000
0010
0000
,
0200
0000
0000
0000
,
0320
0000
0000
0000
,
0030
0000
0000
0000
,
0001
0000
1000
0000
,
0020
0000
0000
0000
,
0230
0000
0000
0000
,
2300
0000
3002
0000
,
0023
0000
2030
0000
,
3001
0000
0000
0000
0001
0000
0000
0001
,
0000
0001
0000
0001
0000
0000
0000
0000
,
1000
0000
0000
0000
1000
0000
0000
1000
,
0000
1000
0000
1000
0000
0000
0000
0000
,
0001
0000
0000
0000
0001
0000
0000
0001
,
0000
0001
0000
0001
0000
0000
0000
0000
,
1000
0000
0000
0000
1000
0000
0000
1000
,
0000
1000
0000
1000
0000
1000
0000
1000
,
0000
1000
0000
1000
0000
1000
0000
1000
,
0000
1000
0000
1000
0000
1000
0000
1000
,
1000
0000
0100
0000
,
0010
0000
0001
0100
,
0010
0000
1000
0000
,
0100
0000
0010
0001
,
0100
0000
0010
1000
,
0100
0000
0010
0001
,
1000
0000
0010
0000
,
0100
0000
0001
0000
,
1000
0100
0010
0001
,
1000
1000
1000
1000
1000
1000
1000
1000
,
1000
0000
0100
0000
,
0010
0000
0001
0000
,
1000
0000
1001
0000
,
0001
0000
1001
0000
,
0001
0000
0100
0000
,
0010
0000
1000
0000
,
0100
0000
0110
0000
,
0010
0000
0110
0000
,
0001
0000
0011
0000
,
0100
0000
1100
0000
,
0011
0000
0011
0000
,
1000
0000
0001
0000
,
0100
0000
0010
0000
,
1000
0000
0001
0000
,
1000
0100
1000
0000
,
0001
0010
0001
0000
,
1000
0000
0010
0000
,
0100
0000
0001
0000
,
0010
0001
0010
0000
,
0100
1000
0100
1000
,
0002
0000
0000
0000
,
0003
0000
0000
0000
,
2000
0000
0000
0000
,
3000
0000
0000
0000
,
0220
0000
0000
0000
,
0330
0000
0000
0000
,
1000
0000
0001
0000
,
1001
0000
0000
0000
,
0001
0100
0001
0100
,
0010
0100
0010
0100
,
0001
0100
0010
0000
,
0010
0100
0001
0000
,
1000
0001
1000
0000
,
0001
1000
0001
1000
,
0001
1000
0001
0000
,
0010
0100
0010
0100
,
1000
0100
1000
0100
,
1000
0001
1000
0100
,
1000
0010
1000
0010
,
1000
0001
1000
0000
,
0001
1000
0001
0000
,
1000
0001
1000
0001
,
1000
0001
1000
0000
,
0010
0100
0010
0100
,
0001
0000
0010
0000
,
0100
1000
0100
0000
,
0010
0000
0001
0000
,
1000
0000
0001
0100
,
0001
0000
1000
0000
,
0010
0000
0100
0000
,
0010
0000
1000
0000
,
0100
0000
0010
0100
,
0010
0000
0001
0000
,
0000
1000
0000
0001
,
1000
0000
0001
0000
,
0100
0000
0010
0000
,
1000
0000
1000
0010
,
0000
0100
0000
0001
,
0000
0010
0000
0100
,
0000
1000
0000
0010
,
0000
0100
0000
0001
,
0000
1000
0000
0100
,
0000
0010
0000
0001
,
0000
1000
0000
2002
,
0000
0000
0000
0000
,
0000
0000
0000
3003
;

//---------------dance-single - ----------------
#NOTES:
     dance-single:
     :
     Beginner:
     5:
     0.292,0.620,0.256,0.031,0.000:
0000
0000
0000
0000
,
0000
0000
0000
0000
,
0000
0000
0000
0000
,
0000
0000
0000
0000
,
0000
0000
0000
0000
,
0000
0000
0000
0000
,
0000
0000
0000
0000
,
0000
0000
0000
0000
,
1000
0000
0000
0000
,
0100
0000
0000
0000
,
1100
0000
0000
0000
,
0000
0000
0000
0000
,
0001
0000
0000
0000
,
0100
0000
0000
0000
,
0101
0000
0000
0000
,
0000
0000
0000
0000
,
1000
0000
0000
0000
,
0010
0000
0000
0000
,
1010
0000
0000
0000
,
1010
0000
0000
0000
,
0001
0000
0000
0000
,
0010
0000
0000
0000
,
0011
0000
0011
0000
,
0011
0000
0000
0000
,
0100
0000
0000
0000
,
1000
0000
0000
0000
,
0001
0000
0000
0000
,
0000
0000
0000
0000
,
0100
0000
0000
0000
,
0001
0000
0000
0000
,
0010
0000
0000
0000
,
0100
0000
0100
0000
,
0100
0000
0000
0000
,
1000
0000
0000
0000
,
0010
0000
0000
0000
,
0000
0000
0000
0000
,
0100
0000
0100
0000
,
0100
0000
0000
0000
,
0001
0000
0001
0000
,
1000
0000
1000
0000
,
1001
0000
0000
0000
,
0010
0010
0010
0000
,
0110
0000
0000
0000
,
0100
0100
0100
0000
,
1000
0000
1000
0000
,
1000
0000
0000
0000
,
0001
0000
0001
0000
,
0001
0000
0000
0000
,
0100
0000
0100
0000
,
0100
0000
0000
0000
,
0010
0000
0010
0000
,
0010
0000
0010
0000
,
0010
0000
0010
0000
,
0010
0000
0000
0000
,
1000
0000
1000
0000
,
1000
0000
0000
0000
,
0001
0000
0001
0000
,
0001
0000
0000
0000
,
0100
0000
0100
0000
,
0100
0000
0000
0000
,
0001
0000
0000
0000
,
0010
0000
0000
0000
,
0100
0000
0000
0000
,
1000
0000
0000
0000
,
0010
0000
0000
0000
,
0100
0000
0000
0000
,
0001
0000
0000
0000
,
1000
0000
0001
0000
,
1000
0000
0000
0000
,
0100
0000
0000
0000
,
0010
0000
0000
0000
,
0100
0000
0000
0000
,
0010
0000
0000
0000
,
0001
0000
0000
0000
,
1000
0000
0001
0000
,
1000
0000
0000
0000
,
0001
0000
0000
0000
,
0100
0000
0000
0000
,
0010
0000
0000
0000
,
1000
0000
0000
0000
,
0100
0000
0000
0000
,
0010
0000
0000
0000
,
0001
0000
0000
0000
,
1000
0000
0000
0000
,
0010
0000
0100
0000
,
0001
0000
1000
0000
,
0100
0000
0000
0000
,
0010
0000
0001
0001
,
0001
0000
0000
0000
,
0100
0000
0010
1000
,
1000
0000
0001
0000
,
0010
0001
1000
0010
,
0200
0300
0020
0030
,
2000
3000
0002
0003
,
1001
0110
0001
0010
,
1001
0000
0000
0000
,
1000
0000
0100
0000
,
0010
0000
0001
0000
,
0100
0000
0010
0000
,
1000
0000
0001
0000
,
0010
0000
0100
0000
,
0010
0000
0001
0000
,
1000
0000
1000
0000
,
0010
0000
0010
0000
,
0100
0000
0000
0000
,
0001
0000
0000
0000
,
0011
0000
0011
0000
,
1100
0000
1100
0000
,
0001
0000
0100
0000
,
0010
0000
1000
0000
,
1001
0000
1001
0000
,
0110
0000
0110
0000
,
1000
0000
0100
0000
,
0010
0000
0001
0000
,
1010
0000
1010
0000
,
0101
0000
1100
0000
,
0011
0000
0011
0000
,
0010
0000
0000
0000
,
1100
0000
1100
0000
,
0100
0000
0000
0000
,
1001
0000
0000
0000
,
0000
0000
0000
0000
,
1000
0000
0001
0000
,
1001
0000
0000
0000
,
1000
0000
1000
0000
,
1000
0000
0000
0000
,
0001
0000
0001
0000
,
0001
0000
0000
0000
,
0100
0000
0000
0000
,
0100
0000
0000
0000
,
0010
0000
0000
0000
,
0010
0000
0000
0000
,
1000
0000
1000
0000
,
1000
0000
0010
0000
,
0001
0000
0001
0000
,
0001
0000
0000
0000
,
0010
0000
0000
0000
,
0100
0000
0000
0000
,
1000
0000
0000
0000
,
0001
0000
0000
0000
,
1000
0000
0010
0000
,
1000
0000
0000
0000
,
0001
0000
0100
0000
,
0001
0000
0000
0000
,
1000
0000
0100
0000
,
0010
0000
0001
0000
,
1000
0000
0010
0000
,
0100
0000
0001
0000
,
1000
0000
0000
0000
,
1001
0000
0000
0000
,
0001
0000
0000
0000
,
1001
0000
0000
0000
,
0010
0000
0000
0000
,
0100
0000
0000
0000
,
1000
0000
0100
0000
,
0001
0000
0010
0000
,
0001
1000
0001
1000
,
0001
1000
0001
0000
,
1000
0001
1000
0001
,
1000
0001
1000
0000
,
1001
0000
0000
0000
;
