#TITLE:Treasure Hoard;
#SUBTITLE:;
#ARTIST:Djorkaeff Takijima;
#TITLETRANSLIT:;
#SUBTITLETRANSLIT:;
#ARTISTTRANSLIT:;
#GENRE:;
#CREDIT:;
#MENUCOLOR:;
#METERTYPE:DDR;
#BANNER:Treasure Hoard.png;
#BACKGROUND:Treasure Hoard-bg.png;
#LYRICSPATH:;
#CDTITLE:;
#MUSIC:Treasure Hoard.mp3;
#OFFSET:0.000;
#SAMPLESTART:8.030;
#SAMPLELENGTH:12.000;
#SELECTABLE:YES;
#LISTSORT:;
#BPMS:0.000=120.000;
#STOPS:;
#BGCHANGES:;
#ATTACKS:;

//---------------dance-single - ----------------
#NOTES:
     dance-single:
     :
     Hard:
     9:
     0.683,0.625,0.440,0.101,0.672: // measure 1
0000
0000
0000
0000
,  // measure 2
0000
0000
0000
0000
,  // measure 3
0000
0000
0000
0000
,  // measure 4
1000
0010
1000
0000
0010
0000
0100
0000
0001
0000
0100
0000
1000
0000
0100
0000
,  // measure 5
0001
0100
0001
0000
0010
0000
0100
0000
1000
0000
0010
0000
0100
0000
0000
0000
,  // measure 6
0001
0100
0001
0000
0100
0000
0010
0000
1000
0000
0100
0000
0010
0000
0001
0000
,  // measure 7
0010
0100
0010
0000
0001
0000
0100
0000
1000
0000
0100
0000
0001
0000
0000
0000
,  // measure 8
1000
0100
1000
0000
0010
0000
0100
0000
0001
0000
0100
0000
1000
0000
0100
0000
,  // measure 9
0001
0010
0001
0000
0010
0000
1000
0000
0010
0000
0001
0000
0100
0000
0000
0000
,  // measure 10
0010
0100
0010
0000
0100
0000
0001
0000
1000
0000
0100
0000
0010
0000
0001
0000
,  // measure 11
1000
0001
1000
0000
0010
0000
0100
0000
0001
0000
0010
0000
0100
0000
0000
0000
,  // measure 12
0120
0000
0000
0000
0000
0000
0000
0031
0000
0000
0000
0000
0000
0000
0000
0000
0001
0000
0000
0000
0010
0000
0000
0000
0100
0000
0000
0000
0010
0000
0000
0000
,  // measure 13
0002
0000
0000
0000
0103
0000
0010
0000
2000
0000
0000
3001
0000
0100
0010
0000
,  // measure 14
1000
0001
0000
0100
0010
0000
1000
0000
0010
0000
0100
0010
0000
0010
1000
0000
,  // measure 15
0002
0000
0000
0203
0000
0000
0310
0000
0200
0000
0000
0310
0000
0100
0001
0000
,  // measure 16
0010
0100
0000
0010
0001
0000
1000
0000
0001
0000
0100
0000
0010
0000
1000
0000
,  // measure 17
0200
0000
0000
0310
0100
0000
0100
0000
0020
0000
0000
0031
0000
0100
0010
0000
,  // measure 18
0100
0000
0101
0000
0000
0010
0001
0000
0100
0001
0000
0010
0000
0100
0010
0000
,  // measure 19
0200
0000
0000
0310
0000
0001
1000
0000
1002
0000
0000
1003
0000
0010
0100
0000
,  // measure 20
0001
0000
0010
0100
0000
0010
0001
0000
1000
0010
1000
0010
1000
0000
0001
0000
,  // measure 21
0100
0000
0000
0110
0000
0000
0010
0000
0100
0000
0010
0000
1000
0000
0001
0010
,  // measure 22
0000
0100
0010
0000
0001
0000
0100
0000
0001
0010
0001
0010
0001
0000
0100
0001
,  // measure 23
0000
0001
1000
0001
1000
0001
1000
0000
0100
0010
0100
0000
1000
0000
0010
1000
,  // measure 24
0010
1000
0010
0000
0100
0000
0001
1000
0001
1000
0001
0000
0100
0010
0100
0000
,  // measure 25
0000
0000
0001
0010
0001
0010
0001
0000
0100
0001
0100
0000
0010
0000
1000
0010
,  // measure 26
1000
0000
0010
0000
0100
0000
0010
0000
1000
0100
1000
0100
1000
0000
0010
0000
,  // measure 27
0100
0000
0010
0000
1000
0001
1000
0000
0001
0000
0010
0000
0100
0000
0010
0001
,  // measure 28
0010
0000
0100
0000
1000
0000
0010
0000
1010
0000
0000
0110
0000
0000
0101
0000
,  // measure 29
0001
0010
0001
0010
0000
0010
0100
0000
1100
0000
0000
1010
0000
0000
0110
0000
,  // measure 30
0100
0001
0100
0001
0000
0001
1000
0000
1010
0000
0000
0110
0000
0000
0101
0000
,  // measure 31
0001
1000
0001
1000
0000
1000
0010
0000
0110
0000
0000
1010
0000
0000
1100
0000
,  // measure 32
2002
0000
0000
0000
0000
0000
0000
3003
,  // measure 33
0011
0000
0000
0000
1100
0000
0000
0000
1000
0010
1000
0000
0010
0000
0100
0000
,  // measure 34
0001
0010
0001
0100
0000
0001
1000
0000
0010
0100
0010
0000
1000
0000
0100
0000
,  // measure 35
0010
0001
0010
0100
0000
1000
0010
0000
0100
0001
0100
0000
0010
0000
1000
0000
,  // measure 36
0001
0100
0001
1000
0000
0010
0100
0000
0010
1000
0010
0000
0100
0000
0001
0000
,  // measure 37
1000
0100
1000
0100
0010
0001
0010
0000
0001
1000
0001
0000
0100
0000
0010
0000
,  // measure 38
1000
0010
1000
0100
0000
0010
0001
0000
1000
0010
1000
0000
0010
0000
0100
0000
,  // measure 39
0001
0010
0001
0100
0000
0001
1000
0000
0010
0100
0010
0000
1000
0000
0100
0000
,  // measure 40
0010
0100
0010
0001
0000
0010
0100
0000
1000
0010
1000
0000
0010
0000
0100
0000
,  // measure 41
0001
0010
0100
0010
0001
0010
0100
0000
1000
0001
1000
0001
1000
0001
1000
0000
,  // measure 42
0001
0100
0010
0000
1000
0000
0100
0010
0000
0001
0000
0100
0001
1000
0001
0100
,  // measure 43
0000
0000
0010
0000
1000
0000
0100
0000
0010
0000
0000
0000
0100
0000
1000
0000
0000
0010
0000
0000
0000
0000
0100
0000
0001
0000
0100
0000
0010
0000
0100
0000
,  // measure 44
0001
0000
0010
0000
0100
0000
0000
0000
0010
0000
0000
0000
0100
0000
1000
0000
0000
0010
0000
0000
0000
0000
0100
0000
0010
0000
0100
0000
0001
0000
0100
0000
,  // measure 45
0000
0001
0010
0001
0100
0000
0010
1000
0000
0100
0010
0100
1000
0100
0010
0001
,  // measure 46
0100
0110
0000
1010
0000
0011
0001
0100
,  // measure 47
0010
1010
0000
1100
0000
0110
0010
0001
,  // measure 48
0100
0101
0000
1010
0000
0110
0100
0001
,  // measure 49
0010
0110
0000
1100
0110
0011
0110
1100
,  // measure 50
1000
0000
0001
0000
0100
0000
0000
0000
0010
0000
0000
0000
1000
0000
0100
0000
0000
0010
0000
0000
0000
0000
0001
0000
0100
0000
0001
0000
1000
0000
0001
0000
,  // measure 51
0000
0000
0100
0000
0010
0000
1000
0000
0100
0000
0000
0000
0010
0000
0100
0000
0000
1000
0000
0000
0000
0000
0010
0000
0100
0000
0010
0000
1000
0000
0010
0000
,  // measure 52
0100
0001
0010
0000
0100
1000
0000
0010
0100
0000
0000
0010
1000
0010
0100
0010
,  // measure 53
0000
1000
0100
1000
0010
0100
0010
0100
0001
0010
0001
0010
0100
1000
0100
1000
,  // measure 54
0001
1001
0000
1010
0000
1100
1000
1001
,  // measure 55
0001
0011
0000
1001
0000
0110
0010
1010
,  // measure 56
1000
1100
0000
1001
0000
1010
1000
1100
,  // measure 57
0100
0110
0000
0011
0101
1100
1010
0110
;

//---------------dance-single - ----------------
#NOTES:
     dance-single:
     :
     Medium:
     6:
     0.446,0.409,0.313,0.144,0.140: // measure 1
0000
0000
0000
0000
,  // measure 2
0000
0000
0000
0000
,  // measure 3
0000
0000
0000
0000
,  // measure 4
1000
0100
0010
0000
0001
0100
0010
0000
,  // measure 5
1000
0100
0010
0001
0010
0000
0100
0000
,  // measure 6
0010
0001
0100
0000
0010
1000
0001
0000
,  // measure 7
1000
0100
0010
0100
1000
0000
0010
0000
,  // measure 8
0100
0001
0100
0000
0010
1000
0100
0000
,  // measure 9
0010
0001
0100
0010
0100
0000
0001
0000
,  // measure 10
0010
0100
0010
0000
0001
0100
0010
0000
,  // measure 11
1000
0100
0010
0100
1000
0000
0010
0000
,  // measure 12
0220
0000
0000
0000
0000
0000
0000
0330
0000
0000
0000
0000
0000
0000
0000
0000
0001
0000
0000
0000
0100
0000
0000
0000
0010
0000
0000
0000
0100
0000
0000
0000
,  // measure 13
0002
0000
0000
1003
0000
0000
0100
0000
0020
0000
0000
0000
0130
0000
0010
0000
,  // measure 14
0001
0000
0000
0100
0000
0000
0010
0000
0100
0000
0001
0000
0000
1000
0000
0000
,  // measure 15
0200
0000
0000
0320
0000
0000
0031
0000
0200
0000
0000
0310
0000
0000
0100
0000
,  // measure 16
0001
0000
1000
0000
0000
0010
0000
0000
0100
0000
0001
0000
0010
0000
0100
0000
,  // measure 17
0020
0000
0000
0031
0000
0000
0100
0000
0020
0000
0000
1030
0000
0000
0001
0000
,  // measure 18
0010
0000
0110
0000
0000
0100
0000
0000
1000
0000
0000
0010
0000
0000
0100
0000
,  // measure 19
0002
0000
0000
0013
0000
0000
0001
0000
1002
0000
0000
1003
0000
0000
0100
0000
,  // measure 20
0010
0000
0000
0001
0000
0000
0100
0000
0010
0000
0100
0000
0001
0000
0000
0000
,  // measure 21
1000
0000
0000
1001
0000
0000
0001
0000
0100
0000
0000
0000
0010
0000
0100
0000
,  // measure 22
0001
1000
0100
0000
0010
0001
0100
0000
,  // measure 23
0010
0100
0001
1000
0100
0010
0000
0100
,  // measure 24
1000
0100
0000
1000
0001
0100
0010
1000
,  // measure 25
0000
0100
0010
0100
1000
0000
0100
1000
,  // measure 26
0100
0000
1000
0000
0010
0100
0001
0010
,  // measure 27
0100
0000
1000
0000
0010
1000
0010
0100
,  // measure 28
0001
0000
0000
0000
0010
0000
0000
0000
0210
0000
0000
0010
0000
0000
0310
0000
,  // measure 29
0001
0000
0010
0000
0000
0100
0000
0000
1200
0000
0000
1000
0000
0000
1300
0000
,  // measure 30
0010
0000
0100
0000
0000
0001
0000
0000
0012
0000
0000
0010
0000
0000
0013
0000
,  // measure 31
0100
0000
1000
0000
0000
0010
0000
0000
1020
0000
0000
1000
0000
0000
1030
0000
,  // measure 32
2002
0000
0000
0000
0000
0000
0000
3003
,  // measure 33
1001
0000
0110
0000
0010
1000
0100
0000
,  // measure 34
0010
0100
0000
1000
0010
0100
0010
0000
,  // measure 35
1000
0001
0000
0100
0010
1000
0100
0000
,  // measure 36
0010
0100
0000
0010
0001
0100
0001
0000
,  // measure 37
1000
0010
1000
0001
1000
0010
0100
0000
,  // measure 38
0010
1000
0000
0100
0010
0100
1000
0000
,  // measure 39
0001
0100
0000
0010
0100
0001
1000
0000
,  // measure 40
0100
0010
0000
0100
1000
0010
0100
0000
,  // measure 41
0010
1000
0001
0000
1000
0100
0010
0001
,  // measure 42
0100
0000
0010
0000
1000
0000
0000
0001
0000
0100
0000
0000
0010
0000
1000
0000
,  // measure 43
0000
0000
0100
0000
0010
0000
0000
0001
0000
0100
0000
0000
0010
0000
1000
0000
,  // measure 44
0100
0000
1000
0000
0010
0000
0000
0100
0000
0010
0000
0000
1000
0000
0100
0000
,  // measure 45
0000
0000
1000
0000
0010
0000
0000
0100
0000
0000
0010
0000
0100
0000
0001
0000
,  // measure 46
0100
0110
0000
1010
0000
1001
0000
0011
,  // measure 47
0000
0110
0000
1100
0000
1010
0000
1001
,  // measure 48
0000
0101
0000
0110
0000
1010
0000
1001
,  // measure 49
0000
0011
0000
0100
0001
0010
0100
1000
,  // measure 50
0001
0000
0100
0000
0010
0000
0000
1000
0000
0100
0000
0000
1000
0000
0010
0000
,  // measure 51
0000
0000
0100
0000
0001
0000
0000
1000
0000
0010
0000
0000
0100
0000
0010
0000
,  // measure 52
1000
0000
0010
0000
1000
0000
0000
0001
0000
0000
0000
0000
0100
0000
0010
0000
,  // measure 53
0000
1000
0001
1000
0010
1000
0100
1000
,  // measure 54
0010
0110
0000
1010
0000
1001
0000
0011
,  // measure 55
0000
0110
0000
1010
0000
1001
0000
1100
,  // measure 56
0000
0110
0000
0101
0000
1001
0000
1100
,  // measure 57
0000
0110
0000
1000
0001
0010
0100
1000
;

//---------------dance-single - ----------------
#NOTES:
     dance-single:
     :
     Easy:
     4:
     0.261,0.289,0.101,0.118,0.000: // measure 1
0000
0000
0000
0000
,  // measure 2
0000
0000
0000
0000
,  // measure 3
0000
0000
0000
0000
,  // measure 4
1000
0010
0100
0001
,  // measure 5
0100
0010
1000
0000
,  // measure 6
0001
0010
0100
0010
,  // measure 7
0001
0100
0010
0000
,  // measure 8
0100
0001
1000
0100
,  // measure 9
0010
0100
1000
0000
,  // measure 10
0010
0100
0001
0010
,  // measure 11
0100
0010
0001
0000
,  // measure 12
0220
0000
0000
0000
0000
0000
0000
0330
0000
0000
0000
0000
0000
0000
0000
0000
0001
0000
0000
0000
0000
0000
0000
0000
0100
0000
0000
0000
0000
0000
0000
0000
,  // measure 13
0010
0000
0100
0001
,  // measure 14
0010
0100
0010
0001
,  // measure 15
0100
0000
0010
0100
,  // measure 16
0001
1000
0100
1000
,  // measure 17
0010
0000
0100
0001
,  // measure 18
0000
1001
0000
0000
1000
0000
0010
0000
,  // measure 19
0100
0000
0101
0001
,  // measure 20
1000
0000
0020
0130
,  // measure 21
0000
2002
0000
3003
1000
0000
0010
0000
,  // measure 22
0100
0001
0010
0100
,  // measure 23
0000
0010
0001
0100
,  // measure 24
0010
0100
0001
1000
,  // measure 25
0000
0010
0100
0001
,  // measure 26
0010
0100
0010
0001
,  // measure 27
0000
0100
0010
1000
,  // measure 28
0001
1000
0120
0000
,  // measure 29
0130
0001
1002
0000
,  // measure 30
1003
0010
1020
0000
,  // measure 31
1030
0001
0022
0033
,  // measure 32
2002
0000
0000
3003
,  // measure 33
1001
1001
1000
0010
,  // measure 34
0100
0001
0100
0010
,  // measure 35
1000
0100
0010
0100
,  // measure 36
0010
0001
0100
0010
,  // measure 37
1000
0001
0100
0010
,  // measure 38
0100
0001
0010
0100
,  // measure 39
1000
0010
0100
0001
,  // measure 40
0010
0100
1000
0010
,  // measure 41
0100
0001
2002
0003
,  // measure 42
3001
0100
0010
0000
,  // measure 43
0100
0001
1000
0000
,  // measure 44
0100
0010
0001
0000
,  // measure 45
0100
0010
1000
0100
,  // measure 46
0000
0010
0000
0100
0000
1000
0000
0001
,  // measure 47
0000
0010
0000
0100
0000
0010
0000
0001
,  // measure 48
0000
0100
0000
0010
0000
1000
0000
0010
,  // measure 49
0000
0100
0000
0010
0100
0010
0100
0000
,  // measure 50
0001
0100
0010
0000
,  // measure 51
1000
0100
0010
0000
,  // measure 52
0100
1000
0010
0000
,  // measure 53
0100
0010
1000
0001
,  // measure 54
0000
0100
0000
0010
0000
0100
0000
0001
,  // measure 55
0000
1000
0000
0100
0000
1000
0000
0010
,  // measure 56
0000
0100
0000
0001
0000
0010
0000
0100
,  // measure 57
0000
1000
0000
0001
1000
0001
1000
0001
;
