#TITLE:湘南族 -cannibal coast-;
#SUBTITLE:;
#ARTIST:Aural Vampire;
#TITLETRANSLIT:Shounan Zoku -cannibal coast-;
#SUBTITLETRANSLIT:;
#ARTISTTRANSLIT:;
#CREDIT:348;
#BANNER:Shounan Zoku -cannibal coast- Banner.png;
#BACKGROUND:Shounan Zoku -cannibal coast- Background.png;
#LYRICSPATH:Shounan Zoku -cannibal coast-.lrc;
#CDTITLE:;
#MUSIC:Shonan Zoku -cannibal coast-.mp3;
#OFFSET:-0.372;
#SAMPLESTART:15.806;
#SAMPLELENGTH:15.000;
#SELECTABLE:YES;
#BPMS:0.000=138.000;
#STOPS:;
#BGCHANGES:;

//---------------dance-single - ----------------
#NOTES:
     dance-single:
     :
     Beginner:
     1:
     0.089,0.109,0.000,0.000,0.000: // measure 1
0000
0000
0000
0000
,  // measure 2
0000
0000
0000
0000
,  // measure 3
0000
0000
0000
0000
,  // measure 4
0000
0000
0000
0000
,  // measure 5
0000
0000
0000
0000
,  // measure 6
1000
0000
0000
0000
,  // measure 7
0001
0000
0000
0000
,  // measure 8
0100
0000
0000
0000
,  // measure 9
0010
0000
0000
0000
,  // measure 10
0100
0000
0000
0000
,  // measure 11
0100
0000
0000
0000
,  // measure 12
0001
0000
0000
0000
,  // measure 13
0001
0000
0000
0000
,  // measure 14
1000
0000
0000
0000
,  // measure 15
1000
0000
0000
0000
,  // measure 16
0010
0000
0000
0000
,  // measure 17
0010
0000
0000
0000
,  // measure 18
1000
0000
0100
0000
,  // measure 19
1000
0000
0000
0000
,  // measure 20
0001
0000
0010
0000
,  // measure 21
0001
0000
0000
0000
,  // measure 22
0100
0000
0001
0000
,  // measure 23
0100
0000
0000
0000
,  // measure 24
0010
0000
1000
0000
,  // measure 25
0010
0000
0000
0000
,  // measure 26
1000
0000
0000
0000
,  // measure 27
0100
0100
0000
0000
,  // measure 28
0010
0000
0000
0000
,  // measure 29
0001
0001
0000
0000
,  // measure 30
0001
0000
0000
0000
,  // measure 31
0010
0010
0000
0000
,  // measure 32
0100
0000
0000
0000
,  // measure 33
1000
0000
1000
0000
,  // measure 34
0001
0000
0000
0000
,  // measure 35
1000
0000
0000
0000
,  // measure 36
0001
0000
0000
0000
,  // measure 37
1000
0000
0000
0000
,  // measure 38
0010
0000
0000
0000
,  // measure 39
0100
0000
0000
0000
,  // measure 40
0010
0000
0000
0000
,  // measure 41
0100
0000
0000
0000
,  // measure 42
0001
0000
0000
0000
,  // measure 43
0001
0000
0001
0000
,  // measure 44
1000
0000
0000
0000
,  // measure 45
1000
0000
1000
0000
,  // measure 46
0010
0000
0000
0000
,  // measure 47
0010
0000
0010
0000
,  // measure 48
0100
0000
0000
0000
,  // measure 49
0100
0000
0100
0000
,  // measure 50
0001
0000
0000
0000
,  // measure 51
0010
0000
0000
0000
,  // measure 52
0001
0000
0000
0000
,  // measure 53
0010
0000
0000
0000
,  // measure 54
0100
0000
0000
0000
,  // measure 55
1000
0000
0000
0000
,  // measure 56
0100
0000
0000
0000
,  // measure 57
1000
0000
0000
0000
,  // measure 58
0001
0000
0000
0000
,  // measure 59
1000
0000
0000
0000
,  // measure 60
0001
0000
0000
0000
;

//---------------dance-single - ----------------
#NOTES:
     dance-single:
     :
     Easy:
     3:
     0.229,0.248,0.074,0.111,0.000: // measure 1
0000
0000
0000
0000
,  // measure 2
0000
0000
0000
0000
,  // measure 3
0000
0000
0000
0000
,  // measure 4
0000
0000
0000
0000
,  // measure 5
0000
0000
0000
0000
,  // measure 6
1000
0100
1000
0000
,  // measure 7
0001
0010
0001
0000
,  // measure 8
0100
0010
0100
0000
,  // measure 9
0002
0003
2000
3000
,  // measure 10
0001
0000
0100
0000
,  // measure 11
0001
0100
0001
0000
,  // measure 12
1000
0100
0010
0001
,  // measure 13
1000
0000
0110
0000
,  // measure 14
1000
0000
0010
0000
,  // measure 15
1000
0010
1000
0000
,  // measure 16
0001
1000
0010
0100
,  // measure 17
0020
0000
0130
0000
,  // measure 18
0001
0000
1000
0100
,  // measure 19
1000
0100
0010
0000
,  // measure 20
0010
0100
1000
0001
,  // measure 21
2000
0000
3001
0010
,  // measure 22
0001
0100
1000
0010
,  // measure 23
0002
0000
1003
0000
,  // measure 24
1000
0100
0001
0100
,  // measure 25
1000
0000
1001
0000
,  // measure 26
0001
0100
0001
0100
,  // measure 27
0020
0000
0000
0030
,  // measure 28
1000
0010
1000
0010
,  // measure 29
0200
0000
0000
0300
,  // measure 30
0001
0010
0001
0010
,  // measure 31
0002
0000
0000
0003
,  // measure 32
1000
0100
1000
0100
,  // measure 33
2000
3001
1000
0000
,  // measure 34
0001
0000
1000
0100
,  // measure 35
0001
0100
1000
0000
,  // measure 36
0010
0000
0100
0001
,  // measure 37
1000
0001
0100
0000
,  // measure 38
0001
0010
0001
1000
,  // measure 39
0001
0000
1000
0100
,  // measure 40
1000
0100
1000
0010
,  // measure 41
1000
0000
0001
0010
,  // measure 42
0001
0000
1100
0000
,  // measure 43
0011
0000
1001
0000
,  // measure 44
1000
0000
0101
0000
,  // measure 45
1010
0000
0110
0000
,  // measure 46
0002
0003
1000
1000
,  // measure 47
0020
0030
0100
0100
,  // measure 48
0001
0000
1000
0000
,  // measure 49
0010
0000
0100
0000
,  // measure 50
0001
0000
1000
0001
,  // measure 51
0100
0000
0100
0001
,  // measure 52
1000
0000
0001
1000
,  // measure 53
0001
0000
0100
0000
,  // measure 54
0010
0000
1000
0010
,  // measure 55
0001
0000
0001
0010
,  // measure 56
1000
0000
0010
0100
,  // measure 57
0010
0000
1000
0000
,  // measure 58
0010
0000
1000
0000
,  // measure 59
0001
0100
0010
1000
,  // measure 60
0002
0000
0003
0000
;

//---------------dance-single - ----------------
#NOTES:
     dance-single:
     :
     Medium:
     6:
     0.389,0.413,0.232,0.157,0.000: // measure 1
0000
0000
0000
0000
,  // measure 2
0000
0000
0000
0000
,  // measure 3
0000
0000
0000
0000
,  // measure 4
0000
0000
0000
0000
,  // measure 5
0000
0000
0000
0000
,  // measure 6
1000
0000
0100
0000
0010
0000
1000
0010
,  // measure 7
0000
0001
0100
0000
0002
0000
1000
0000
,  // measure 8
1003
0010
0100
0001
,  // measure 9
1000
1100
0010
0011
,  // measure 10
1000
0000
0100
0000
1000
0010
1000
0000
,  // measure 11
0001
0010
0001
1100
,  // measure 12
0001
0100
0010
0000
0010
0100
0001
0000
,  // measure 13
2000
3100
0200
0310
,  // measure 14
0010
0000
0001
0000
1000
0100
1000
0000
,  // measure 15
0100
0010
0100
0000
0010
0001
0010
0000
,  // measure 16
0002
1000
1003
1100
,  // measure 17
0020
0000
0000
0100
0000
0000
0130
0000
,  // measure 18
1000
0000
0010
0100
0010
0000
1000
0000
,  // measure 19
0001
0000
0100
0001
0100
0001
0100
0000
,  // measure 20
0001
0101
1010
1000
,  // measure 21
0001
1000
0001
0000
0200
0000
0010
0000
,  // measure 22
0301
0000
0100
0010
0100
0000
0001
0000
,  // measure 23
1000
0000
0010
1000
0010
1000
0010
0000
,  // measure 24
0100
0011
1100
0010
,  // measure 25
1000
0100
0010
0000
0010
0100
1000
0000
,  // measure 26
0001
0000
0100
0010
0100
0000
0001
0000
,  // measure 27
1000
0100
0010
1001
,  // measure 28
0100
0000
0001
1000
0001
0000
0100
0000
,  // measure 29
0010
2000
3001
0011
,  // measure 30
1000
0000
0010
0100
0010
0000
1000
0000
,  // measure 31
0002
0010
0103
1010
,  // measure 32
0010
0000
1000
0100
1000
0000
0010
0000
,  // measure 33
1000
0001
0010
0000
0010
0001
1000
0000
,  // measure 34
0001
0000
0010
0000
0001
1000
0000
1000
,  // measure 35
0100
0000
0010
0000
0100
2000
0000
3001
,  // measure 36
0010
0000
0001
0000
0100
0010
0000
0010
,  // measure 37
0200
0310
0010
1001
,  // measure 38
0001
0000
0100
0000
1000
0010
0000
0001
,  // measure 39
1000
0000
0100
0000
0001
0100
0000
1000
,  // measure 40
0010
0000
0100
0000
0010
0100
0000
0000
,  // measure 41
0001
0001
0000
0000
1000
1000
0000
0000
,  // measure 42
0011
0000
1100
0000
0001
0100
0010
0000
,  // measure 43
1010
0000
0101
0000
1000
0100
0010
0000
,  // measure 44
0001
0110
1000
0110
,  // measure 45
2002
3003
1100
0101
,  // measure 46
1000
1000
0000
0100
0100
0000
0100
0000
,  // measure 47
0001
0001
0000
0100
0100
0000
0100
0000
,  // measure 48
1000
1001
0001
1001
,  // measure 49
0001
0100
1000
0000
1000
0100
0001
0000
,  // measure 50
1000
0000
0100
0000
1000
0100
1000
0100
,  // measure 51
1000
0002
0010
0013
,  // measure 52
0001
0000
0010
0000
0001
0010
0001
0010
,  // measure 53
0001
2000
0100
3100
,  // measure 54
0010
0010
0000
1000
1000
0000
1000
0000
,  // measure 55
0010
0010
0000
0001
0001
0000
0001
0000
,  // measure 56
0010
0001
1000
0100
,  // measure 57
2000
0000
0000
0001
0000
0000
3001
0000
,  // measure 58
0100
1001
0010
1001
,  // measure 59
0020
0000
0000
0100
0000
0000
0130
0200
,  // measure 60
0000
0000
0300
0000
;

//---------------dance-single - ----------------
#NOTES:
     dance-single:
     :
     Hard:
     7:
     0.470,0.441,0.222,0.204,0.000: // measure 1
0000
0000
0000
0000
,  // measure 2
0000
0000
0000
0000
,  // measure 3
0000
0000
0000
0000
,  // measure 4
0000
0000
0000
0000
,  // measure 5
0000
0000
0000
0000
,  // measure 6
1000
0100
0010
0000
0100
1000
0100
0001
,  // measure 7
0000
0100
1000
0000
0001
0010
0100
0010
,  // measure 8
0000
0001
1000
0000
0010
0100
0010
0000
,  // measure 9
1000
1000
2000
0000
3001
0001
0002
0000
,  // measure 10
1003
0100
0001
0000
1000
0000
0010
0000
,  // measure 11
1000
0010
0001
0000
0100
0000
0001
0000
,  // measure 12
1000
0100
0010
0100
0010
0001
1000
0000
,  // measure 13
0001
0000
1000
0010
0100
0000
1001
0000
,  // measure 14
0001
0010
0100
0000
0001
0010
0100
0000
,  // measure 15
0001
0010
1000
0010
0001
0000
0110
0000
,  // measure 16
0001
0000
0001
0010
0200
0000
1300
0100
,  // measure 17
1000
0000
0000
0110
0000
0000
0001
1000
,  // measure 18
0002
0000
1003
0100
0200
0000
1300
0000
,  // measure 19
0001
1000
0100
1000
0001
0000
1010
0000
,  // measure 20
0001
0001
0100
0000
1000
1000
0100
0000
,  // measure 21
0001
0010
0001
0100
0001
1000
0001
0000
,  // measure 22
2000
0000
3001
1000
0020
0000
1030
0100
,  // measure 23
1000
0001
1000
0000
0011
0000
1100
0000
,  // measure 24
0001
1000
0001
0000
0110
0000
1001
0000
,  // measure 25
1000
0100
0010
0100
1000
1000
0001
0000
,  // measure 26
0001
1000
0100
0000
0100
1000
0001
0000
,  // measure 27
1000
0001
0010
1000
0010
0001
2000
0000
,  // measure 28
3001
0000
0100
0010
0100
0001
0100
0000
,  // measure 29
0001
0010
1000
0001
0100
1000
0002
0000
,  // measure 30
1003
0000
0001
1000
1000
0000
0010
0100
,  // measure 31
0100
0001
1000
0010
1000
0001
0100
0000
,  // measure 32
0001
0010
0001
0100
0010
1000
0100
0000
,  // measure 33
1000
0100
0001
0100
1000
0000
1001
0000
,  // measure 34
0001
0010
0001
1000
0200
0000
1300
0010
,  // measure 35
0100
0010
1000
0001
2000
0000
3001
0010
,  // measure 36
1000
0010
1000
0010
0002
0000
1003
0100
,  // measure 37
0000
0010
0001
0000
0110
0000
1001
0000
,  // measure 38
0001
0000
0100
0010
0100
0100
0000
1001
,  // measure 39
0000
0001
0001
1000
0100
0010
0000
0110
,  // measure 40
0000
0100
0010
0001
1000
0002
0000
0000
,  // measure 41
0103
0100
0200
0000
0310
0010
0020
0000
,  // measure 42
1030
0101
1100
0101
,  // measure 43
0001
1010
0011
1010
,  // measure 44
0001
0010
0100
0000
0100
0010
0001
0000
,  // measure 45
1000
0010
0100
0000
0100
0010
1000
0000
,  // measure 46
0001
0001
0000
1000
0100
1000
0100
0000
,  // measure 47
1000
1000
0000
0001
0010
0001
0010
0000
,  // measure 48
0001
0100
0010
0100
0000
0100
0010
0000
,  // measure 49
1000
0001
0100
0010
0000
1000
0001
0000
,  // measure 50
2000
0100
0010
3001
,  // measure 51
0001
0010
0100
0010
0002
0000
0103
0000
,  // measure 52
0002
1000
0100
0013
,  // measure 53
1000
0001
0100
0001
1000
0000
0101
0000
,  // measure 54
1000
0001
0000
0001
1000
0000
0011
0000
,  // measure 55
0100
0010
0000
0010
0100
0000
1010
0000
,  // measure 56
0001
1000
0100
0020
0000
0000
0031
0000
,  // measure 57
1000
0001
0100
0020
0000
0000
1030
0000
,  // measure 58
0010
0110
0100
0110
,  // measure 59
0001
0000
1000
0100
0000
0010
0002
2000
,  // measure 60
0000
0000
3003
0000
;

//---------------dance-single - ----------------
#NOTES:
     dance-single:
     :
     Challenge:
     9:
     0.627,0.606,0.380,0.333,0.157: // measure 1
0000
0000
0000
0000
,  // measure 2
0000
0000
0000
0000
,  // measure 3
0000
0000
0000
0000
,  // measure 4
0000
0000
0000
0000
,  // measure 5
0000
0000
0000
0000
,  // measure 6
1000
0000
0001
0010
0001
0000
0010
0000
0001
0000
0200
0000
0000
0000
0310
0000
,  // measure 7
0100
0000
0010
1000
0010
0000
1000
0000
0001
0000
2000
0000
0000
0000
3010
0000
,  // measure 8
0100
0000
0001
0000
0100
0000
0010
0000
0100
0000
0202
0000
0000
0303
0000
0000
,  // measure 9
0001
0010
0001
0010
0002
0000
0000
0000
1003
0100
1000
0100
2000
0000
0001
0000
,  // measure 10
3001
0000
0010
0000
1000
0000
0000
0010
1000
0000
0010
0000
0001
0000
0100
0000
,  // measure 11
1000
0000
0100
0000
0001
0000
0000
0100
0001
0000
0010
0000
0100
0000
0010
0000
,  // measure 12
0001
1000
0100
1000
0010
0100
0011
0000
,  // measure 13
1100
0000
0000
0001
1000
0000
0100
0000
0001
0000
0100
0000
1000
0000
0010
0000
,  // measure 14
1000
0000
0100
0000
0001
0000
0000
0100
0001
0000
0100
0000
1000
0000
0010
0000
,  // measure 15
0001
0000
0010
0000
1000
0000
0000
0010
1000
0000
0100
0000
0001
0000
1000
0000
,  // measure 16
0010
0001
1000
0100
0010
0001
0100
0010
,  // measure 17
2020
0000
0000
3030
0000
0000
0202
0000
0000
0303
0000
0000
1001
0000
1001
0000
,  // measure 18
1000
0000
0100
0000
0100
0000
1000
0000
0001
0000
0000
0001
0100
0000
0001
0000
,  // measure 19
1000
0100
0010
0100
1000
0000
0110
0000
,  // measure 20
0001
0000
0000
1000
0001
0000
1000
0000
1000
0000
0000
0010
0100
0000
0010
0000
,  // measure 21
0010
1000
0010
0001
0010
0100
0011
1100
,  // measure 22
1000
0000
0001
0000
0010
0000
0001
0000
0100
0000
0000
0100
0001
0000
1000
0000
,  // measure 23
0100
1000
0010
1000
0001
1000
1001
0000
,  // measure 24
0001
0010
0001
1000
0100
1000
0001
0011
,  // measure 25
0001
0000
1000
0000
0100
0000
0010
0000
0100
0000
1100
0000
1000
0100
1000
0100
,  // measure 26
1000
0100
0001
0100
1000
0100
0001
0100
,  // measure 27
2000
0100
0100
3100
0020
0001
0001
0031
,  // measure 28
0001
0010
1000
0010
0001
0010
1000
0010
,  // measure 29
0002
0100
0100
0103
0020
1000
1030
1010
,  // measure 30
1000
0100
0100
0001
0001
0010
0010
1000
,  // measure 31
0020
1000
1000
1030
0200
0001
0001
0301
,  // measure 32
0001
0010
1000
0100
1000
0010
0001
1000
,  // measure 33
0100
0000
0001
0000
0010
0000
1000
0000
0001
0000
0000
0000
0110
0000
0001
1000
,  // measure 34
0001
0000
1000
0000
0100
0000
0010
0000
0100
1000
0200
0000
0000
0000
0310
0000
,  // measure 35
0001
0000
1000
0000
0001
0000
0010
0000
0001
0100
0002
0000
0000
0000
0000
0000
,  // measure 36
1003
0000
0100
0000
0001
0000
0100
0000
1000
0001
2000
0000
0000
0000
3010
0000
,  // measure 37
0100
0001
1000
0010
1001
0000
0110
0000
,  // measure 38
0001
0000
1000
0100
1000
0000
0001
0000
1000
0000
0020
0000
0000
0000
1030
0000
,  // measure 39
0100
0000
1000
0010
1000
0000
0100
0000
0001
0000
0200
0000
0000
0000
1300
0000
,  // measure 40
0001
0000
0010
0001
0010
0000
0001
0000
0100
0000
0002
0000
0000
0000
0000
0000
,  // measure 41
1003
0010
1000
0010
2000
0000
0000
0000
3001
0100
0001
0100
0002
0000
0000
0000
,  // measure 42
1003
0000
1000
0100
0010
1000
0010
0001
,  // measure 43
2000
0000
0000
3100
1000
0000
0000
0001
0010
0000
0001
0000
0101
0000
0000
0000
,  // measure 44
0001
0000
0001
0100
1000
0001
0010
0100
,  // measure 45
0002
0000
0000
0013
0001
0000
0000
1000
0010
0000
0100
0000
1010
0000
0000
0000
,  // measure 46
0001
0102
0000
1003
0010
0100
1010
0000
,  // measure 47
1000
1100
0000
0001
0011
0000
0110
0000
,  // measure 48
0001
0010
0001
0020
0000
0130
1000
0100
,  // measure 49
1000
0000
0010
0000
1000
0000
0010
0000
0000
0000
0100
0000
0001
1000
0001
1000
,  // measure 50
0001
0000
0010
0010
0001
0001
1000
0001
,  // measure 51
2000
0100
3100
0000
0012
0000
1003
0000
,  // measure 52
1000
0000
0100
0100
1000
1000
0001
1000
,  // measure 53
0002
0010
0013
0000
2100
0000
3001
0110
,  // measure 54
0100
0101
0000
0010
1010
0000
1001
0000
,  // measure 55
0010
0011
0000
0100
1000
0010
1100
0000
,  // measure 56
0001
0100
0001
0200
0000
0310
1000
0010
,  // measure 57
1000
0100
1000
0200
0000
0310
1001
0000
,  // measure 58
0011
1010
1100
0101
,  // measure 59
1001
1000
0001
0101
0100
0010
0110
2020
,  // measure 60
0000
0000
3030
0000
;
