#TITLE:Sakura Reflection;
#SUBTITLE:;
#ARTIST:Ryu;
#TITLETRANSLIT:;
#SUBTITLETRANSLIT:;
#ARTISTTRANSLIT:Ryu*;
#CREDIT:;
#BANNER:bn.png;
#BACKGROUND:bg.png;
#LYRICSPATH:;
#CDTITLE:;
#MUSIC:06 Sakura Reflection.mp3;
#OFFSET:-0.024;
#SAMPLESTART:1.680;
#SAMPLELENGTH:12.000;
#SELECTABLE:YES;
#BPMS:0.000=181.000,69.000=90.500,85.000=181.000;
#STOPS:;
#BGCHANGES:;

//---------------dance-single - Pandemonium X----------------
#NOTES:
     dance-single:
     Pandemonium X:
     Hard:
     9:
     0.647,0.751,0.190,0.237,0.213: // measure 1
0000
0000
0000
0000
,  // measure 2
0000
0000
1001
0000
0001
0100
0000
1000
,  // measure 3
0000
0100
0000
0100
0010
1000
0100
0000
,  // measure 4
0110
0000
1001
0000
0001
0010
0000
0100
,  // measure 5
0000
0010
0000
0001
0100
0010
1000
0100
,  // measure 6
0001
0100
1000
0000
0100
0010
0000
0100
,  // measure 7
0000
1000
0000
1000
0001
0100
0010
0000
,  // measure 8
0101
0000
0001
0000
1000
0100
0000
1000
,  // measure 9
0000
0010
0000
0100
0100
0100
0010
1000
,  // measure 10
0001
0000
1001
0000
0001
0200
0000
1000
,  // measure 11
0000
0301
0000
0001
1000
0100
0010
0000
,  // measure 12
1100
0000
1001
0000
0001
0200
0000
0010
,  // measure 13
0000
0301
0000
0001
1000
0100
0001
0100
,  // measure 14
0010
0001
2000
0000
0000
0001
0000
0001
,  // measure 15
0000
3001
0000
0001
1000
0100
0010
0000
,  // measure 16
0110
0000
1000
0000
0001
0100
0000
1000
,  // measure 17
0000
0100
0000
0010
1000
0001
0010
1000
,  // measure 18
0010
0000
0100
0000
1000
0001
0000
0010
0000
0001
0000
0001
0100
0010
0000
0100
,  // measure 19
0000
0010
1000
0100
0010
0100
0000
1000
0000
0001
0000
0100
0001
0010
0000
0100
,  // measure 20
0000
0010
0001
1000
0100
1000
0000
0010
0000
0100
0000
0010
1000
0001
0000
0100
,  // measure 21
0000
0010
0100
0001
0100
1000
0000
0100
0000
0001
0000
0100
0000
0001
0001
0001
,  // measure 22
1000
0001
0100
0000
0011
0000
0020
0000
0000
0000
0100
0000
0000
0000
0001
0000
,  // measure 23
0000
0130
0000
1100
0000
1001
0000
0001
,  // measure 24
0100
1000
0100
0020
0000
1000
0000
0100
,  // measure 25
0000
1030
0100
0001
1000
0100
0001
0100
,  // measure 26
0010
0001
0100
0020
0000
1000
0000
0001
,  // measure 27
0000
1030
0000
0110
0000
1001
0000
1000
,  // measure 28
0001
0010
0001
0200
0000
0010
0000
0001
,  // measure 29
0000
0310
0100
0000
0100
0000
0100
0000
,  // measure 30
0100
0000
0100
0010
1000
0001
0010
0001
,  // measure 31
0100
0010
1000
0100
0010
0100
1000
0001
,  // measure 32
0200
1300
0100
0001
0010
0001
0100
0010
,  // measure 33
1000
0001
0000
0011
0000
0110
0000
1000
,  // measure 34
0100
0001
0100
1000
0010
0100
0001
1000
,  // measure 35
0100
1000
0010
0100
0001
0010
1000
0010
,  // measure 36
0001
0100
0010
1000
0100
0010
0001
1000
,  // measure 37
0001
0100
0001
0001
1000
1000
0010
0010
,  // measure 38
0100
0100
0220
0000
0000
0000
0000
0000
,  // measure 39
0330
0000
0000
0000
,  // measure 40
1000
0001
0010
1000
,  // measure 41
0010
0100
1000
0100
,  // measure 42
1000
0010
0100
0001
,  // measure 43
0010
0100
0020
0031
,  // measure 44
0100
0010
1000
0001
,  // measure 45
0100
0010
0010
0010
,  // measure 46
0100
0001
1000
0100
,  // measure 47
0001
0100
1000
0010
,  // measure 48
0100
0010
1000
0000
0010
0000
0100
0000
,  // measure 49
0001
0000
1000
0001
1000
0001
1000
0000
,  // measure 50
0001
0100
0010
0000
1000
0000
0100
0000
,  // measure 51
0010
0000
0200
0000
1300
0010
0100
0000
,  // measure 52
0010
1000
0001
0000
0001
0000
1000
0000
,  // measure 53
1000
0000
0001
0100
0010
1000
0100
0000
,  // measure 54
1000
0100
0001
0000
0001
0100
1000
0000
,  // measure 55
1000
0010
0001
0010
1000
0001
0100
0000
,  // measure 56
0100
0000
0001
0000
0010
0000
0000
0000
0100
0000
1000
0000
0010
0000
0100
0010
,  // measure 57
0100
0010
1000
0001
0010
0001
0200
0000
,  // measure 58
0310
0000
1000
0000
0001
0000
0000
0000
1000
0000
0001
0000
0010
0000
0100
0010
,  // measure 59
0100
0000
1000
0000
0020
0000
0000
0000
0130
0001
0010
0001
2000
0000
0000
0000
,  // measure 60
3001
0000
0010
0000
0011
0000
0000
0000
0001
0000
1000
0000
0100
0010
1000
0001
,  // measure 61
0100
0001
0010
0010
0100
1000
0100
0000
,  // measure 62
1000
0000
0001
0000
0010
0000
0000
0000
0100
0000
1000
0000
0001
0000
1000
0010
,  // measure 63
1000
0010
0100
0100
0001
0010
0100
0000
,  // measure 64
0022
0000
0033
0000
1001
0000
0000
0000
1000
0000
0100
0000
0001
0000
0100
1000
,  // measure 65
0010
0100
0001
0001
0010
1000
0020
0000
,  // measure 66
0130
0000
0010
0000
0002
0000
0000
0000
0103
0000
1000
0000
0100
0000
0010
0100
,  // measure 67
0001
0000
0010
0000
0200
0000
0000
0000
0310
0001
1000
0001
0100
0000
0000
0000
,  // measure 68
0020
0000
0000
0000
1030
0000
0000
0000
0001
0000
1000
0000
0100
0010
0100
0010
,  // measure 69
0001
0010
0100
1000
0100
1000
0200
0000
,  // measure 70
0320
0000
0000
0000
0130
0000
0000
0000
0100
0000
1000
0000
0100
0000
0010
0001
,  // measure 71
0100
0010
1000
0010
0001
0010
0100
0000
,  // measure 72
0000
2002
0000
0000
,  // measure 73
3003
0000
0000
0000
;

//---------------dance-single - Pandemonium X----------------
#NOTES:
     dance-single:
     Pandemonium X:
     Medium:
     7:
     0.456,0.478,0.190,0.038,0.000: // measure 1
0000
0000
0000
0000
,  // measure 2
0000
1000
0100
0001
,  // measure 3
0100
0000
1000
0000
0010
0100
0001
0000
,  // measure 4
1001
0001
0100
0010
,  // measure 5
0100
0000
0001
0000
0001
0000
0001
0001
,  // measure 6
1000
1000
0010
0000
0100
0000
1000
0000
,  // measure 7
0100
0000
0010
0000
0100
0001
1000
0000
,  // measure 8
1100
0010
0100
0001
,  // measure 9
1000
0000
0000
0001
1000
0001
0100
1000
,  // measure 10
0100
0010
1000
0100
,  // measure 11
0001
0000
0100
0000
1000
0010
0100
0000
,  // measure 12
0110
0010
1000
0001
,  // measure 13
0010
0000
0100
0000
0100
0000
0100
0010
,  // measure 14
0001
0010
0100
0000
0010
0000
0001
0000
,  // measure 15
1000
0001
0100
1000
,  // measure 16
1100
1000
0100
0001
,  // measure 17
0010
0100
1000
0001
,  // measure 18
0100
0001
0000
0100
,  // measure 19
0000
0010
0000
1000
,  // measure 20
0000
0000
1000
0100
0010
0100
1000
0010
,  // measure 21
0001
0010
0100
0010
1000
0001
0100
0100
,  // measure 22
0010
0010
1000
0001
0000
0100
0000
0001
,  // measure 23
0000
0010
0000
0100
0000
0010
0000
0010
,  // measure 24
0001
0100
0010
0100
0000
0010
0000
1000
,  // measure 25
0000
0010
0000
0010
0000
0010
0000
0100
,  // measure 26
0010
0100
0010
0100
0000
0010
0000
1000
,  // measure 27
0000
0010
0000
0100
0000
0010
0000
1000
,  // measure 28
0010
1000
0010
1000
0000
0010
0000
0100
,  // measure 29
0000
0001
0000
1000
0000
1000
0000
0001
,  // measure 30
1000
0000
0001
1000
0000
1001
0000
1001
,  // measure 31
0000
1001
0000
0110
0000
0110
0000
0010
,  // measure 32
0110
0000
0010
1000
0000
0010
0000
0100
,  // measure 33
0000
0001
0000
0101
0000
1100
0000
0001
,  // measure 34
0100
0010
1000
0001
0000
1000
0000
0001
,  // measure 35
0000
0100
0000
0100
0000
0010
0000
1000
,  // measure 36
1100
0000
1000
0100
0000
1000
0000
0010
,  // measure 37
0000
0100
0000
0010
0000
1000
0000
0001
,  // measure 38
0100
0010
0000
0001
1000
0001
1000
0002
,  // measure 39
2000
0000
0000
3003
,  // measure 40
0000
0001
0000
1000
,  // measure 41
0000
0010
0010
0010
,  // measure 42
0000
0100
0000
0010
,  // measure 43
0000
1000
0100
0001
,  // measure 44
0000
0100
0000
1000
,  // measure 45
0000
0010
0100
0001
,  // measure 46
0000
1000
0000
0010
,  // measure 47
0000
0100
0100
0100
,  // measure 48
0000
0001
1000
0001
,  // measure 49
1000
0001
0001
0001
,  // measure 50
1000
0001
1000
0001
,  // measure 51
1000
0001
1000
1000
,  // measure 52
0010
0100
0001
0100
,  // measure 53
1000
0100
0001
0010
,  // measure 54
0100
0010
0001
0010
,  // measure 55
1000
0110
0110
0110
,  // measure 56
0000
0000
0010
0000
0001
0000
0100
0010
,  // measure 57
1000
0000
0010
0100
0001
0100
0001
0000
,  // measure 58
0100
0000
0110
0000
0010
1000
0010
0000
,  // measure 59
0100
0000
0010
0000
1000
0100
0010
0000
,  // measure 60
0100
1000
0010
0000
0100
0000
0001
0000
,  // measure 61
1000
0000
0001
0100
0010
1000
0100
0000
,  // measure 62
1000
0100
0010
0000
0010
0001
0100
0000
,  // measure 63
0100
0010
1000
0001
0010
0100
1000
0000
,  // measure 64
1001
0001
0100
1000
,  // measure 65
0100
0000
0010
1000
0100
0010
0001
0000
,  // measure 66
0101
0001
0010
0100
,  // measure 67
0010
0000
0001
0000
1000
1000
0010
0000
,  // measure 68
0100
0010
1000
0000
0001
0000
0100
0000
,  // measure 69
1000
0000
0100
0010
1000
0100
0010
0000
,  // measure 70
0010
0100
1000
0000
0001
0000
0100
0000
,  // measure 71
0010
0000
1000
0001
0010
1000
0010
0000
,  // measure 72
0000
2002
0000
0000
,  // measure 73
3003
0000
0000
0000
;

//---------------dance-single - Pandemonium X----------------
#NOTES:
     dance-single:
     Pandemonium X:
     Easy:
     5:
     0.353,0.410,0.171,0.038,0.000: // measure 1
0000
0000
0000
0000
,  // measure 2
0000
1000
0001
0100
,  // measure 3
0001
0010
0100
1000
,  // measure 4
1001
0001
0100
0010
,  // measure 5
1000
0100
0100
0100
,  // measure 6
0100
1000
0010
0001
,  // measure 7
0010
1000
0010
0100
,  // measure 8
0101
0001
0100
0010
,  // measure 9
1000
0000
0000
0001
1000
0001
1000
0001
,  // measure 10
1000
0001
0100
1000
,  // measure 11
0100
0010
1000
0010
,  // measure 12
0110
0010
1000
0010
,  // measure 13
0100
0001
0001
0001
,  // measure 14
0001
1000
0000
0000
,  // measure 15
0000
0001
0000
0000
,  // measure 16
0110
0010
0000
0010
,  // measure 17
0000
1000
0010
0100
,  // measure 18
0001
0010
0000
0100
,  // measure 19
0000
1000
0000
0001
,  // measure 20
0000
0100
0001
0010
,  // measure 21
1000
0000
0010
0000
0001
0000
0100
0010
,  // measure 22
1000
0001
0010
0000
0100
0000
1000
0000
,  // measure 23
0100
1000
0010
0100
,  // measure 24
1001
0001
0001
1000
,  // measure 25
1000
0010
0001
0010
,  // measure 26
0001
0010
0010
0100
,  // measure 27
0100
0010
1000
0010
,  // measure 28
0110
0010
1000
0001
,  // measure 29
0010
0100
0100
0100
,  // measure 30
0100
1000
0010
0100
,  // measure 31
0010
1000
0001
0010
,  // measure 32
0110
0100
1000
0010
,  // measure 33
0100
0001
0001
1000
,  // measure 34
1000
0001
0100
0010
,  // measure 35
1000
0100
0010
0100
,  // measure 36
1100
1000
0010
0100
,  // measure 37
0001
0100
0100
0010
,  // measure 38
0010
2002
0000
0000
,  // measure 39
3003
0000
0000
0000
,  // measure 40
0000
1000
1000
1000
,  // measure 41
0000
0000
0000
0000
,  // measure 42
0000
0010
0010
0010
,  // measure 43
0000
0000
0000
0000
,  // measure 44
0000
0100
0100
0100
,  // measure 45
0000
0000
0000
0000
,  // measure 46
0000
0001
0001
0001
,  // measure 47
0000
0000
0000
0000
,  // measure 48
0000
1000
1000
1000
,  // measure 49
0000
0001
0001
0001
,  // measure 50
0000
0100
0100
0100
,  // measure 51
0000
0010
0010
0010
,  // measure 52
0000
1000
1000
1000
,  // measure 53
0000
0001
0001
0001
,  // measure 54
0000
1000
0001
0100
,  // measure 55
1000
0110
0110
0110
,  // measure 56
0000
1001
0001
0100
,  // measure 57
1000
0100
0100
0100
,  // measure 58
1000
0100
0001
0010
,  // measure 59
0100
1000
0100
1000
,  // measure 60
0010
0100
0001
1000
,  // measure 61
0001
0010
0010
0010
,  // measure 62
0100
1000
0010
0100
,  // measure 63
0001
1000
1000
1000
,  // measure 64
0101
0010
0100
1000
,  // measure 65
0100
0010
0100
1000
,  // measure 66
1001
0001
0100
0010
,  // measure 67
1000
0100
0010
0010
,  // measure 68
0110
0010
0001
0010
,  // measure 69
1000
0010
0010
0010
,  // measure 70
0110
0010
0001
0100
,  // measure 71
1000
0100
0100
0100
,  // measure 72
0000
2002
0000
0000
,  // measure 73
3003
0000
0000
0000
;

//---------------dance-single - Pandemonium X----------------
#NOTES:
     dance-single:
     Pandemonium X:
     Beginner:
     2:
     0.157,0.236,0.047,0.000,0.000: // measure 1
0000
0000
0000
0000
,  // measure 2
0000
0010
0000
0000
,  // measure 3
0000
0000
0000
0000
,  // measure 4
0100
0100
0000
0000
,  // measure 5
0000
1000
0000
0000
,  // measure 6
0000
0001
0000
0000
,  // measure 7
0000
0000
0000
0000
,  // measure 8
1000
1000
0000
0000
,  // measure 9
0000
0010
0000
0010
,  // measure 10
0000
0100
0000
0000
,  // measure 11
0000
0010
0000
0000
,  // measure 12
1000
1000
0000
0000
,  // measure 13
0000
0001
0000
0001
,  // measure 14
0000
0001
0000
0000
,  // measure 15
0000
1000
0000
0000
,  // measure 16
0010
0010
0000
0100
,  // measure 17
0000
0010
0010
0010
,  // measure 18
0010
0010
0000
1000
,  // measure 19
0000
0001
0000
0100
,  // measure 20
0000
0010
0000
1000
,  // measure 21
0000
0001
0000
1000
,  // measure 22
0000
0010
0000
0000
,  // measure 23
0000
1000
0000
0000
,  // measure 24
0000
0001
0000
0000
,  // measure 25
0000
0100
0000
0100
,  // measure 26
0000
0010
0000
0000
,  // measure 27
0000
1000
0000
0000
,  // measure 28
0000
0001
0000
0000
,  // measure 29
0000
0010
0000
0010
,  // measure 30
0000
0010
0000
0000
,  // measure 31
0000
0100
0000
0000
,  // measure 32
0000
1000
0000
0000
,  // measure 33
0000
0001
0000
0001
,  // measure 34
0000
0001
0000
0000
,  // measure 35
0000
1000
0000
0000
,  // measure 36
0000
0010
0000
0000
,  // measure 37
0000
0100
0000
0000
,  // measure 38
0000
1001
0000
0000
,  // measure 39
0000
0000
0000
0000
,  // measure 40
0000
0001
0000
0000
,  // measure 41
0000
0000
0000
0000
,  // measure 42
0000
1000
0000
0000
,  // measure 43
0000
0000
0000
0000
,  // measure 44
0000
0010
0000
0000
,  // measure 45
0000
0000
0000
0000
,  // measure 46
0000
0100
0000
0000
,  // measure 47
0000
0000
0000
0000
,  // measure 48
0000
0001
0001
0001
,  // measure 49
0000
0000
0000
0000
,  // measure 50
0000
1000
1000
1000
,  // measure 51
0000
0000
0000
0000
,  // measure 52
0000
0010
0010
0010
,  // measure 53
0000
0000
0000
0000
,  // measure 54
0000
0100
0100
0100
,  // measure 55
0000
0000
0000
0000
,  // measure 56
1001
1001
0000
0001
,  // measure 57
0000
1000
1000
1000
,  // measure 58
0000
0010
0000
0100
,  // measure 59
0000
0010
0100
0100
,  // measure 60
0000
0010
0000
1000
,  // measure 61
0000
0001
0001
0001
,  // measure 62
0000
1000
0000
0010
,  // measure 63
0000
0100
0100
0100
,  // measure 64
1001
0010
0000
0010
,  // measure 65
0000
0010
0010
0010
,  // measure 66
0000
1000
0000
0001
,  // measure 67
0000
0100
0100
0100
,  // measure 68
0000
0010
0000
1000
,  // measure 69
0000
0001
0001
0010
,  // measure 70
0000
0001
0000
1000
,  // measure 71
0000
0100
0100
0100
,  // measure 72
0000
1001
0000
0000
;
