#TITLE:Never Look Back;
#SUBTITLE:;
#ARTIST:Dumonde;
#TITLETRANSLIT:;
#SUBTITLETRANSLIT:;
#ARTISTTRANSLIT:;
#CREDIT:;
#BANNER:Never Look Back.png;
#BACKGROUND:Never Look Back-bg.png;
#LYRICSPATH:Never Look Back.lrc;
#CDTITLE:./CDTITLES/Hellrazor.png;
#MUSIC:Never Look Back.mp3;
#OFFSET:2.078;
#SAMPLESTART:2.300;
#SAMPLELENGTH:12.300;
#SELECTABLE:YES;
#DISPLAYBPM:140.000;
#BPMS:0.000=143.200,10.000=139.970,202.000=69.985,206.000=139.970;
#STOPS:;
#BGCHANGES:;

//---------------dance-single - ----------------
#NOTES:
     dance-single:
     :
     Challenge:
     10:
     0.678,0.929,0.335,0.229,1.000:
0000
0000
0000
0000
,
0000
0000
0000
0000
,
0000
0000
0000
0000
1001
0000
0000
0220
,
0000
0000
0000
0000
,
0000
0330
0000
0000
,
0002
0000
0000
0000
,
0000
0000
0003
0000
1001
0000
0000
0220
,
0000
0000
0000
0000
,
0000
0330
2000
0000
,
0000
0000
0002
0000
,
0000
0000
3003
0000
1001
0000
0000
0110
,
0000
1000
0001
0100
,
0010
0000
0000
0000
1000
0000
0000
0000
0001
0000
1000
0000
0000
0100
0000
0000
,
1000
0000
0000
0100
0000
0000
1000
0000
0000
0100
0000
0000
1000
0000
0000
0001
,
0000
1000
0000
0000
1001
0000
0000
0110
,
0010
0000
0000
0001
0000
0000
1000
0000
0000
0010
0000
0000
0001
0000
0000
0010
,
0000
0000
1000
0000
0000
0001
0000
0001
0000
0000
1000
0000
0000
0100
0000
0000
,
1000
0000
0000
0010
0000
0000
1000
0000
0000
0001
0000
0000
1000
0000
0000
1000
,
0000
0001
0000
0000
0110
0000
0000
1001
,
0100
0000
0000
0100
0000
0000
0010
0000
0000
0010
0000
0000
0001
0000
0000
0001
,
0000
0000
0010
0000
0000
0100
0000
1000
0000
0000
0001
0000
0000
0001
0000
0000
,
0010
0000
0000
0010
0000
0000
0100
0000
0000
0100
0000
0000
1000
0000
0000
0001
,
0000
0000
0010
0000
0000
0010
0000
0010
0100
1000
0100
1000
0001
0100
0001
0100
,
0010
1000
0010
1000
0100
1000
0100
1000
0100
0010
0100
1000
0100
0010
0100
1000
,
0100
0010
0001
0010
0100
0010
0001
0010
0100
0010
0001
0010
0100
0010
0100
0010
,
0001
0010
0100
1000
0001
0010
0001
1000
1100
0000
0000
0000
1010
0000
0000
0000
,
0001
0000
0010
0000
0001
0000
0010
0000
0001
0000
0010
0000
0001
0000
0010
0000
0001
0000
0010
0000
0001
0000
0010
0000
0001
0000
0000
0000
0000
0000
1000
0000
0000
0000
0000
0000
0001
0000
0000
0010
0000
0000
0000
0000
0000
0100
0000
0000
,
1000
0000
0001
0100
0000
0010
1000
0000
1000
0100
0000
0010
0001
0000
0001
0010
,
0000
0100
1000
0000
1000
0010
0000
0010
0000
0000
1000
0000
0010
1000
0000
1000
,
0100
0000
0100
0010
0000
0010
0001
0000
1000
0001
0000
0001
0100
0000
0100
0010
,
0000
0010
1000
0000
1000
0100
0000
0100
0000
0000
0001
0000
0001
0010
0000
0010
,
1000
0000
1000
0010
0000
0010
0001
0000
0001
0100
0000
0100
1000
0000
1000
0100
,
0000
0100
0001
0000
0001
0100
0000
0100
0000
0000
1100
0000
0000
0110
0000
0000
,
0011
0000
0000
0101
0000
0000
0110
0000
0000
1010
0000
0000
1001
0000
0000
0110
,
0000
0000
0000
0000
0000
0000
1000
0000
0001
0000
1000
0000
0001
0000
1000
0000
0001
0000
1000
0000
0001
0000
1000
0000
0001
0000
0000
0000
0000
0000
1000
0000
0000
0000
0000
0000
1000
0000
0000
0100
0000
0000
0000
0000
0000
0100
0000
0000
,
0010
0000
0010
0001
0000
0001
1000
0000
1000
0001
0000
0001
1000
0000
1000
0010
,
0000
0010
1000
0000
1000
0010
0000
0010
0000
0000
0100
0000
0001
0010
0000
0100
,
1000
0000
0100
0010
0000
0001
0010
0000
0100
1000
0000
0100
0010
0000
0001
0010
,
0000
0100
0010
0000
0000
0010
0000
0010
0000
0000
0002
0000
0000
0100
0000
0000
,
0203
0000
0000
0010
0000
0000
0320
0000
0000
0100
0000
0000
0230
0000
0000
0001
,
0000
0000
0000
0000
0301
0000
0000
0000
0000
0000
0100
0000
0000
0000
0100
0000
0000
0000
0000
0000
2000
0000
0000
0000
0000
0000
0100
0000
0000
0000
0000
3000
,
0200
0000
0000
0001
0000
0000
0302
0000
0000
1000
0000
0000
1003
0000
0000
0001
,
0000
0000
0000
0000
0000
0000
0001
0000
0000
0000
0000
0000
1000
0000
0001
0000
1000
0000
0001
0000
1000
0000
0001
0000
1000
0000
0000
0001
0000
0000
1000
0000
0000
0002
0000
0000
0000
0000
0000
0000
0000
0000
2003
0000
0000
0000
0000
0000
,
0000
0000
0000
3001
0000
0010
0002
0000
0000
0000
0000
0013
0000
0100
0020
0000
,
0000
0000
0000
0031
0000
1000
0020
0000
0000
0000
0000
1030
0000
0010
0200
0000
,
0000
0000
0000
1300
0000
0100
0020
0000
0000
0000
0000
1030
0000
0100
0020
0000
,
0000
0000
0000
0031
0000
0010
2000
0000
0000
0000
0000
3010
0000
0010
0002
0000
,
0000
0000
0000
1003
0000
0001
2000
0000
0000
0000
0000
3001
0000
0001
1000
0000
,
0001
0010
0001
0010
0100
1000
0100
1000
0001
1000
0010
1000
0010
0100
0001
0100
,
0001
0100
0010
0100
0001
1000
0010
0100
0010
1000
0010
0100
0010
1000
0100
1000
,
0001
0000
0000
0010
0000
0000
0100
0000
0010
0000
0100
0000
0010
0000
0001
0000
1000
0000
0001
0000
1000
0000
0010
0000
0200
0000
0000
0000
0000
0000
0000
0000
0000
0000
0000
0000
0000
0000
0000
0000
0000
0000
0000
0000
0000
0000
0000
0000
,
0000
0000
0000
0000
0000
0000
0300
0000
1001
1000
0001
0000
0001
0100
0000
0100
,
0010
0000
0010
1000
0000
1000
0010
0000
0100
0001
0000
0001
1000
0000
1000
0100
,
0000
0100
0001
0000
0001
1000
0000
1000
0000
0000
0001
0000
0001
0100
0000
0100
,
1000
0000
1000
0010
0000
0010
0100
0000
0100
0001
0000
0001
1000
0000
0010
0100
,
0000
0100
0001
0000
1000
0010
0000
0010
0000
0000
0100
0000
0001
0010
0000
1000
,
0100
0000
0001
0100
0000
1000
0100
0000
0001
0100
0000
1000
0100
0000
0001
0100
,
0000
1000
0100
0000
0000
0100
0000
0100
0000
0000
0010
0000
0001
0100
0000
1000
,
0100
0000
0010
0100
0000
0100
0001
0000
0001
0100
0000
0010
1000
0000
0010
0100
,
0000
0000
0000
0001
0000
0000
1000
0000
0010
0000
1000
0000
0010
0000
0100
0000
0001
0000
0100
0000
0010
0000
0100
0000
0010
0000
0000
0000
0000
0000
0001
0000
0000
0000
0000
0000
1000
0000
0000
0100
0000
0000
1000
0000
0000
0000
0000
0000
,
0100
0000
0010
0001
0010
0000
0001
0000
1000
0001
1000
0000
0100
0000
0010
0001
,
0010
0000
0100
0000
1000
0001
0010
0001
1000
0000
0001
0000
0010
0001
1000
0000
,
0001
0000
1000
0001
1000
0000
0001
0000
0010
0001
0010
0000
0100
0000
0100
1000
,
0100
0000
0010
0000
0001
0100
0010
1000
0001
0000
0110
0000
0000
0110
0000
0000
,
0110
0000
0000
1001
0000
0000
1010
0000
0000
0101
0000
0000
1001
0000
0000
1010
,
0000
0000
0110
0000
0000
1001
0000
1001
0000
0000
0110
0000
0000
1010
0000
0000
,
0110
0000
0000
0011
0000
0000
0110
0000
0000
1001
0000
0000
0110
0000
0000
1001
,
0000
0000
0000
1000
0001
1000
0001
1000
0001
1000
0001
1000
2002
0000
0000
0000
0000
0000
0000
0000
0000
0000
0000
0000
,
0000
0000
0000
0000
0000
0000
0000
3003
;

//---------------dance-single - Blank----------------
#NOTES:
     dance-single:
     Blank:
     Easy:
     6:
     0.285,0.426,0.147,0.237,0.000:
0000
0000
0000
0000
,
0000
0000
0000
0000
,
0000
0000
0000
0000
2200
0000
0000
0010
,
0000
3300
0000
0000
,
0000
0000
0000
0000
,
0002
0000
0000
0003
,
0000
0000
0000
0000
2002
0000
0000
0010
,
0000
0000
3003
0000
,
0000
0000
0002
0000
,
0000
0000
0000
0000
2000
0000
0000
3003
,
0000
0000
0000
0000
2200
0000
0000
0001
,
0000
3300
0000
0000
1000
0000
0000
0000
,
0001
0000
0010
0000
,
0100
0000
1000
0000
,
0001
0000
0000
0000
2200
0000
0000
0001
,
0000
3300
1000
0000
,
0100
0000
0010
0000
,
0001
0000
0100
0000
,
0010
0000
0000
0000
2200
0000
0000
0001
,
0000
3300
0001
0000
,
1000
0000
0001
0000
,
0010
0000
0100
0000
,
1000
0000
0000
0000
2002
0000
0000
0010
,
3003
0001
1000
0001
,
1000
0000
0100
0000
0010
0001
0010
0001
,
0100
0001
1000
0001
0100
0001
1000
0001
,
0100
0001
1000
0000
1001
0000
1000
0000
,
0001
0100
0010
1000
,
0001
0100
0010
0010
,
1000
1000
0001
0001
,
0100
0100
0010
0010
,
1000
1000
0001
0001
,
0100
0100
0010
0010
,
1000
1000
0001
0001
,
0000
0000
1101
0001
,
1000
0010
0100
0001
,
1000
0100
0010
0001
,
1000
0010
0100
0001
,
1000
0010
1001
0100
,
0010
0100
1000
0010
,
0100
0010
0110
0001
,
1000
0001
2200
0000
,
0000
0000
3310
0000
,
0001
1000
0010
0100
,
0001
1000
0010
0010
,
0100
0100
0001
0001
,
0100
0100
0010
0010
,
0100
0100
0001
0001
,
1000
1000
0010
0010
,
0100
0000
0001
0000
1000
0100
1000
0001
,
0100
0001
1000
0001
2002
0000
0000
0000
,
0000
3003
2002
0000
,
0000
0000
0000
0000
,
0000
0000
0000
3003
0220
0000
0000
0000
,
0000
0000
0000
0000
,
0000
0000
0000
0330
0022
0000
0000
0000
,
0000
0000
0000
0000
,
0000
0000
0000
0033
2200
0000
0000
0000
,
0000
0000
0000
0000
,
0000
0000
3300
1000
,
0001
0100
0001
0000
1000
0001
1000
0000
,
0010
0100
0010
0000
1000
0000
0001
0100
,
0001
0000
1000
0010
1000
0000
0001
0100
,
0001
0000
1000
0000
0100
0000
0010
0001
,
0010
0000
0001
1000
0001
0000
0100
0010
,
0100
0000
0001
0000
1001
0000
0100
0010
,
0100
0000
0001
1000
0001
0000
0100
0010
,
0100
0001
2002
0000
,
0000
0000
0000
0000
,
0000
0000
3003
0000
;

//---------------dance-single - ----------------
#NOTES:
     dance-single:
     :
     Hard:
     9:
     0.560,0.648,0.213,0.393,0.711:
0000
0000
0000
0000
,
0000
0000
0000
0000
,
0000
0000
0000
0000
1001
0000
0000
0220
,
0000
0000
0000
0000
,
0000
0330
0000
0000
,
0002
0000
0000
0000
,
0000
0000
0003
0000
1001
0000
0000
0220
,
0000
0000
0000
0000
,
0000
0330
2000
0000
,
0000
0000
0002
0000
,
0000
0000
3003
0000
1001
0000
0000
0110
,
0000
1000
0001
0100
,
0010
0000
0000
0000
1000
0000
0000
0000
0001
0000
1000
0000
0000
0100
0000
0000
,
1000
0000
0000
0100
0000
0000
1000
0000
0000
0100
0000
0000
1000
0000
0000
0001
,
0000
1000
0000
0000
1001
0000
0000
0110
,
0010
0000
0000
0001
0000
0000
1000
0000
0000
0010
0000
0000
0001
0000
0000
0010
,
0000
0000
1000
0000
0000
0001
0000
0001
0000
0000
1000
0000
0000
0100
0000
0000
,
1000
0000
0000
0010
0000
0000
1000
0000
0000
0001
0000
0000
1000
0000
0000
1000
,
0000
0001
0000
0000
0110
0000
0000
1001
,
0100
0000
0000
0100
0000
0000
0010
0000
0000
0010
0000
0000
0001
0000
0000
0001
,
0000
0000
0010
0000
0000
0100
0000
1000
0000
0000
0001
0000
0000
0001
0000
0000
,
0010
0000
0000
0010
0000
0000
0100
0000
0000
0100
0000
0000
1000
0000
0000
0001
,
0000
0000
0010
0000
0000
0010
0000
0000
1010
0000
0000
0000
0000
0000
0110
0000
,
0001
1000
0001
1000
0001
0010
0001
0100
,
0010
1000
0001
0010
0001
0100
0010
0100
,
0001
0010
0001
1000
1100
0000
1010
0000
,
0002
0000
0000
0000
0003
0000
0000
0000
0011
0000
0010
0000
0001
0010
0000
0100
,
1000
0000
0001
0100
0000
0010
1000
0000
1000
0100
0000
0010
0001
0000
0001
0010
,
0000
0100
1000
0000
1000
0010
0000
0010
0000
0000
1000
0000
0010
1000
0000
1000
,
0100
0000
0100
0010
0000
0010
0001
0000
1000
0001
0000
0001
0100
0000
0100
0010
,
0000
0010
1000
0000
1000
0100
0000
0100
0000
0000
0001
0000
0001
0010
0000
0010
,
0100
0000
0100
0010
0000
0010
0001
0000
0001
0100
0000
0100
0010
0000
0010
0100
,
0000
0100
0001
0000
0001
0100
0000
0100
0000
0000
0101
0000
0000
0110
0000
0000
,
1001
0000
0000
1001
0000
0000
0110
0000
0000
0110
0000
0000
1001
0000
0000
0110
,
0000
0000
2000
0000
0000
0001
3000
0000
1001
0000
1000
0000
1000
0100
0000
0100
,
0010
0000
0010
0001
0000
0001
1000
0000
1000
0001
0000
0001
1000
0000
1000
0010
,
0000
0010
1000
0000
1000
0010
0000
0010
0000
0000
0100
0000
0001
0010
0000
0100
,
1000
0000
0100
0010
0000
0001
0010
0000
0100
1000
0000
0100
0010
0000
0001
0010
,
0000
0100
0010
0000
0000
0010
0000
0001
0000
0000
0002
0000
0000
0100
0000
0000
,
0203
0000
0000
0010
0000
0000
0320
0000
0000
0100
0000
0000
0230
0000
0000
0001
,
0000
0000
0301
0000
0000
0100
0000
0100
0000
0000
0002
0000
0000
0100
0000
0000
,
0203
0000
0000
0001
0000
0000
0302
0000
0000
1000
0000
0000
1003
0000
0000
0001
,
0000
0000
0001
0000
0000
1000
0000
0000
1000
0001
1000
0002
0000
0000
2003
0000
,
0000
0000
0000
3001
0000
0010
0002
0000
0000
0000
0000
0013
0000
0100
0020
0000
,
0000
0000
0000
0031
0000
1000
0020
0000
0000
0000
0000
1030
0000
0001
0200
0000
,
0000
0000
0000
0310
0000
0100
0020
0000
0000
0000
0000
1030
0000
0100
0020
0000
,
0000
0000
0000
0031
0000
0100
0002
0000
0000
0000
0000
0103
0000
0010
0200
0000
,
0000
0000
0000
0310
0000
1000
0002
0000
0000
0000
0000
0103
0000
0001
2000
0000
,
0000
0000
3100
0010
0000
0010
0001
0000
0000
0000
0001
0100
0000
0100
0001
0000
,
0000
0000
1000
0100
0000
0100
1000
0000
0000
0000
0100
1000
0000
1000
0100
0000
,
0000
0000
1000
0010
0000
0010
0100
0000
0220
0000
0000
0000
0000
0000
0000
0000
,
0000
0000
0000
0000
0330
0000
0000
0000
0001
1000
0001
0000
0001
0100
0000
0100
,
0010
0000
0010
1000
0000
1000
0010
0000
0100
0001
0000
0001
1000
0000
1000
0100
,
0000
0100
0010
0000
0010
0001
0000
0001
0000
0000
2000
0000
0000
3100
0000
0000
,
2000
0000
0000
3010
0000
0000
2000
0000
0000
3001
0000
0000
0002
0000
0000
0013
,
0000
0000
0002
0000
0000
0100
0000
0103
0000
0000
0020
0000
0000
0130
0000
0000
,
2000
0000
0000
3001
0000
0000
0020
0000
0000
0130
0000
0000
2000
0000
0000
3001
,
0000
0000
0020
0000
0000
1000
0000
1030
0000
0000
0002
0000
0000
0100
0000
0000
,
0203
0000
0000
0010
0000
0000
0320
0000
0000
0100
0000
0000
0230
0000
0000
0001
,
0000
0000
0302
0000
0000
0100
0003
0000
1001
0000
0001
0000
1000
0100
1000
0000
,
0100
0000
0010
0001
0010
0000
0001
0000
1000
0001
1000
0000
0100
0000
0010
0001
,
0010
0000
0100
0000
1000
0001
0010
0001
1000
0000
0001
0000
0010
0001
1000
0000
,
0001
0000
1000
0001
1000
0000
0001
0000
0010
0001
0010
0000
0100
0000
0100
1000
,
0100
0000
0010
0000
0001
0100
0010
1000
0001
0000
2000
0000
0000
0010
0000
0000
,
0010
0000
0000
0001
0000
0000
0001
0000
0000
0001
0000
0000
0010
0000
0000
0010
,
0000
0000
0010
0000
0000
3100
0000
0001
0000
0000
1000
0000
0010
0100
0000
0001
,
1000
0000
0010
1000
0000
0001
0100
0000
0001
1000
0000
0010
0100
0000
0001
1000
,
0000
0002
0000
0000
0203
0000
0000
0000
,
0000
0000
0000
0000
0000
0000
0000
0300
;

//---------------dance-single - ----------------
#NOTES:
     dance-single:
     :
     Medium:
     7:
     0.341,0.479,0.155,0.352,0.254:
0000
0000
0000
0000
,
0000
0000
0000
0000
,
0000
0000
0000
0000
1001
0000
0000
0220
,
0000
0000
0000
0000
,
0000
0330
0000
0000
,
0002
0000
0000
0000
,
0000
0000
0003
0000
1001
0000
0000
0220
,
0000
0000
0000
0000
,
0000
0330
2000
0000
,
0000
0000
0002
0000
,
0000
0000
3003
0000
1001
0000
0000
0110
,
0000
1000
0001
0100
,
0010
1000
2002
0000
,
0000
0000
0000
0000
,
0000
0000
3003
0000
1001
0000
0000
0120
,
0000
0000
0000
0000
,
0000
0000
2030
0000
,
0000
0000
0000
0000
,
0000
0000
3000
0000
1001
0000
0000
0120
,
0000
0000
0000
0000
,
0000
0000
0000
2030
,
0000
0000
0000
0000
,
0000
0000
3000
0000
1001
0000
0000
0110
,
0000
0000
0002
0000
0000
0100
0000
0000
,
1000
0000
0000
0103
0000
0002
0000
0000
,
1000
0000
0000
1003
1001
0000
1001
0000
,
0002
0000
0000
0000
0003
0000
0000
0000
0001
0000
1000
0000
0000
0001
0000
0000
,
1000
0000
0000
0001
0000
0000
1000
0000
0000
0001
0000
0000
1000
0000
0000
0001
,
0000
0000
1000
0000
0000
0000
0000
0000
0000
0000
0010
0000
0000
0100
0000
0000
,
0010
0000
0000
0100
0000
0000
0010
0000
0000
0100
0000
0000
0010
0000
0000
0100
,
0000
0000
0010
0000
0000
0000
0000
0000
0000
0000
1000
0000
0000
0100
0000
0000
,
1000
0000
0000
0100
0000
0000
1000
0000
0000
0100
0000
0000
1000
0000
0000
0100
,
0000
0000
1000
0000
0000
0000
0000
0000
0000
0000
0001
0000
0000
0010
0000
0000
,
0001
0000
0000
0010
0000
0000
0001
0000
0000
0010
0000
0000
0001
0000
0000
0010
,
0000
0000
0001
0000
0000
1000
0000
0000
0001
0000
0010
0000
0000
0100
0000
0000
,
1000
0000
0000
0100
0000
0000
0010
0000
0000
0001
0000
0000
0100
0000
0000
0010
,
0000
0000
1000
0000
0000
0000
0000
0000
0000
0000
0001
0000
0000
0100
0000
0000
,
0001
0000
0000
0100
0000
0000
0001
0000
0000
0010
0000
0000
0001
0000
0000
0100
,
0000
0000
0001
0000
0000
0000
0000
0000
0000
0000
0010
0000
0000
0100
0000
0000
,
0010
0000
0000
0100
0000
0000
0010
0000
0000
0100
0000
0000
0010
0000
0000
0100
,
0000
0000
0010
0000
0000
0000
0000
0000
0000
0000
1000
0000
0000
0010
0000
0000
,
1000
0000
0000
0010
0000
0000
1000
0000
0000
0010
0000
0000
1000
0000
0000
0010
,
0000
0000
0100
0000
0000
0001
0000
0000
1000
0000
0000
0002
0000
0000
2003
0000
,
0000
0000
0000
0001
0000
0000
3002
0000
0000
0000
0000
0010
0000
0000
0023
0000
,
0000
0000
0000
1000
0000
0000
2030
0000
0000
0000
0000
0010
0000
0000
3020
0000
,
0000
0000
0000
0001
0000
0000
0032
0000
0000
0000
0000
0100
0000
0000
0203
0000
,
0000
0000
0000
0010
0000
0000
0320
0000
0000
0000
0000
1000
0000
0000
2030
0000
,
0000
0000
0000
0010
0000
0000
3020
0000
0000
0000
0000
0100
0000
0000
0230
0000
,
0000
0000
0000
0001
0000
0000
0302
0000
0000
0000
0000
0100
0000
0000
0203
0000
,
0000
0000
0000
0010
0000
0000
0320
0000
0000
0000
0000
1000
0000
0000
1030
0000
,
0000
0000
0000
1000
0000
0000
0100
0000
0220
0000
0000
0000
0000
0000
0000
0000
,
0000
0000
0000
0000
0330
0000
0000
0000
2001
0000
0001
0000
0000
0001
0000
0000
,
0000
0000
0000
0000
0000
0000
0000
0000
0000
0010
0000
0000
0010
0000
0000
0020
,
3000
0000
0000
0000
0000
0000
0230
0000
0000
0000
0001
0000
0000
0001
0000
0000
,
0302
0000
0000
0010
0000
0000
0010
0000
0000
0023
0000
0000
0002
0000
0000
0000
,
0000
0000
0030
0000
0000
0000
0000
0000
0000
0000
1000
0000
0000
1000
0000
0000
,
1000
0000
0000
0000
0000
0000
0000
0000
0000
0000
0000
0000
0100
0000
0000
0100
,
0000
0000
0103
0000
0000
0000
0000
0000
0000
0000
1000
0000
0000
1000
0000
0000
,
2000
0000
0000
0100
0000
0000
0100
0000
0000
0100
0000
0000
0001
0000
0000
0001
,
0000
3001
0000
0000
1001
1000
0100
1000
,
0100
0010
0100
0010
0100
0010
0001
0010
,
0001
0100
0001
0100
0010
1000
0010
1000
,
0001
1000
0001
1000
0010
1000
0010
1000
,
0001
0100
0001
0100
0010
1000
0001
0100
,
0010
1000
0100
0010
0001
0100
0010
1000
,
0001
0010
0100
1000
0001
0100
0010
1000
,
0001
0010
0100
1000
0002
0000
0000
0000
,
0000
0003
2002
0000
,
0000
0000
0000
0000
0000
0000
0000
0000
0000
0000
0000
0000
0000
0000
0000
0000
0000
0000
0000
0000
0000
0000
0000
0000
0000
0000
0000
0000
0000
0000
0000
3003
;

//---------------dance-single - ----------------
#NOTES:
     dance-single:
     :
     Beginner:
     2:
     0.132,0.169,0.098,0.213,0.000: // measure 1
0000
0000
0000
0000
,  // measure 2
0000
0000
0000
0000
,  // measure 3
0000
0000
1001
0000
,  // measure 4
0000
0000
0000
0000
,  // measure 5
0000
0000
0000
0000
,  // measure 6
0020
0000
0000
0000
,  // measure 7
0030
0000
2002
0000
,  // measure 8
0000
0000
0000
0000
,  // measure 9
3003
0000
0020
0000
,  // measure 10
0000
0000
0030
0000
,  // measure 11
0000
0000
2002
0000
,  // measure 12
0000
0000
0000
0000
,  // measure 13
0000
0000
0000
3003
0000
0000
0020
0000
,  // measure 14
0000
0000
0000
0000
,  // measure 15
0000
0030
1001
0000
,  // measure 16
0000
0000
0000
0000
,  // measure 17
0000
0000
0020
0000
,  // measure 18
0000
0000
0000
0000
,  // measure 19
0000
0030
2002
0000
,  // measure 20
0000
0000
0000
0000
,  // measure 21
0000
0000
0000
0000
,  // measure 22
0000
0000
0000
0000
,  // measure 23
0000
3003
0220
0000
,  // measure 24
0000
0000
0000
0000
,  // measure 25
0000
0000
0330
0000
,  // measure 26
0002
0000
0000
0000
,  // measure 27
0000
0000
1003
0000
,  // measure 28
0010
0000
0100
0000
,  // measure 29
0001
0000
1000
0000
,  // measure 30
0100
0000
0010
0000
,  // measure 31
0001
0000
0100
0000
,  // measure 32
0001
0000
1000
0000
,  // measure 33
0001
0000
1000
0000
,  // measure 34
0001
0000
1000
0000
,  // measure 35
0001
0000
1001
0000
,  // measure 36
0100
0000
0010
0000
,  // measure 37
1000
0000
0001
0000
,  // measure 38
0100
0000
0010
0000
,  // measure 39
1000
0000
0001
0000
,  // measure 40
0100
0000
0010
0000
,  // measure 41
1000
0000
0001
0000
,  // measure 42
1000
0000
1000
0000
,  // measure 43
0000
0000
2002
0000
,  // measure 44
0000
3003
0220
0000
,  // measure 45
0000
0330
0002
0000
,  // measure 46
0000
0003
2000
0000
,  // measure 47
0000
3000
0002
0000
,  // measure 48
0000
0003
0200
0000
,  // measure 49
0000
0300
0020
0000
,  // measure 50
0000
0030
2000
0000
,  // measure 51
0000
0000
0002
0000
,  // measure 52
0000
3003
0110
0000
,  // measure 53
0000
0000
0000
0000
,  // measure 54
0000
0000
0000
0000
,  // measure 55
0000
0000
0000
0000
,  // measure 56
0000
0000
0000
1000
,  // measure 57
0000
0001
0000
1000
,  // measure 58
0000
0010
0000
0100
,  // measure 59
0000
0001
0000
1000
,  // measure 60
0000
0000
1001
0000
,  // measure 61
0100
0000
0010
0000
,  // measure 62
1000
0000
0001
0000
,  // measure 63
1000
0000
0100
0000
,  // measure 64
0010
0000
0001
0000
,  // measure 65
0001
0000
1000
0000
,  // measure 66
1000
0000
0100
0000
,  // measure 67
0100
0000
0100
0000
,  // measure 68
0000
0000
2002
0000
,  // measure 69
0000
0000
0000
0000
,  // measure 70
0000
3003
0000
0000
0000
0000
0000
0000
0000
0000
0000
0000
;
