#TITLE:Mirai No Prism;
#SUBTITLE:;
#ARTIST:Kanako Hoshino;
#TITLETRANSLIT:;
#SUBTITLETRANSLIT:;
#ARTISTTRANSLIT:;
#CREDIT:;
#BANNER:bn.PNG;
#BACKGROUND:bg.PNG;
#LYRICSPATH:;
#CDTITLE:;
#MUSIC:Mirai No Prism.ogg;
#OFFSET:-0.420;
#SAMPLESTART:43.800;
#SAMPLELENGTH:15.620;
#SELECTABLE:YES;
#BPMS:0.000=132.000;
#STOPS:;
#BGCHANGES:;

//---------------dance-single - ----------------
#NOTES:
     dance-single:
     :
     Hard:
     7:
     0.431,0.436,0.009,0.089,0.009:
0000
0000
0000
0000
,
0000
0000
0000
0000
,
0000
0000
0000
0000
,
0000
0000
0000
0000
0000
0000
0000
1000
,
0001
0000
0010
0001
0000
0100
0010
1000
,
0100
0000
0010
0001
0000
1000
0010
1000
,
0001
0000
0010
0001
0000
0100
0010
1000
,
0100
0000
0000
0000
0010
0000
0000
0010
0000
0000
0010
0000
0000
0010
0000
0000
,
0001
0000
0010
0000
0100
1000
0000
0010
,
0000
0100
0000
0001
0000
1000
0001
0000
,
0010
0000
0001
0000
0100
0010
1000
0010
,
0000
0100
0001
0000
0010
0100
0010
0100
,
1000
0000
0001
0000
0010
0001
0000
0100
,
0000
0010
1000
0100
0000
0010
0001
0000
,
0100
0000
0010
0000
1000
0001
0010
0001
,
2000
0000
0000
0000
3000
0001
0010
0001
,
0010
0000
0100
0000
1000
0010
0100
0010
,
1000
0000
0100
0000
0010
0001
0010
0100
,
1000
0000
0010
0000
0100
0001
0100
0010
,
1000
0000
0001
0000
0010
0100
1000
0100
,
0010
0000
0001
0000
0100
0010
1000
0010
,
0100
0000
0001
1000
0000
0100
0000
0010
,
0001
1000
0000
0010
1000
0001
0100
0020
,
0000
0000
0000
0000
0000
0000
0030
0100
,
0001
0100
0000
0010
1000
0010
0000
1000
,
0100
1000
0000
0001
0010
0001
0000
0100
,
0001
0100
0000
0010
1000
0010
0000
1000
,
0100
1000
0000
0001
1000
0001
1000
0010
,
1000
0001
0010
0001
0200
0000
0310
0000
,
1000
0100
0010
0001
2000
0000
3010
0100
,
0001
0000
0100
0000
0010
1000
0100
0010
,
0001
0000
1000
0000
0010
1000
0001
0010
,
0001
0100
0000
0010
1000
0100
0000
0010
,
0001
1000
0000
0100
1000
0001
0000
0010
,
0001
0100
0000
0010
1000
0001
0000
0010
,
0001
0100
0000
0010
1000
0100
0001
0100
,
1000
0010
0100
0010
2000
0000
3010
0000
,
0100
0001
0010
0001
0100
0010
1000
0001
,
0010
0001
0000
1000
0010
1000
0000
0001
,
0100
0001
0000
1000
0100
1000
0000
0001
,
1000
0010
0000
1000
0001
0100
0000
0001
,
0010
0100
0000
1000
0010
0100
0001
0010
,
0001
0100
0010
1000
0020
0000
0130
0000
,
0001
0010
0100
0010
0002
0000
0013
0100
,
1000
0000
0001
0000
0010
0001
0100
0010
,
1000
0000
0100
0000
0010
0001
0100
0010
,
1000
0100
0000
0010
0001
0100
0000
0010
,
1000
0001
0000
0100
0001
1000
0000
0100
,
1000
0010
0000
0100
0001
0010
0000
0100
,
1000
0001
0000
0010
0001
0100
0010
1000
,
0200
0000
0010
0000
0301
0000
0010
0100
,
1000
0000
0010
0100
0000
0001
1000
0010
,
1000
0100
0010
0001
,
1000
0010
0100
0001
1000
0100
0010
0001
,
0100
0010
1000
0001
,
0010
0001
0100
0010
1000
0100
0010
0001
,
1000
0010
0100
0001
,
0010
0100
1000
0010
0100
0001
1000
0100
,
0010
0001
0100
0010
1000
0001
1000
2002
,
0000
0000
0000
0000
,
0000
0000
0000
0000
,
3003
0000
0000
0000
;

//---------------dance-single - ----------------
#NOTES:
     dance-single:
     :
     Medium:
     5:
     0.313,0.301,0.000,0.018,0.000:
0000
0000
0000
0000
,
0000
0000
0000
0000
,
0000
0000
0000
0000
,
0000
0000
0000
0000
,
1000
0000
0000
0001
0000
0000
0010
0000
,
0001
0000
0000
0100
0000
0000
0010
0000
,
1000
0000
0000
0100
0000
0000
0010
0000
,
0001
0000
1000
0000
0010
0000
1000
0001
,
1000
0001
0010
0001
,
1000
0010
1000
0000
0100
0000
0010
0000
,
0001
0000
0100
0000
0010
0100
0010
0000
,
1000
0010
1000
0000
0100
0000
0010
0000
,
0001
1000
0010
1000
,
0100
0001
0100
0000
1000
0000
0010
0000
,
0100
0000
0001
0000
0010
0001
0010
0001
,
0000
0100
0010
0000
0000
0000
1000
0000
,
0001
0000
0010
0000
0001
0000
0100
0001
,
0100
0000
0010
0000
1000
0000
0100
1000
,
0100
0000
0010
0000
0001
0000
1000
0001
,
1000
0000
0010
0000
1000
0000
0001
0010
,
0001
0000
1000
0000
0100
0000
1000
0100
,
1000
0010
0100
0001
,
1000
0001
0000
1000
0000
0010
0000
0200
,
0000
0000
0000
0000
0000
0000
0300
0001
,
0000
0001
0000
1000
0000
1000
0000
0010
,
0000
0010
0000
1000
0000
1000
0000
0001
,
0000
0001
0000
0010
0000
0010
0000
0001
,
0000
0001
0000
0100
0000
0100
0000
0010
,
1000
0000
0100
0010
0100
0000
0010
0000
,
0001
0000
1000
0001
1000
0000
0010
0000
,
1000
0000
0100
0000
0001
0100
0001
0000
,
0100
0000
1000
0000
0010
0000
0100
0001
,
0000
0001
0000
1000
0000
1000
0000
0010
,
0000
0010
0000
0100
0000
0100
0000
0001
,
0000
0001
0000
0010
0000
0010
0000
0001
,
0000
0001
0000
1000
0000
1000
0000
0100
,
0010
0000
0001
0010
0001
0000
0100
0000
,
0010
0000
1000
0000
0001
1000
0001
1000
,
0000
0010
0000
1000
0000
0001
0000
0010
,
0000
0001
0000
0100
0000
0010
0000
1000
,
0000
0100
0000
0001
0000
0100
0000
1000
,
0000
0010
0000
0100
0000
0001
0000
0010
,
0100
0000
1000
0010
1000
0000
0010
0000
,
0100
0000
0001
0100
0001
0000
0010
0000
,
0001
0000
0100
0000
0010
1000
0010
0000
,
1000
0000
0100
0000
0010
0000
0001
1000
,
0000
0010
0000
0001
0000
0010
0000
1000
,
0000
0100
0000
0001
0000
0100
0000
1000
,
0000
0010
0000
0100
0000
0001
0000
1000
,
0000
0100
0000
0010
0000
0001
0000
1000
,
0010
1000
0100
0010
,
0001
0000
1000
0001
0000
1000
0010
1000
,
0010
0100
0001
1000
,
0100
0010
0001
1000
,
0010
1000
0001
0010
,
0001
0000
0100
0000
0010
0000
1000
0010
,
1000
0010
0100
0001
,
1000
0100
0010
0001
,
1000
0010
0100
0000
0001
0100
0010
0200
,
0000
0000
0000
0000
,
0000
0000
0000
0000
,
0000
0300
0000
0000
;

//---------------dance-single - ----------------
#NOTES:
     dance-single:
     :
     Easy:
     3:
     0.221,0.246,0.000,0.018,0.000:
0000
0000
0000
0000
,
0000
0000
0000
0000
,
0000
0000
0000
0000
,
0000
0000
0000
0000
,
1000
0000
0001
0010
,
0001
0000
1000
0010
,
1000
0000
0001
0100
,
0001
0000
1000
0100
,
1000
0000
0001
0000
,
0010
0001
0100
0000
,
0010
0000
1000
0000
,
0100
1000
0001
0000
,
0010
0000
0001
0000
,
1000
0010
1000
0000
,
0001
0000
0100
0000
,
0010
0000
0100
0010
,
0100
0000
0010
1000
,
0010
0000
1000
0000
,
0100
0000
0010
0001
,
0010
0000
0001
0100
,
0001
0000
1000
0100
,
1000
0000
0010
0000
,
1000
0000
0001
0010
,
0002
0000
0003
0000
,
1000
1000
0001
0001
,
0010
0010
0001
0001
,
0100
0100
0010
0010
,
1000
1000
0100
0100
,
0010
0001
0010
0000
,
0100
1000
0100
0000
,
0010
0000
0001
0000
,
1000
0001
0010
0001
,
0100
0100
0010
0010
,
1000
1000
0100
0100
,
0001
0001
0100
0100
,
1000
1000
0010
0010
,
0100
0000
0001
0000
,
0010
0001
0100
0010
,
1000
1000
0001
0001
,
0010
0010
0001
0001
,
0100
0100
0010
0010
,
1000
1000
0100
0100
,
0001
0100
1000
0000
,
0010
1000
0100
0000
,
0010
0000
0001
1000
,
0010
1000
0001
1000
,
0010
0010
0100
0100
,
0001
0001
0010
0010
,
0100
0100
1000
1000
,
0010
0010
1000
1000
,
0001
0000
0010
0000
,
0001
0100
0001
1000
,
0100
0000
1000
0000
,
0010
0000
1000
0001
,
1000
0000
0001
0000
,
0010
0000
0001
0100
,
0001
0000
0100
0000
,
0010
0000
1000
0000
,
0100
0000
0010
0000
0001
0000
0000
0002
,
0000
0000
0000
0000
,
0000
0000
0000
0000
,
0000
0003
0000
0000
;

//---------------dance-single - ----------------
#NOTES:
     dance-single:
     :
     Beginner:
     1:
     0.110,0.137,0.009,0.018,0.000: // measure 1
0000
0000
0000
0000
,  // measure 2
0000
0000
0000
0000
,  // measure 3
0000
0000
0000
0000
,  // measure 4
0000
0000
0000
0000
,  // measure 5
1000
0000
0000
0000
,  // measure 6
0001
0000
0000
0000
,  // measure 7
0010
0000
0000
0000
,  // measure 8
0001
0000
0000
0000
,  // measure 9
0100
0000
0000
0000
,  // measure 10
0010
0000
0000
0000
,  // measure 11
1000
0000
0000
0000
,  // measure 12
0100
0000
0100
0000
,  // measure 13
0100
0000
0000
0000
,  // measure 14
0010
0000
0000
0000
,  // measure 15
0001
0000
0000
0000
,  // measure 16
1000
0000
0000
0000
,  // measure 17
0010
0000
0010
0000
,  // measure 18
0010
0000
0000
0000
,  // measure 19
0100
0000
0100
0000
,  // measure 20
0100
0000
0000
0000
,  // measure 21
0001
0000
0001
0000
,  // measure 22
0001
0000
0000
0000
,  // measure 23
1000
0000
1000
0000
,  // measure 24
1000
0000
0000
0000
,  // measure 25
0001
0000
0001
0000
,  // measure 26
0010
0000
0010
0000
,  // measure 27
0100
0000
0100
0000
,  // measure 28
1000
0000
1000
0000
,  // measure 29
0010
0000
0000
0000
,  // measure 30
0100
0000
0000
0000
,  // measure 31
0001
0000
0000
0000
,  // measure 32
1000
0000
1000
1000
,  // measure 33
1000
0000
1000
0000
,  // measure 34
0001
0000
0001
0000
,  // measure 35
0010
0000
0010
0000
,  // measure 36
0001
0000
0001
0000
,  // measure 37
0100
0000
0000
0000
,  // measure 38
0010
0000
0010
0000
,  // measure 39
0010
0000
0010
0000
,  // measure 40
1000
0000
1000
0000
,  // measure 41
0001
0000
0001
0000
,  // measure 42
0010
0000
0010
0000
,  // measure 43
0001
0000
0000
0000
,  // measure 44
0100
0000
0000
0000
,  // measure 45
0010
0000
0000
0000
,  // measure 46
1000
0000
1000
0000
,  // measure 47
0001
0000
0001
0000
,  // measure 48
1000
0000
1000
0000
,  // measure 49
0010
0000
0010
0000
,  // measure 50
0100
0000
0100
0000
,  // measure 51
0001
0000
0000
0000
,  // measure 52
1000
0000
1000
0000
,  // measure 53
1000
0000
0000
0000
,  // measure 54
0010
0000
0000
0000
,  // measure 55
0100
0000
0000
0000
,  // measure 56
0001
0000
0000
0000
,  // measure 57
1000
0000
0000
0000
,  // measure 58
0010
0000
0000
0000
,  // measure 59
0100
0000
0100
0000
,  // measure 60
0220
0000
0000
0000
,  // measure 61
0000
0000
0000
0000
,  // measure 62
0000
0330
0000
0000
;
