#TITLE:Heaven Or Hell;
#SUBTITLE:(Can-Can);
#ARTIST:GGOMAK;
#TITLETRANSLIT:;
#SUBTITLETRANSLIT:;
#ARTISTTRANSLIT:;
#CREDIT:;
#BANNER:bn.PNG;
#BACKGROUND:bg.PNG;
#LYRICSPATH:;
#CDTITLE:;
#MUSIC:Heaven Or Hell (Can-Can).ogg;
#OFFSET:-0.225;
#SAMPLESTART:62.340;
#SAMPLELENGTH:17.220;
#SELECTABLE:YES;
#BPMS:0.000=195.001;
#STOPS:;
#BGCHANGES:;

//---------------dance-single - ----------------
#NOTES:
     dance-single:
     :
     Hard:
     9:
     0.826,0.669,0.280,0.638,0.150:
0000
0000
0000
0000
,
0000
0000
0000
0000
,
1000
0001
0010
0001
,
1001
1001
1001
1001
,
1000
0010
1000
0010
0100
0001
0100
0001
,
0010
0001
0010
0001
0100
0001
0100
0000
,
0010
1000
0010
1000
0100
1000
0100
1000
,
0100
0010
0000
0000
0010
0001
0000
0000
0001
1000
0000
0000
1000
0010
0000
0000
,
1000
0100
1000
0100
0010
0001
0010
0001
,
0100
0001
0100
0001
0100
0010
0100
0000
,
0010
1000
0010
1000
0001
0100
0001
0100
,
0001
0010
0001
0010
0001
1000
0001
0000
,
1001
1010
0101
0011
,
0010
0100
1000
0001
0010
0001
0100
0000
,
0110
1010
1100
0110
,
0010
0001
1000
0010
1000
0100
0010
0000
,
0011
0101
0110
1010
,
0010
0100
0001
0010
0100
1000
0001
0000
,
0011
0101
0110
1010
,
1000
0100
0010
0001
1000
0010
1000
0010
,
0001
0010
0001
0010
1000
0100
1000
0100
,
0001
0000
0100
0000
0001
0000
0100
0000
1000
0000
0000
1000
0010
0000
0000
0010
,
0100
0000
0000
0100
0001
0000
0000
0001
0010
0000
0000
0010
0100
0000
0000
0100
,
1000
0000
0000
1000
0010
0000
0000
0000
2010
0000
0000
0000
3010
0000
0000
0000
,
0100
0001
0010
0100
2000
0000
3020
0000
,
0130
0001
0010
0001
0200
0000
0320
0000
,
1030
0100
0010
0001
1000
0010
1000
0010
,
0001
0010
0001
0010
2000
0000
3010
0000
,
0100
0001
0010
0100
2000
0000
3002
0000
,
0013
0001
0100
0010
2000
0000
3200
0000
,
0310
0001
1000
0010
1000
0001
0010
0001
,
0100
0101
0120
0130
,
0010
1000
0100
0001
0200
0000
0320
0000
,
0031
0010
0100
1000
0002
0000
2003
0000
,
3100
1000
0010
0100
0001
0010
1000
0010
,
0001
0100
1000
0100
0002
0000
0013
0000
,
0100
1000
0010
0100
0002
0000
2003
0000
,
3100
1000
0010
0100
0002
0000
0023
0000
,
0130
1000
0001
0100
0001
1000
0100
1000
,
0010
0000
1010
0000
0010
0100
0001
0010
,
1000
0010
0001
0100
0010
1000
0100
1000
,
0010
0100
0001
0000
0010
0100
1000
0001
,
0100
0001
1000
0100
1000
0001
0100
0001
,
1000
0010
1000
0001
0100
0001
0010
0001
,
1000
0100
1000
0010
0100
0001
0010
1000
,
0010
0001
0100
0000
0010
1000
0100
0000
,
0010
0001
1000
0000
0100
1000
0010
0000
,
0100
0001
0010
0000
0100
1000
0100
1000
,
0010
1000
0010
1000
0010
0100
0010
0100
,
0001
0100
0001
0100
0001
1000
0001
1000
,
0001
1000
0001
1000
0002
0000
0103
0000
,
0001
0100
0010
1000
0200
0000
2300
0000
,
3010
1000
0001
0010
0002
0000
0203
0000
,
0310
1000
0100
0001
0100
1000
0010
0100
,
0001
0010
0001
0100
0020
0000
1030
0000
,
0100
0010
0001
1000
0020
0000
0230
0000
,
0301
0010
0001
0100
0020
0000
2030
0000
,
3100
0010
0001
1000
0010
1000
0001
0010
,
0001
0011
0120
0130
,
1000
0010
0100
0001
0020
0000
0032
0000
,
0103
0010
1000
0100
0002
0000
0203
0000
,
1300
0010
0100
0001
0010
0001
0100
0010
,
1000
0100
0001
0100
2000
0000
3001
0000
,
0010
0001
0100
0010
2000
0000
3002
0000
,
0013
0001
0100
0010
2000
0000
3200
0000
,
0310
0001
1000
0010
2000
0000
3002
0000
,
0023
0000
0032
0000
0103
0010
1000
0100
,
0001
0100
1000
0010
0200
0000
0302
0000
,
0023
0000
0230
0000
1300
0010
1000
0001
,
0010
0000
0001
0000
0100
0000
0010
0000
1000
0000
0000
1000
0100
0000
0000
0100
,
0010
0000
0000
0010
0001
0000
0000
0001
0100
0000
0000
0100
0010
0000
0000
0010
,
1000
0000
0000
1000
0001
0000
0000
0001
0010
0000
0000
0010
0001
0000
0000
0001
,
0100
0000
0000
0100
0010
0000
0000
0010
1000
0000
0000
1000
0100
0000
0000
0100
,
0010
0000
0000
0010
0001
0000
0000
0001
2000
0000
0000
0000
3020
0000
0000
0000
,
0230
0302
0023
0032
,
0203
0320
2030
3200
,
0302
0203
2300
3020
,
0230
0000
0000
0000
0302
0000
0000
0000
0013
0000
0000
0010
0100
0000
0000
0100
,
1000
0000
0000
1000
0001
0000
0000
0001
0010
0000
0000
0000
0000
0000
0000
0000
,
0001
0000
1001
0000
,
0100
0000
2002
0000
,
0000
3003
1001
0000
;

//---------------dance-single - ----------------
#NOTES:
     dance-single:
     :
     Beginner:
     2:
     0.162,0.354,0.019,0.000,0.000:
0000
0000
0000
0000
,
0000
0000
0000
0000
,
1000
0000
0000
0000
,
0001
0000
0001
0000
,
0001
0000
0000
0000
,
0010
0000
0000
0000
,
0100
0000
0000
0000
,
1000
0000
0000
0000
,
0010
0000
0000
0000
,
0100
0000
0000
0000
,
0001
0000
0000
0000
,
1000
0000
0000
0000
,
0100
0000
0000
0000
,
0010
0000
0010
0000
,
0010
0000
0000
0000
,
0001
0000
0001
0000
,
0001
0000
0000
0000
,
1000
0000
1000
0000
,
1000
0000
0000
0000
,
0010
0000
0010
0000
,
0010
0000
0010
0000
,
0010
0000
0010
0000
,
0000
0000
0100
0000
,
0000
0000
0010
0000
,
0000
0000
1000
0000
,
0000
0000
0001
0000
,
0000
0000
0010
0000
,
0010
0000
0010
0000
,
0000
0000
0100
0000
,
0000
0000
1000
0000
,
0000
0000
0001
0000
,
0001
0000
0001
0000
,
0000
0000
1000
0000
,
0000
0000
0010
0000
,
0000
0000
0100
0000
,
0100
0000
0100
0000
,
0000
0000
0001
0000
,
0000
0000
0010
0000
,
0000
0000
0100
0000
,
0100
0000
0100
0000
,
0000
0000
1000
0000
,
0000
0000
0010
0000
,
0000
0000
0100
0000
,
0100
0000
0100
0000
,
0000
0000
0001
0000
,
0000
0000
0010
0000
,
0010
0000
0010
0000
,
0010
0000
0100
0000
,
0100
0000
0100
0000
,
0100
0000
0100
0000
,
0100
0000
0100
0000
,
0000
0000
1000
0000
,
0000
0000
0010
0000
,
0000
0000
0100
0000
,
0100
0000
0100
0000
,
0000
0000
0001
0000
,
0000
0000
0010
0000
,
0000
0000
0100
0000
,
0100
0000
0100
0000
,
0000
0000
1000
0000
,
0000
0000
0010
0000
,
0000
0000
0100
0000
,
0100
0000
0100
0000
,
0000
0000
0001
0000
,
0000
0000
0010
0000
,
0000
0000
0100
0000
,
0000
0000
1000
0000
,
1000
0000
1000
0000
,
0000
0000
0001
0000
,
0001
0000
0010
0010
,
0010
0010
0010
0010
,
0010
0010
0010
0010
,
0010
0010
0010
0010
,
0010
0010
0010
0000
,
0000
0000
1000
0000
,
0000
0000
0001
0000
,
0000
0000
0010
0000
,
0000
0000
0001
0000
,
0001
0000
0001
0000
,
0000
0000
1000
0000
,
0000
0000
1001
0000
,
0000
0000
1001
0000
;

//---------------dance-single - ----------------
#NOTES:
     dance-single:
     :
     Easy:
     5:
     0.384,0.354,0.019,0.000,0.000:
0000
0000
0000
0000
,
0000
0000
0000
0000
,
0000
0000
0000
0000
,
0000
0000
0000
0000
,
1000
0000
0001
0000
,
0010
0001
0010
0000
,
0001
0000
0100
0000
,
0010
1000
0010
1000
,
0010
0000
1000
0000
,
0100
0000
0010
0001
,
0010
0000
0001
0000
,
1000
0001
1000
0000
,
0001
0001
1000
1000
,
0010
0100
0001
0010
,
0001
0001
0100
0100
,
0010
1000
0100
0010
,
0001
0001
1000
1000
,
0010
1000
0100
0010
,
0001
0001
0100
0100
,
0010
1000
0001
0001
,
1000
1000
0010
0010
,
0100
0100
0001
0001
,
0001
0001
1000
1000
,
1000
1000
0010
0000
,
1000
0100
0010
0010
,
0001
0100
0010
0010
,
1000
0001
0010
0001
,
0100
0010
1000
0000
,
0100
1000
0010
0010
,
0100
0001
0010
0010
,
0001
0100
0010
1000
,
0100
0010
0001
0000
,
1000
0100
0001
0001
,
0100
1000
0100
0100
,
0010
0001
0100
0010
,
1000
0100
0010
0000
,
0001
1000
0100
0100
,
1000
0001
0100
0100
,
0001
0010
0100
1000
,
0010
0000
1000
0000
,
0001
0000
0010
0001
,
0010
0000
0001
0000
,
0100
0000
0010
1000
,
0010
1000
0010
0000
,
1000
0000
0100
0010
,
0100
0000
0010
0010
,
0010
0010
0001
0001
,
0001
0001
1000
1000
,
1000
1000
0001
0001
,
0001
0001
0001
0001
,
0001
0001
1000
0000
,
0010
1000
0100
0100
,
0010
0001
0100
0100
,
0010
1000
0001
0100
,
0001
0010
0100
0000
,
1000
0010
0100
0100
,
0001
0010
0100
0100
,
1000
0001
0010
0001
,
1000
0010
1000
0000
,
0001
0010
0001
0001
,
1000
0010
1000
1000
,
0010
0100
0001
0010
,
0100
1000
0001
0000
,
0010
0001
0100
0100
,
0010
1000
0100
0100
,
0010
0001
1000
1000
,
0001
0001
0010
0001
,
0100
0010
1000
1000
,
0100
0100
0010
0001
,
1000
0010
1000
1000
,
1000
1000
0001
0001
,
0001
0001
0010
0010
,
0010
0010
0100
0100
,
0100
0100
1000
0010
,
1000
0001
0010
0001
,
0100
0001
1000
0100
,
1000
0001
0100
0001
,
0010
0001
1000
1000
,
0001
0001
1000
0000
,
0001
0000
1000
0000
,
0001
0000
1001
0000
,
0000
0000
1001
0000
;

//---------------dance-single - ----------------
#NOTES:
     dance-single:
     :
     Medium:
     7:
     0.538,0.512,0.155,0.097,0.000: // measure 1
0000
0000
0000
0000
,  // measure 2
0000
0000
0000
0000
,  // measure 3
1000
1000
1000
1000
,  // measure 4
1001
1001
1001
1001
,  // measure 5
0001
0010
0001
1000
,  // measure 6
0010
0000
1000
0000
0100
1000
0100
0000
,  // measure 7
0010
0001
1000
0010
,  // measure 8
1010
1010
1010
1010
,  // measure 9
0010
0100
0001
0010
,  // measure 10
0100
0000
1000
0000
0001
1000
0001
0000
,  // measure 11
0010
0001
0100
0010
,  // measure 12
1010
0000
1010
0000
0010
0100
0010
0000
,  // measure 13
0100
0001
0010
0001
,  // measure 14
0100
0001
0100
0000
0010
1000
0010
0000
,  // measure 15
1000
0100
0010
0001
,  // measure 16
1000
0010
1000
0000
0001
0010
0001
0000
,  // measure 17
1000
0010
0100
0001
,  // measure 18
0010
0001
0010
0000
0001
0100
0001
0000
,  // measure 19
0100
0010
1000
0100
,  // measure 20
0010
0001
0010
0000
0100
0000
1000
0000
,  // measure 21
0010
1000
0100
0010
,  // measure 22
0001
0100
0010
0010
,  // measure 23
0010
0010
1000
1000
,  // measure 24
1000
1000
0002
0003
,  // measure 25
0010
0001
0010
0000
0100
0000
1000
0000
,  // measure 26
0010
1000
0010
0000
0100
0000
0001
0000
,  // measure 27
1000
0001
1000
0000
0010
1000
0010
0000
,  // measure 28
1000
0100
1000
0000
0002
0000
0003
0000
,  // measure 29
0010
0001
0010
0000
0100
0000
1000
0000
,  // measure 30
0010
1000
0010
0000
0100
0000
0001
0000
,  // measure 31
1000
0001
1000
0000
0010
1000
0010
1000
,  // measure 32
0010
0100
0002
0003
,  // measure 33
0010
0001
0010
0000
0100
0000
1000
0000
,  // measure 34
0010
1000
0010
0000
0100
0000
0001
0000
,  // measure 35
1000
0001
1000
0001
1000
0000
0010
0000
,  // measure 36
1000
0100
0020
0030
,  // measure 37
0001
0010
0001
0000
0010
0000
0100
0000
,  // measure 38
1000
0100
1000
0000
0100
0000
0010
0000
,  // measure 39
0001
1000
0001
0000
1000
0010
1000
0010
,  // measure 40
1000
0010
0100
0001
,  // measure 41
0010
0001
0100
0010
,  // measure 42
1000
0010
1000
0000
0010
0000
0100
0000
,  // measure 43
0001
0010
0011
0011
,  // measure 44
0011
0011
0010
0100
,  // measure 45
1000
0010
1000
0001
,  // measure 46
0010
0001
0010
0000
0001
0000
0100
0000
,  // measure 47
0001
0100
0001
0000
0100
0000
0010
0000
,  // measure 48
0100
0010
0100
0000
0010
0000
1000
0000
,  // measure 49
0010
1000
0010
0000
1000
0000
0100
0000
,  // measure 50
1000
0100
1000
0000
0001
1000
0001
1000
,  // measure 51
0001
1000
0001
1000
0002
0000
0003
0000
,  // measure 52
0010
0001
0010
0000
0100
0000
1000
0000
,  // measure 53
0010
1000
0010
0000
0100
0000
0001
0000
,  // measure 54
1000
0001
1000
0000
0010
1000
0010
0000
,  // measure 55
1000
0100
1000
0000
0002
0000
0003
0000
,  // measure 56
0010
0001
0010
0000
0100
0000
1000
0000
,  // measure 57
0010
1000
0010
0000
0100
0000
0001
0000
,  // measure 58
1000
0001
1000
0000
0010
1000
0010
1000
,  // measure 59
0010
0100
0002
0003
,  // measure 60
0010
0001
0010
0000
0100
0000
1000
0000
,  // measure 61
0010
1000
0010
0000
0100
0000
0001
0000
,  // measure 62
1000
0001
1000
0001
1000
0000
0010
0000
,  // measure 63
1000
0100
0020
0030
,  // measure 64
0001
0010
0001
0000
0010
0000
0100
0000
,  // measure 65
1000
0100
1000
0000
0100
0000
0010
0000
,  // measure 66
0001
1000
0001
0000
1000
0000
0100
0000
,  // measure 67
0010
0000
0001
0000
1000
0010
1000
0000
,  // measure 68
0001
0010
0001
0000
1000
0000
0010
0000
,  // measure 69
0100
0000
0001
0000
0010
0001
0010
0000
,  // measure 70
0001
0100
0001
0000
0100
0000
0100
0000
,  // measure 71
0010
0010
1000
1000
,  // measure 72
0001
0001
0010
0010
,  // measure 73
0001
0001
0100
0100
,  // measure 74
0010
0010
1000
0100
,  // measure 75
0001
0100
1000
0010
,  // measure 76
0001
0010
1000
0010
,  // measure 77
0100
0001
0010
0100
,  // measure 78
1000
0001
0010
0010
,  // measure 79
0001
0001
0100
0000
,  // measure 80
0010
0000
1000
0000
,  // measure 81
0100
0000
2002
0000
,  // measure 82
0000
3003
1001
0000
;
