#TITLE:Gradation;
#SUBTITLE:;
#ARTIST:The Natural Mahoganies;
#TITLETRANSLIT:;
#SUBTITLETRANSLIT:;
#ARTISTTRANSLIT:;
#CREDIT:;
#BANNER:;
#BACKGROUND:;
#LYRICSPATH:;
#CDTITLE:cdtitle.png;
#MUSIC:Gradation.mp3;
#OFFSET:-1.159;
#SAMPLESTART:75.778;
#SAMPLELENGTH:12.000;
#SELECTABLE:YES;
#BPMS:0.000=125.395;
#STOPS:;
#BGCHANGES:;

//---------------dance-single - Blank----------------
#NOTES:
     dance-single:
     Blank:
     Hard:
     9:
     0.556,0.582,0.249,0.471,0.426:
0000
0000
0000
0000
,
1000
0000
1000
0001
0000
1000
0001
0000
2000
0000
0000
0000
3020
0000
0000
0000
,
0100
0000
0000
0100
0000
0000
0130
0000
0000
0000
0000
0000
1001
0000
0000
0000
,
0001
0000
0001
1000
0000
0001
1000
0000
0002
0000
0000
0000
0203
0000
0000
0000
,
0301
0000
0000
0101
0000
0000
1001
0000
1001
0000
0000
0000
1000
0001
1000
0000
,
0001
0000
1000
0100
0000
1000
0100
0000
0020
0000
0001
0000
0001
0000
0031
0000
,
1000
0000
0100
0010
0000
0001
0010
0000
0200
0000
1000
0000
1000
0000
1300
0000
,
0001
0000
0100
0010
0000
1000
0001
0000
2000
0000
0000
0000
3020
0000
0000
0000
,
2030
0000
0000
0000
0200
3000
0310
0010
,
0001
0000
1000
0010
0000
1000
0010
0000
0100
0000
0001
0000
1000
0000
0010
0000
,
0100
0000
0001
0100
0000
0001
0100
0000
0010
0000
1000
0000
0100
0000
0010
0000
,
0001
0000
0010
0100
0000
0010
0100
0000
2000
0000
0000
0000
3020
0000
0000
0000
,
0230
0000
0000
0000
0302
0000
1003
1000
,
0001
0000
1000
0100
0000
1000
0100
0000
0020
0000
0000
0000
0032
0000
0000
0000
,
2003
0000
0000
0000
3002
0000
1003
0010
,
0100
0000
0001
0100
0000
0100
0010
0000
2000
0000
0000
0000
0010
0000
0000
0000
,
3020
0000
0000
0000
2030
0000
3100
0010
,
0100
0000
0010
0100
0000
0010
0100
0000
2000
0000
0000
0000
3002
0000
0000
0000
,
0203
0000
0000
0010
0000
0000
0010
0000
0310
0000
0000
0000
1000
0000
0010
0000
,
2000
0000
0000
0001
0000
0000
0001
0000
3020
0000
0000
0000
2030
0000
0000
0000
,
3002
0000
0203
0320
,
1030
0000
0000
0100
0000
0000
0010
0000
0000
0000
0001
0000
0000
0010
0000
0000
,
0100
0000
0000
1000
0000
0000
0001
0000
0000
0000
1000
0000
0000
0100
0000
0000
,
1000
0000
0000
1000
0000
0000
1000
0000
0100
0000
0000
0100
0000
0000
0100
0000
,
0010
0000
0000
0010
0000
0000
0010
0000
0001
0000
0000
0001
0000
0000
0001
0000
,
1000
0000
0000
0001
0000
0000
0001
0000
0020
0000
0000
0000
0130
0000
1000
0000
,
0000
0020
0230
0302
,
1003
0000
0000
1000
0000
0000
1000
0000
0100
0000
0000
0100
0000
0000
0100
0000
,
0010
0000
0000
0010
0000
0000
0010
0000
0001
0000
0000
0001
0000
0000
0001
0000
,
1000
0000
0000
1000
0000
0000
1000
0000
0100
0000
0000
0000
2000
0000
0200
0000
,
0000
0000
0000
0000
0300
0000
3001
1000
,
1001
0000
0000
0110
0000
0000
1001
0000
0000
0000
1000
0100
1000
0000
0100
0000
,
1100
0000
0000
0110
0000
0000
2001
0000
0000
0000
0000
0000
3001
0000
0000
0000
,
1001
0000
0000
1100
0000
0000
0110
0000
0000
0000
0100
0000
0010
0000
0001
0000
,
0011
0000
0000
1001
0000
0000
1100
0000
0000
0000
0000
0000
1000
0000
0010
0000
,
1010
0000
0000
1001
0000
0000
0101
0000
0000
0000
1000
0000
0001
0000
0100
0000
,
1001
0000
0000
0110
0000
0000
1001
0000
0000
0000
0001
0000
1000
0000
0100
0000
,
0020
0000
0000
0000
0000
0031
1000
0001
,
0200
0000
0000
0010
0000
0000
0010
0000
0300
0000
1000
0001
1000
0000
0001
0000
,
1000
0000
0000
0001
0000
0000
1000
0000
0010
1000
0010
1000
0001
0100
0001
0100
,
0010
0000
0000
0010
0000
0000
0010
0000
0100
0001
0100
0001
1000
0010
1000
0010
,
1000
0000
0000
0010
0000
0000
1000
0000
0001
0010
0100
1000
0001
0100
0001
1000
,
0001
0000
0000
0001
0000
0000
0001
0000
2000
0000
0000
0000
3002
0000
0000
0000
,
1003
0000
0000
1000
0000
0000
1000
0000
0001
0100
0001
0100
0001
0100
0001
0100
,
0001
0000
0000
0100
0000
0000
0001
0000
1000
0010
1000
0010
1000
0010
1000
0010
,
1000
0000
0000
0001
0000
0000
0001
0000
1000
0010
0100
0001
0100
0010
0100
0001
,
0100
0000
0000
0001
0000
0000
1000
0000
0001
1000
0100
1000
0001
1000
0100
1000
,
0001
0000
0100
0010
0000
0010
0100
0000
0002
0000
0000
0000
0100
0000
0000
0000
,
0020
0000
0033
0000
0011
0000
1000
0010
,
0100
0000
0001
0100
0000
0100
0001
0000
2000
0000
0000
0000
0001
0000
0000
0000
,
0020
0000
3030
0000
2000
0000
3010
0100
,
0001
0000
1000
0010
0000
0100
0001
0000
2000
0000
0000
0000
0010
0000
0000
0000
,
0002
0000
3003
0000
2000
0000
3001
0100
,
0020
0000
0000
0100
0000
0000
0100
0000
0130
0000
0000
0000
0002
0000
0000
0000
,
1000
0000
0000
1000
0000
0000
1000
0000
2003
0000
0000
0000
0000
0000
0000
0000
,
3002
0000
0000
0100
0000
0000
0100
0000
0003
0000
0001
0000
0010
0000
0000
0000
,
0011
0000
0000
0110
0000
0000
0110
0000
1001
0000
0000
0000
1000
0000
0000
0000
,
1001
0000
0000
0000
;

//---------------dance-single - Blank----------------
#NOTES:
     dance-single:
     Blank:
     Easy:
     2:
     0.194,0.228,0.009,0.320,0.000:
0000
0000
0000
0000
,
1000
0000
0000
0000
,
0001
0000
0000
0000
,
1000
0000
0000
0000
,
0100
0000
0010
0000
,
1000
0000
0000
0000
,
0001
0000
0000
0000
,
2000
0000
0000
3000
,
0002
0000
1003
0000
,
0200
0000
0000
0000
,
0320
0000
0000
0000
,
0032
0000
0000
1003
,
2000
0000
3010
0100
,
0001
0000
1000
0001
,
0200
0000
1300
1000
,
0001
0000
0100
0010
,
2000
0000
3001
0100
,
0010
0000
1000
0001
,
0200
0000
0310
1000
,
0002
0000
1000
1000
,
2003
0000
0010
3010
,
0020
0000
0000
0000
,
0230
0000
0000
0000
,
0301
0000
1000
0000
,
0100
0000
0010
0000
,
0001
0000
1000
0000
,
0000
0002
2003
3200
,
0310
0000
0001
0000
,
1000
0000
0001
0000
,
0100
0000
0001
0000
,
2000
0000
0000
0000
,
3001
0000
0000
1000
0000
0000
0000
0000
,
0001
0000
0000
0100
0000
0000
0000
0000
,
0010
0000
0000
1000
0000
0000
0000
0000
,
0001
0000
0000
0100
0000
0000
0000
0000
,
0010
0000
0000
1000
0000
0000
0000
0000
,
0100
0000
0000
0010
0000
0000
0000
0000
,
2000
0000
0000
0001
,
3002
0000
0000
0000
,
0203
0000
0310
0000
,
2000
0000
3001
0000
,
0200
0000
0310
0000
,
1000
0000
0001
1000
,
0002
0000
1003
0000
,
0200
0000
0310
0000
,
2000
0000
3001
0100
,
0020
0000
1030
0001
,
2000
0000
0100
0100
,
3200
0000
0010
0010
,
0320
0000
0001
0001
,
0032
0000
0203
0000
,
0320
0000
0100
0100
,
0230
0000
0302
0000
,
0003
0200
0000
0000
,
0320
0000
0000
0000
,
1030
0000
0000
0000
,
0001
0000
1000
0001
,
1001
0000
0000
0000
;

//---------------dance-single - Blank----------------
#NOTES:
     dance-single:
     Blank:
     Medium:
     5:
     0.348,0.405,0.275,0.471,0.080:
0000
0000
0000
0000
,
1000
0000
1000
0001
,
0100
0000
0010
1000
,
1001
0000
0010
1000
,
0001
0000
0000
1000
0000
0000
0001
0000
1000
0000
0000
0000
1001
0000
0000
0000
,
1000
0000
0000
0001
0000
0000
1000
0000
0002
0000
0000
0000
0000
0000
0000
0000
,
1003
0000
0000
0010
0000
0000
0100
0000
0020
0000
0000
0000
0000
0000
0000
0000
,
1030
0000
0000
1000
0000
0000
1000
0000
0002
0000
0000
0000
2003
0000
0000
0000
,
3002
0000
0203
0000
,
0310
0000
0000
1000
0000
0000
0010
0000
2000
0000
0000
0000
0000
0000
0000
0000
,
3001
0000
0000
0010
0000
0000
0001
0000
2000
0000
0000
0000
0000
0000
0000
0000
,
3001
0000
0000
1000
0000
0000
0001
0000
2000
0000
0000
0000
3100
0000
0000
0000
,
0220
0000
0000
0330
2002
0000
0000
3003
,
1000
0000
0000
1000
0000
0000
1000
0000
0200
0000
0000
0000
0320
0000
0000
0000
,
0032
0000
0200
0003
,
0310
0000
0000
1000
0000
0000
0010
0000
1000
0000
0000
0000
0001
0000
0000
0000
,
2000
0000
3200
0320
,
0031
0000
0000
0100
0000
0000
0010
0000
0100
0000
0000
0000
0001
0000
0000
0000
,
0200
0000
0000
0000
0310
0000
1000
0001
,
0020
0000
0032
0203
,
0310
0000
0000
0010
0000
0000
0010
0000
1000
0000
0000
0000
0001
0000
0000
0000
,
2002
0100
0000
3003
,
0220
0000
0000
0330
,
2000
0000
3002
0000
,
0203
0000
0320
0000
,
2030
0000
0000
0000
3001
0000
1000
0001
,
0000
1000
0100
0010
,
0002
0000
0203
0000
,
0320
0000
2030
0000
,
3002
0000
0000
0000
1003
0000
0100
1000
,
0000
0000
0000
0000
,
1001
0000
0000
1001
0000
0000
1001
0000
0000
0000
0000
0000
0000
0000
0000
0000
,
0110
0000
0000
0110
0000
0000
0110
0000
0000
0000
0000
0000
0000
0000
0000
0000
,
0011
0000
0000
0011
0000
0000
0011
0000
0000
0000
0000
0000
0000
0000
0000
0000
,
1010
0000
0000
1010
0000
0000
1010
0000
0000
0000
0000
0000
0000
0000
0000
0000
,
1001
0000
0000
1001
0000
0000
1001
0000
0000
0000
0000
0000
0000
0000
0000
0000
,
0110
0000
0000
0011
0000
0000
0110
0000
0000
0000
0000
0000
0000
0000
0000
0000
,
0000
0000
0000
0001
,
1000
1000
0000
0000
,
0001
0000
1000
0001
2000
0000
0000
0000
,
3010
0000
0100
0000
0001
1000
0001
0100
,
0001
0000
0010
0000
0100
1000
0100
0010
,
0100
0000
1000
0001
,
0100
0000
0010
0000
1000
0001
0100
0010
,
1000
0000
0001
0000
0100
0010
1000
0100
,
0010
0000
0010
0000
0010
0001
0100
0001
,
0020
0000
0230
0000
,
1300
0001
1000
0001
,
0200
0000
0320
0000
,
1030
0001
0100
0010
,
2002
3003
0220
0330
,
1000
0001
0100
0010
,
2000
0000
0000
0000
3002
0000
0200
0003
,
0320
0000
1000
1000
,
2030
0000
0001
0001
,
3002
0000
0000
0000
0000
0000
0000
0003
,
1001
0000
0000
0011
0000
0000
0001
0000
1001
0000
0000
0000
0110
0000
0000
0000
,
1001
0000
0000
0000
;

//---------------dance-single - Copied from Blank----------------
#NOTES:
     dance-single:
     Copied from Blank:
     Challenge:
     15:
     0.893,1.000,0.373,0.133,1.000:
0000
0000
0000
0000
,
1000
0000
1000
0001
0000
1000
0001
0000
1000
0010
1000
0010
0100
0001
0100
0001
,
1000
0000
0010
0100
0000
0010
0100
0000
0001
0010
0100
1000
0001
0100
0010
1000
,
0001
0000
0001
1000
0000
0001
1000
0000
0001
0100
0010
0100
0010
1000
0010
1000
,
0001
0000
0000
0101
0000
0000
1001
0000
1001
0000
0000
0000
1000
0001
1000
0000
,
0001
0000
1000
0100
0000
1000
0100
0000
0010
0001
0010
0001
0010
0001
0100
0001
,
1000
0000
0100
0010
0000
0001
0010
0000
0100
1000
0100
1000
0100
1000
0100
1000
,
0001
0000
0100
0010
0000
1000
0001
0000
1000
0010
1000
0010
0100
0001
0100
0001
,
1000
0000
0000
1100
0000
0000
0100
0010
0002
0000
0000
0000
0013
0000
0010
0000
,
0001
0000
1000
0010
0000
1000
0010
0000
0100
0000
0001
0000
1000
0000
0010
0000
,
0100
0000
0001
0100
0000
0001
0100
0000
0010
0000
1000
0000
0100
0000
0010
0000
,
0001
0000
0010
0100
0000
0010
0100
0000
1000
0000
1000
0000
0010
0000
0100
0000
,
0201
0000
0000
0000
0302
0000
1003
1000
,
0001
0000
1000
0100
0000
1000
0100
0000
0010
0001
0010
0100
1000
0010
0100
0001
,
1000
0000
0000
1001
0000
0000
1000
0100
0010
0001
0010
0100
1000
0010
0100
0001
,
0100
0000
0001
0100
0000
0100
0010
0000
1000
0000
0001
0100
0001
0100
0001
0000
,
1000
0000
0000
1001
0000
0000
1000
0010
2000
0000
0000
0000
3100
0000
0010
0000
,
0100
0000
0010
0100
0000
0010
0100
0000
1000
0010
1000
0010
0100
0001
0100
0001
,
0100
0000
0000
0110
0000
0000
0010
0100
0010
1000
0001
1000
0010
1000
0010
1000
,
0001
0000
0000
0001
0000
0000
0001
0000
0010
0100
1000
0100
0010
0001
1000
0001
,
1001
0000
0000
0101
0000
0000
0101
0000
0101
0000
0000
0000
1010
0000
0000
0000
,
1000
0100
1000
0100
1000
0100
0010
0100
0010
0100
0010
0001
0010
0001
0010
0001
0010
0000
0000
0000
0001
0000
0000
0000
0000
0000
1000
0000
0000
0000
0000
0000
,
0001
1000
0001
1000
0001
1000
0001
1000
0001
1000
0001
1000
0001
0000
0000
0000
0000
0000
0000
0000
1000
0000
0000
0000
0000
0000
0100
0000
0000
0000
0000
0000
,
1000
0001
1000
0001
1000
0001
1000
0001
1000
0001
1000
0001
1000
0001
1000
0001
1000
0000
0000
0000
0000
0000
1000
0000
0000
0000
0000
0000
0001
0000
0000
0000
,
1000
0001
1000
0001
1000
0001
1000
0001
1000
0001
1000
0001
1000
0001
1000
0001
1000
0000
0000
0000
0000
0000
1000
0000
0000
0000
0000
0000
0100
0000
0000
0000
,
0010
0001
0010
0001
0010
0100
0010
0100
0010
0100
1000
0100
0010
0100
0010
0100
0020
0000
0000
0000
0000
0000
0000
0000
0031
0000
0000
0000
0100
0000
0000
0000
,
0000
0000
0000
0000
0000
0000
0000
0000
1000
0100
0010
0001
1000
0100
0010
0001
1000
0000
0000
0000
0000
0000
0100
0000
0000
0000
0000
0000
0100
0000
0000
0000
,
1000
0010
0100
0010
1000
0010
0100
0010
1000
0001
0100
0010
0100
0001
0100
0010
0100
0010
1000
0010
0100
0010
1000
0001
1000
0001
1000
0001
1000
0001
1000
0001
,
0010
0100
1000
0001
0010
0100
1000
0001
0100
0001
0100
0010
1000
0010
1000
0010
2000
0000
0000
0000
0000
0000
0000
0000
0000
0000
0000
0000
0000
0000
0000
0000
,
3001
0000
0000
0000
0000
0000
0010
0000
0000
0000
0000
0000
0100
0000
0000
0000
0000
0000
0010
0000
0000
0000
0000
0000
0100
0000
0000
0000
0000
0000
0010
0000
0000
0000
0000
0000
0100
0000
0000
0000
0000
0000
1000
0000
0000
0000
0000
0000
0001
0000
0000
0000
0000
0000
1000
0000
0000
0000
0000
0000
0001
0000
0000
0000
0000
0000
1000
0000
0000
0000
0000
0000
0001
0000
0000
0000
0000
0000
0100
0000
0000
0000
0000
0000
0001
0000
0000
0000
0000
0000
0100
0000
0000
0000
0000
0000
0002
0000
0000
0000
0000
0000
0000
0000
0000
0000
0000
0000
0000
0000
0000
0000
0000
0000
0000
0000
0000
0000
0000
0000
0000
0000
0000
0000
0000
0000
0000
0000
0000
0000
0000
0000
0000
0000
0000
0000
0000
0000
0000
0000
0000
0000
0000
0000
0000
0000
0000
0000
0000
0000
0000
0000
0000
0000
0000
0000
0000
0000
0000
0000
0000
0000
0000
0000
0000
0000
0000
0000
0000
0000
0000
0000
0000
0000
0000
0000
0003
0000
0000
0000
0000
0000
0000
0000
0000
0000
0000
0000
0000
0000
0000
0000
,
0001
0010
0100
1000
0001
0010
0001
1000
0100
1000
0001
1000
0001
1000
0001
1000
0001
0000
0000
0000
1000
0000
0100
0000
0010
0000
0001
0000
1000
0000
0000
0000
,
1001
0000
0000
0110
0000
0000
1001
0000
0000
0000
1000
0100
1000
0000
0100
0000
,
1100
0000
0000
0110
0000
0000
2001
0000
0000
0000
0000
0000
3001
0000
0000
0000
,
1001
0000
0000
1100
0000
0000
0110
0000
0000
0000
0100
0000
0010
0000
0001
0000
,
0011
0000
0000
1001
0000
0000
1100
0000
0000
0000
0000
0000
1000
0000
0010
0000
,
1010
0000
0000
1001
0000
0000
0101
0000
0000
0000
1000
0000
0001
0000
0100
0000
,
1001
0000
0000
0110
0000
0000
1001
0000
0000
0000
0001
0000
1000
0000
0100
0000
,
0020
0000
0000
0000
0000
0031
1000
0001
,
0200
0000
0000
0010
0000
0000
0010
0000
0300
0000
1000
0001
1000
0000
0001
0000
,
1000
0000
0001
0100
0000
0001
1000
0000
0010
1000
0010
1000
0001
0100
0001
0100
,
0010
0000
0100
0010
0000
0100
0001
0000
0100
0001
0100
0001
1000
0010
1000
0010
,
1000
0000
0010
1000
0000
0010
1000
0000
0001
0010
0100
1000
0001
0100
0001
1000
,
0001
0000
0000
0001
0000
0000
0001
0000
1000
0100
0010
0001
0010
0100
1000
0001
,
1000
0000
0001
1000
0000
0001
1000
0000
0001
1000
0010
0100
0001
1000
0001
0100
,
0010
0000
1000
0100
0000
0010
0001
0000
1000
0010
1000
0010
1000
0010
1000
0010
,
0100
0000
0001
1000
0000
1000
0001
0000
1000
0010
0100
0001
0100
0010
0100
0001
,
0100
0000
0000
0001
0000
0000
1000
0000
0001
1000
0100
1000
0001
1000
0100
1000
,
0001
0000
0100
0010
0000
0010
0100
0000
0001
0010
0100
1000
0100
0010
0001
0010
,
0022
0000
0033
0000
0011
0000
1000
0010
,
0100
0000
0001
0100
0000
0100
0001
0000
1000
0100
0010
0001
0010
0100
1000
0001
,
0010
0000
0000
0011
0000
0000
1000
0001
2000
0000
0000
0000
3010
0000
0100
0000
,
0001
0000
1000
0010
0000
0100
0001
0000
1000
0100
0010
0001
0010
0100
1000
0010
,
0100
0000
0000
0110
0000
0000
0001
1000
0002
0000
0000
0000
1003
0000
0100
0000
,
0020
0000
0000
0100
0000
0000
0100
0000
0130
0001
0010
0100
1000
0100
0010
0001
,
1000
0000
0000
1000
1100
0000
0100
0000
0010
0001
0010
0100
1000
0100
0010
0001
,
1000
0000
0100
0010
0000
0001
1000
0000
0100
0010
0001
0010
0100
0010
0001
0100
,
0101
0000
0000
0110
0000
0000
0110
0000
1001
1000
0100
1000
1100
0010
0001
0010
,
1001
0000
0000
0000
;

//---------------dance-single - ----------------
#NOTES:
     dance-single:
     :
     Beginner:
     1:
     0.091,0.127,0.009,0.018,0.000: // measure 1
0000
0000
0000
0000
,  // measure 2
1000
0000
0000
0000
,  // measure 3
0001
0000
0000
0000
,  // measure 4
0100
0000
0000
0000
,  // measure 5
0010
0000
0010
0000
,  // measure 6
0100
0000
0000
0000
,  // measure 7
0001
0000
0000
0000
,  // measure 8
1000
0000
0000
0000
,  // measure 9
0100
0000
0100
0000
,  // measure 10
0010
0000
0000
0000
,  // measure 11
0001
0000
0000
0000
,  // measure 12
1000
0000
0000
0000
,  // measure 13
0100
0000
0000
0000
,  // measure 14
0020
0000
0030
0000
,  // measure 15
0010
0000
0010
0000
,  // measure 16
0200
0000
0300
0000
,  // measure 17
0001
0000
0001
0000
,  // measure 18
1000
0000
0000
0000
,  // measure 19
0001
0000
0001
0000
,  // measure 20
1000
0000
0000
0000
,  // measure 21
0010
0000
0000
0000
,  // measure 22
0100
0000
0000
0000
,  // measure 23
0001
0000
0000
0000
,  // measure 24
1000
0000
0000
0000
,  // measure 25
0001
0000
0000
0000
,  // measure 26
0100
0000
0000
0000
,  // measure 27
1000
0000
0000
0000
,  // measure 28
0001
0000
0000
0000
,  // measure 29
1000
0000
0000
0000
,  // measure 30
0010
0000
0000
0000
,  // measure 31
1000
0000
0000
0000
,  // measure 32
0001
0000
0000
0000
,  // measure 33
1000
0000
0000
0000
,  // measure 34
0100
0000
0000
0000
,  // measure 35
0010
0000
0000
0000
,  // measure 36
0001
0000
0000
0000
,  // measure 37
1000
0000
0000
0000
,  // measure 38
0001
0000
0000
0000
,  // measure 39
1000
0000
0000
0000
,  // measure 40
0001
0000
1000
0000
,  // measure 41
0001
0000
1000
0000
,  // measure 42
0100
0000
0010
0000
,  // measure 43
0100
0000
0000
0000
,  // measure 44
0001
0000
1000
0000
,  // measure 45
0001
0000
1000
0000
,  // measure 46
0001
0000
1000
0000
,  // measure 47
0001
0000
0000
0000
,  // measure 48
0010
0000
0000
0000
,  // measure 49
0100
0000
0000
0000
,  // measure 50
1000
0000
0000
0000
,  // measure 51
0001
0000
0000
0000
,  // measure 52
1000
0000
0000
0000
,  // measure 53
0001
0000
0000
0000
,  // measure 54
1000
0000
0000
0000
,  // measure 55
0001
0000
0000
0000
,  // measure 56
1000
0000
0000
0000
,  // measure 57
0001
0000
0001
0000
,  // measure 58
1001
0000
0000
0000
;
