#TITLE:FLOWER;
#SUBTITLE:;
#ARTIST:DJ YOSHITAKA;
#TITLETRANSLIT:;
#SUBTITLETRANSLIT:;
#ARTISTTRANSLIT:;
#GENRE:;
#CREDIT:Frozen_Heat/Azn_Punk_07/GuardianFrozen;
#MENUCOLOR:#3b45ff;
#METERTYPE:DDR;
#BANNER:FLOWER-bn.png;
#BACKGROUND:FLOWER-bg.png;
#LYRICSPATH:;
#CDTITLE:!cdtitle.png;
#MUSIC:FLOWER.mp3;
#OFFSET:-0.743;
#SAMPLESTART:6.240;
#SAMPLELENGTH:11.100;
#SELECTABLE:YES;
#LISTSORT:;
#DISPLAYBPM:173.000:86.000;
#BPMS:0.000=173.000,16.000=86.500,31.000=692.000,35.000=173.000,127.000=346.000,128.000=173.000,228.000=692.000,252.000=346.000,256.000=173.000;
#STOPS:127.000=0.173
;
#BGCHANGES:;
#ATTACKS:;

//---------------dance-single - ----------------
#NOTES:
     dance-single:
     :
     Hard:
     9:
     0.562,0.774,0.024,0.088,0.509: // measure 1
1000
0000
1100
0000
0010
0001
0100
0000
,  // measure 2
0010
1000
0001
1000
0010
1000
0100
0000
,  // measure 3
0010
0000
0011
0000
1000
0100
1000
0100
,  // measure 4
0020
0000
0000
0130
,  // measure 5
0001
0000
0010
0100
0000
0000
0010
0001
0000
0000
0010
0100
0000
0000
0010
0001
,  // measure 6
0000
0000
0001
1000
0000
0000
1000
0010
0000
0000
1000
0100
0000
0000
1000
0010
,  // measure 7
0100
0000
0010
0100
0000
0000
0100
1000
0000
0000
0100
0001
0000
0000
0100
0010
,  // measure 8
1000
0000
0001
0010
0000
0010
0001
0100
0000
0010
0000
1000
0200
0000
0000
0000
,  // measure 9
0000
0000
0000
0300
,  // measure 10
0100
0000
0000
0000
0010
0000
0000
0000
0001
1000
0000
0000
0010
0000
0000
0000
,  // measure 11
0100
0000
0000
0000
0001
0000
0000
0000
0010
0001
0000
0000
1000
0000
0000
0000
,  // measure 12
0010
0000
0000
0000
0100
0000
0000
0000
0001
0010
0000
0000
0100
0000
0000
0000
,  // measure 13
1000
0000
0000
0000
0010
0000
0000
0100
1000
0000
0000
0000
0100
0000
0000
0000
,  // measure 14
0001
0000
0010
0100
0000
0100
0000
1000
,  // measure 15
0010
0000
0100
0001
0000
0001
0000
0010
,  // measure 16
0100
0000
1000
0100
0000
1000
0000
0001
,  // measure 17
0100
0000
0001
1000
0000
1000
0000
0100
,  // measure 18
0010
0000
0001
1000
0000
0000
0010
0100
,  // measure 19
0000
0000
0001
0010
0000
0000
0100
1000
,  // measure 20
0010
0000
0100
0001
0000
0000
1000
0100
,  // measure 21
0000
0000
0010
0001
0000
0000
0100
0010
,  // measure 22
1000
0000
0000
0100
0000
0000
1000
0000
0000
0000
0000
0000
0001
0000
0100
0000
,  // measure 23
0001
0000
0000
0010
0000
0000
0001
0000
0000
0000
0000
0000
0100
0000
0010
0000
,  // measure 24
1000
0000
0000
0100
0000
0000
0010
0000
0000
0000
0000
0000
0001
0000
1000
0000
,  // measure 25
0001
0000
0000
0100
0000
0000
0010
0000
1000
0000
0000
0001
0000
0000
1000
0000
,  // measure 26
0100
0000
0000
0010
0000
0000
0001
0000
0000
1000
0000
0001
1000
0000
0000
0000
,  // measure 27
0010
0000
0000
0100
0000
0000
0001
0000
0000
1000
0000
0001
1000
0000
0000
0000
,  // measure 28
0100
0000
0000
0010
0000
0000
0001
0000
0000
0100
0000
0001
1000
0000
0100
0000
,  // measure 29
0010
0000
0000
0100
0000
0000
1000
0000
0000
0010
0000
0100
0001
0000
0000
0001
,  // measure 30
1000
0000
0100
0000
0001
0000
0000
0001
1000
0000
0100
0000
0010
0000
0000
0010
,  // measure 31
0001
0000
0100
0000
1000
0000
0000
1000
0001
0000
0100
0000
0010
0000
0000
0010
,  // measure 32
1000
0100
0001
0100
1000
0010
0001
0000
,  // measure 33
1000
0000
0000
0001
0000
0000
0110
0000
0000
0001
0000
0000
1000
0000
0001
0000
,  // measure 34
0010
0000
0001
0010
0000
0000
0001
0000
0100
0000
0000
0000
0010
0000
1000
0000
,  // measure 35
0001
0000
1000
0100
0000
0000
0010
0000
0100
1000
0000
0000
0100
0000
0010
0000
,  // measure 36
0001
0000
1000
0001
0000
0000
0100
0000
0010
0000
0000
0000
1000
0000
0001
0000
,  // measure 37
0010
0000
0100
0010
0000
0000
0001
0000
1000
0000
0010
0100
0000
0100
0000
0000
,  // measure 38
0001
0000
1000
0001
0000
0000
0010
0000
0100
0000
0000
0000
0010
0000
0001
0000
,  // measure 39
1000
0000
0010
0100
0000
0001
0000
1000
0100
0000
0000
0000
0100
0010
0100
0000
,  // measure 40
0010
0000
0001
0100
0000
0010
0000
1000
0100
0000
0000
0000
0010
0000
0001
0000
,  // measure 41
0010
0000
0000
0100
0000
0000
1000
0000
0001
1000
0001
0000
0100
0000
0001
0000
,  // measure 42
0010
0000
1000
0010
0000
0100
0000
0010
0001
0000
0000
0001
0100
0000
0001
0010
,  // measure 43
0001
0000
1000
0010
0000
0100
0000
0001
1000
0000
0000
1000
0010
0000
0001
0000
,  // measure 44
0010
0000
0100
0001
0000
0100
0000
0010
1000
0000
0000
1000
0100
0000
0010
0000
,  // measure 45
0100
0000
0100
1000
0000
0001
0000
0100
0001
0000
0010
0100
0000
0010
0100
0000
,  // measure 46
1000
0100
0001
0100
1000
0100
0001
0100
,  // measure 47
1000
0010
0001
0010
1000
0010
0001
0010
,  // measure 48
1000
0100
0010
0001
0100
0010
1000
0001
,  // measure 49
0010
0000
0000
0000
1000
1000
0001
0001
,  // measure 50
1000
0000
0000
0100
0000
0000
0001
0000
0000
1000
0000
0000
0100
0000
0001
0000
,  // measure 51
2000
0000
0000
0000
,  // measure 52
3001
0000
0000
0100
0000
0000
1000
0000
0000
0001
0000
0000
0100
0000
1000
0000
,  // measure 53
0002
0000
0000
0000
,  // measure 54
0103
0000
0000
0010
0000
0000
0001
0000
0000
0100
0000
0000
0010
0000
0001
0000
,  // measure 55
0200
0000
0000
0000
,  // measure 56
0310
0000
0000
1000
0000
0000
0100
0000
0000
0010
0000
0000
1000
0000
0100
0000
,  // measure 57
0020
0000
0000
0000
,  // measure 58
0230
0000
0000
0000
,  // measure 59
0000
0000
0000
0000
,  // measure 60
0000
0000
0000
0000
,  // measure 61
0000
0000
0000
0000
,  // measure 62
0000
0000
0000
0000
,  // measure 63
0000
0000
0000
0000
,  // measure 64
0000
0000
0000
0000
,  // measure 65
0301
0000
1000
0000
,  // measure 66
0100
0000
0010
0000
,  // measure 67
0100
0000
1000
0000
,  // measure 68
0001
0000
0100
1000
,  // measure 69
0010
0100
0001
1000
,  // measure 70
0100
0010
0001
1000
,  // measure 71
0001
0100
0010
1000
,  // measure 72
0001
0000
0000
0001
0000
0000
1000
0000
0000
1000
0000
0000
0001
0000
1000
0000
,  // measure 73
0001
0000
0010
0100
0000
0100
0000
1000
0001
1000
0000
0000
0001
0100
0001
0000
,  // measure 74
1000
0000
0000
1000
0100
0000
0000
0100
0010
0000
0000
0010
0001
0000
0000
0001
,  // measure 75
0100
0000
0001
0100
0000
0100
0010
0000
0000
1000
0000
0100
0010
0000
0010
0100
,  // measure 76
0010
0000
0100
1000
0000
0000
0100
0000
0010
0000
0001
1000
0000
0001
1000
0000
,  // measure 77
0010
0000
0100
0001
0000
0001
0010
0000
0100
0000
1000
0000
0001
1000
0001
0000
,  // measure 78
0010
0000
0100
0010
0001
0010
0100
0000
0010
0000
0001
1000
0000
1000
0001
0000
,  // measure 79
0100
0000
0100
0001
0000
0001
1000
0000
0100
0000
0000
0010
0100
0000
1000
0001
,  // measure 80
1000
0000
0000
1000
0000
0000
1000
0000
0001
0000
0001
0000
0001
0000
0001
0000
,  // measure 81
0100
0000
0000
0001
0000
0000
0010
0000
0000
1000
0000
0000
0001
0000
0010
0000
,  // measure 82
0200
0000
0000
0000
,  // measure 83
1300
0000
0000
0010
0000
0000
0001
0000
0000
0100
0000
0000
0010
0000
0001
0000
,  // measure 84
2000
0000
0000
0000
,  // measure 85
3010
0000
0000
0100
0000
0000
0001
0000
0000
0010
0000
0000
1000
0000
0100
0000
,  // measure 86
0020
0000
0000
0000
,  // measure 87
0031
0000
0000
0100
0000
0000
1000
0000
0000
0010
0000
0000
0100
0000
1000
0000
,  // measure 88
0002
0000
0000
0000
0000
0000
0000
0003
;

//---------------dance-single - ----------------
#NOTES:
     dance-single:
     :
     Challenge:
     10:
     0.813,1.000,0.417,0.032,1.000: // measure 1
0000
0000
0000
0000
,  // measure 2
0000
0000
0000
0000
,  // measure 3
0000
0000
0000
0000
,  // measure 4
0000
0000
0000
0001
,  // measure 5
0010
0001
0100
1000
0000
0100
0001
0100
0000
0010
1000
0100
0000
1000
0001
1000
,  // measure 6
0000
0010
1000
0001
0000
0010
0100
1000
0000
0010
0100
0001
0000
0100
0010
1000
,  // measure 7
0100
1000
0010
0001
0000
0001
0010
0100
0000
0010
1000
0010
0000
0100
0001
0010
,  // measure 8
1000
0010
0100
1000
0000
0100
0010
0001
0000
1000
0000
0010
0200
0000
0000
0000
,  // measure 9
0000
0000
0000
0300
,  // measure 10
0100
0000
0000
0000
0001
0000
0000
0000
1000
0000
0000
0100
0000
0000
1000
0000
,  // measure 11
0010
0000
0000
0000
0100
0000
0000
0000
0001
0000
0000
0010
0000
0000
0100
0000
,  // measure 12
0010
0000
0000
0000
0001
0000
0000
0000
0100
0000
0000
1000
0000
0000
0100
0000
,  // measure 13
0010
0000
0000
0000
1000
0000
0000
0000
0100
0000
0000
0001
0000
0000
0100
0000
,  // measure 14
0010
0000
0000
0000
0001
0000
1000
0000
0000
0000
0010
0000
0000
0100
0000
0000
,  // measure 15
0001
0000
0000
0000
0001
0000
1000
0000
0000
0000
0100
0000
0000
0010
0000
0000
,  // measure 16
0100
0000
0000
0000
1000
0000
0010
0000
0000
0000
0100
0000
0000
0010
0000
0000
,  // measure 17
1000
0000
0000
0000
1000
0000
0001
0000
0000
0000
0010
0000
0000
0001
0000
0000
,  // measure 18
0100
0001
0010
0100
0000
0010
0001
1000
,  // measure 19
0001
0100
1000
0100
0000
0010
1000
0100
,  // measure 20
1000
0001
0010
1000
0000
0010
0100
1000
,  // measure 21
0010
0001
0010
0100
0000
0001
1000
0100
,  // measure 22
1000
0000
0001
0000
0100
0000
0001
0000
0000
0000
0010
0000
0000
0100
0000
0000
,  // measure 23
0010
0000
0001
0000
1000
0000
0010
0000
0000
0000
0100
0000
0000
0010
0000
0000
,  // measure 24
1000
0000
0100
0000
0001
0000
0100
0000
0000
0000
0010
0000
0000
0001
0000
0000
,  // measure 25
1000
0010
0001
0010
1000
0100
0010
0001
,  // measure 26
0100
0000
0001
1000
0000
0000
1010
0000
0000
0000
0100
0000
0010
0000
1000
0000
,  // measure 27
0100
0000
1000
0001
0000
0000
0011
0000
0000
0000
0100
0000
0010
0000
1000
0000
,  // measure 28
0010
0000
0100
0010
0000
0010
0001
0000
0000
0000
0010
0000
1000
0000
0001
0000
,  // measure 29
0010
0000
0001
0100
0000
0100
0010
0000
0000
0000
0100
0000
0001
0000
1000
0000
,  // measure 30
0010
0000
1000
0100
0000
1000
0100
0000
0010
0000
0001
0100
0000
0001
0100
0000
,  // measure 31
0010
0000
1000
0001
0000
1000
0001
0000
0010
0000
0001
1000
0000
0001
1000
0000
,  // measure 32
0010
1000
0010
0000
0100
0000
0001
1000
0001
0000
0010
0000
0100
0000
0000
0000
,  // measure 33
0010
0000
0000
0011
0000
0000
0100
0000
0000
1100
0000
0000
1001
0000
0100
0000
,  // measure 34
0010
0000
0010
1000
0000
1000
0100
0010
0001
1000
0000
1000
0001
0000
0100
0001
,  // measure 35
0100
0000
0001
1000
0000
1000
0001
0010
0100
1000
0000
0100
0010
0001
1000
0010
,  // measure 36
0001
0000
0010
0100
0000
0001
0010
1000
0010
0100
0000
1000
0100
0000
0010
0001
,  // measure 37
1000
0000
1000
0001
0000
1000
0001
1000
0010
0100
0001
0010
0000
0100
1000
0100
,  // measure 38
0010
0000
0010
0001
0000
0001
1000
0001
0010
0100
0000
0010
0100
1000
0001
0100
,  // measure 39
1000
0000
0100
0001
0000
0100
0010
0100
0010
1000
0000
1000
0001
0010
0100
0010
,  // measure 40
0001
0000
0001
1000
0000
1000
0100
0010
0100
1000
0000
0001
1000
0000
0001
0000
,  // measure 41
0100
0000
0100
0010
0000
0010
1000
0000
0001
0010
0100
1000
0000
0100
0010
0001
,  // measure 42
1000
0000
0001
1000
0000
0001
1000
0001
0100
0010
0000
0010
1000
0000
0001
1000
,  // measure 43
0100
0000
0100
0001
0000
0001
0100
0010
0001
1000
0000
1000
0100
0001
0100
0010
,  // measure 44
0001
0000
0001
0100
0000
0100
1000
0100
0010
1000
0010
0001
0010
0000
1000
0000
,  // measure 45
0100
0000
0100
1000
0000
1000
0010
0100
0001
0100
0001
0010
0000
1000
0010
0001
,  // measure 46
0010
0000
0010
0100
0000
0100
1000
0001
1000
0010
0000
0100
0010
0000
1000
0001
,  // measure 47
0010
0000
0100
0010
0000
0010
0001
0100
0001
1000
0000
1000
0100
0001
0100
0010
,  // measure 48
0001
0000
0001
1000
0000
0010
1000
0100
1000
0010
0000
0100
0001
0000
0010
0000
,  // measure 49
1100
0000
1000
0100
0000
1000
0100
0000
0010
0001
0100
0010
0000
0001
0010
0100
,  // measure 50
0001
0000
0000
0011
0000
0000
0110
0000
0000
1100
0000
0000
1001
0000
0100
0000
,  // measure 51
0010
0000
1000
0000
0100
1000
0000
0100
0010
0000
0100
1000
0000
0010
0001
0000
,  // measure 52
1000
0000
0000
1010
0000
0000
0110
0000
0000
0101
0000
0000
1001
0000
0010
0000
,  // measure 53
0100
0000
0001
0000
0010
0001
0000
0010
0100
0000
0010
0001
0000
0100
1000
0000
,  // measure 54
0001
0000
0000
0101
0000
0000
0110
0000
0000
1010
0000
0000
1001
0000
0100
0000
,  // measure 55
0010
0000
1000
0000
0001
1000
0000
0100
0010
0000
0001
1000
0000
0010
0100
0000
,  // measure 56
0001
0000
0000
1100
0000
0000
0011
0000
0000
1001
0000
0000
0110
0000
1000
0000
,  // measure 57
0010
0000
1000
0000
0001
1000
0000
0000
0001
0000
0000
0010
0000
0000
0100
0000
,  // measure 58
0020
0000
0000
0000
,  // measure 59
0000
0000
0000
0000
,  // measure 60
0000
0000
0000
0000
,  // measure 61
0000
0000
0000
0000
,  // measure 62
0000
0000
0000
0000
,  // measure 63
0000
0000
0000
0000
,  // measure 64
0000
0000
0030
0000
,  // measure 65
0220
0000
0330
0000
,  // measure 66
0000
0000
0000
0000
,  // measure 67
0000
0000
0000
0000
,  // measure 68
0000
0000
0000
0000
,  // measure 69
1010
0100
0010
1000
,  // measure 70
0011
0100
0001
0010
,  // measure 71
1100
0010
0101
0010
,  // measure 72
1001
0000
0000
0110
0000
0000
0011
0000
0000
1010
0000
0000
1001
0000
0100
0000
,  // measure 73
0010
0000
0010
1000
0000
0010
1000
0010
0100
0001
0000
1000
0100
0010
0000
0100
,  // measure 74
1000
0000
0100
0010
0001
1000
0001
0010
0100
1000
0010
0100
0001
1000
0001
0010
,  // measure 75
0100
0000
0100
0010
0000
0010
0001
1000
0001
0100
0000
0010
1000
0000
0010
1000
,  // measure 76
0100
0000
1000
0010
0000
1000
0001
0100
0001
1000
0100
0010
0000
0100
1000
0100
,  // measure 77
0010
0000
0010
0001
0000
1000
0100
0001
0100
0010
0001
1000
0100
0001
0000
0100
,  // measure 78
1000
0000
0100
0010
0001
1000
0010
0001
0010
0100
0010
1000
0001
0100
1000
0100
,  // measure 79
0010
0000
0010
1000
0000
1000
0010
0001
0010
0100
0001
0010
0100
1000
0000
0100
,  // measure 80
0001
0000
0000
0011
0000
0000
1100
0000
0001
1000
0001
1000
0000
0100
0010
0001
,  // measure 81
1000
0000
0000
1100
0000
0000
0110
0000
0000
0011
0000
0000
1001
0000
0010
0000
,  // measure 82
0100
0000
0001
0000
0010
0001
0000
0010
0100
0010
0100
0000
1000
0010
0100
0000
,  // measure 83
0001
0000
0000
0101
0000
0000
0110
0000
0000
1010
0000
0000
1001
0000
0100
0000
,  // measure 84
0010
0000
1000
0000
0100
1000
0000
0100
0010
0100
0010
0000
0100
1000
0010
0000
,  // measure 85
1000
0000
0000
1010
0000
0000
0110
0000
0000
0101
0000
0000
1001
0000
0010
0000
,  // measure 86
0100
0000
0001
0000
1000
0001
0000
0010
0100
1000
0001
0000
0010
0001
0100
0000
,  // measure 87
1000
0000
0000
0011
0000
0000
1100
0000
0000
1001
0000
0000
0110
0000
0001
0000
,  // measure 88
0100
0000
0001
0000
1000
0001
0000
0001
1000
0000
0000
1100
0000
0000
0101
0000
;

//---------------dance-single - ----------------
#NOTES:
     dance-single:
     :
     Medium:
     7:
     0.448,0.563,0.064,0.096,0.164: // measure 1
0001
0100
0010
1000
,  // measure 2
0001
0010
0001
0000
0200
0300
0000
0000
,  // measure 3
0010
0000
1000
0000
0100
1000
0100
0010
,  // measure 4
0200
0000
0000
0300
,  // measure 5
0000
0000
0000
1000
0000
0000
0000
0001
0000
0000
0000
0100
0000
0000
0000
0010
,  // measure 6
0000
0000
0000
1000
0000
0000
0000
0001
0000
0000
0000
0010
0000
0000
0100
0010
,  // measure 7
0001
0000
0000
1000
0000
0000
0000
0010
0000
0000
0000
0100
0000
0000
0010
1000
,  // measure 8
0100
0000
0000
0010
0000
0001
0000
1000
0000
0001
0000
1000
0200
0000
0000
0000
,  // measure 9
0000
0000
0000
0300
,  // measure 10
0100
0000
0000
0000
1000
0000
0000
0000
0010
0000
0000
0010
0000
0000
0000
0000
,  // measure 11
0100
0000
0000
0000
0001
0000
0000
0000
1000
0000
0000
1000
0000
0000
0000
0000
,  // measure 12
0001
0000
0000
0000
0010
0000
0000
0000
0100
0000
0000
0100
0000
0000
0000
0000
,  // measure 13
1000
0000
0000
0000
0010
0000
0000
0000
0001
0000
0000
0001
0000
0000
0000
0000
,  // measure 14
0010
0000
0000
0000
0100
0000
0000
0000
0001
0000
0000
1000
0000
0000
0001
0000
,  // measure 15
0000
0000
0000
0000
0010
0000
0000
0000
0100
0000
0000
1000
0000
0000
0001
0000
,  // measure 16
1000
0000
0000
0000
0010
0000
0000
0000
0001
0000
0000
0010
0000
0000
0100
0000
,  // measure 17
0000
0000
0000
0000
0001
0000
0000
0000
0010
0000
0000
0100
0000
0000
1000
0000
,  // measure 18
0010
0000
0100
0000
0001
1000
0001
0000
,  // measure 19
0010
0000
0100
0000
0010
0001
0100
0000
,  // measure 20
1000
0000
0100
0000
0010
1000
0001
0000
,  // measure 21
0010
0000
0100
0000
1000
0001
1000
0001
,  // measure 22
0010
0000
0000
0100
0000
0000
0010
0000
0000
0000
0000
0000
0001
0000
0000
0000
,  // measure 23
0100
0000
0000
0010
0000
0000
1000
0000
0000
0000
0000
0000
0001
0000
0000
0000
,  // measure 24
0010
0000
0000
0001
0000
0000
0100
0000
0000
0000
0000
0000
0010
0000
0000
0000
,  // measure 25
1000
0000
0000
0100
0000
0000
1000
0000
0001
0000
0000
0010
0001
0000
0010
0000
,  // measure 26
0001
0100
0001
0100
0001
0000
0010
0000
,  // measure 27
0100
1000
0100
1000
0100
0000
0010
0000
,  // measure 28
0001
0010
0001
0010
0001
0000
0100
0000
,  // measure 29
0010
1000
0010
1000
0010
0000
0100
0000
,  // measure 30
0001
0010
0001
0000
1000
0010
1000
0000
,  // measure 31
0010
0100
0010
0000
1000
0001
0010
0000
,  // measure 32
1000
0001
1000
0001
0010
0100
0010
0000
,  // measure 33
0001
0000
1000
0000
0001
1000
0001
0000
,  // measure 34
0100
0000
0100
0010
0001
0000
0001
0010
,  // measure 35
1000
0000
1000
0001
1000
0000
1000
0100
,  // measure 36
0010
0001
0010
0100
1000
0000
1000
0010
,  // measure 37
0001
0000
0010
0000
0100
0001
0100
0000
,  // measure 38
0001
0000
0001
0010
1000
0000
1000
0010
,  // measure 39
0100
1000
0010
0001
0010
0000
0010
0100
,  // measure 40
0001
0000
0001
1000
0001
0000
0001
0010
,  // measure 41
0100
1000
0100
0010
0001
0000
0001
0000
,  // measure 42
0100
0000
0100
0010
1000
0000
1000
0100
,  // measure 43
0010
0000
0000
0100
0000
0000
1000
0000
0001
0000
0000
0000
0001
0000
0100
0000
,  // measure 44
1000
0000
0000
0100
0000
0000
0010
0000
1000
0000
0000
0000
1000
0000
0001
0000
,  // measure 45
0010
0000
0000
0100
0000
0000
0010
0000
0001
0000
1000
0000
0001
0000
1000
0000
,  // measure 46
0010
0100
0010
0000
1000
0001
1000
0000
,  // measure 47
0001
0010
0001
0000
1000
0100
1000
0000
,  // measure 48
0010
1000
0010
0000
0100
0010
0100
0000
,  // measure 49
1001
0000
1001
0110
,  // measure 50
2000
0000
0000
0000
,  // measure 51
3001
0000
0000
0000
0010
0000
0000
0000
0001
0000
0000
1000
0000
0000
0001
0000
,  // measure 52
0200
0000
0000
0000
,  // measure 53
0310
0000
0000
0000
1000
0000
0000
0000
0001
0000
0000
0010
0000
0000
0100
0000
,  // measure 54
0020
0000
0000
0000
,  // measure 55
0130
0000
0000
0000
1000
0000
0000
0000
0010
0000
0000
1000
0000
0000
0010
0000
,  // measure 56
0002
0000
0000
0000
,  // measure 57
0013
0000
0000
0000
1000
0000
0000
0000
0100
0000
0000
0100
0000
0000
0100
0000
,  // measure 58
0200
0000
0000
0000
,  // measure 59
0000
0000
0000
0000
,  // measure 60
0000
0000
0000
0000
,  // measure 61
0000
0000
0000
0000
,  // measure 62
0000
0000
0000
0000
,  // measure 63
0000
0000
0000
0000
,  // measure 64
0000
0000
0000
0000
,  // measure 65
0300
0000
0000
0000
,  // measure 66
0000
0000
0000
0000
,  // measure 67
0000
0000
0000
0000
,  // measure 68
0000
0000
0000
0000
,  // measure 69
1000
1000
0000
0000
,  // measure 70
0001
0001
0000
0000
,  // measure 71
0100
0100
0010
0010
,  // measure 72
1100
0101
1010
0011
,  // measure 73
1000
0100
1000
0100
0010
0000
0001
1000
,  // measure 74
0001
0100
0001
0010
0100
0000
0010
0001
,  // measure 75
1000
0010
1000
0100
0001
0000
0001
0100
,  // measure 76
1000
0000
0001
0000
0100
0010
1000
0010
,  // measure 77
0100
0001
1000
0001
0010
0000
0100
0010
,  // measure 78
0001
1000
0001
0100
1000
0000
0100
0010
,  // measure 79
1000
0001
1000
0100
0010
0000
0001
1000
,  // measure 80
0001
0100
1000
0001
0010
1000
0010
0001
,  // measure 81
0020
0000
0000
0000
,  // measure 82
1030
0000
0000
0000
0001
0000
0000
0000
1000
0000
0000
0100
0000
0000
0010
0000
,  // measure 83
0002
0000
0000
0000
,  // measure 84
0103
0000
0000
0000
0010
0000
0000
0000
0001
0000
0000
0010
0000
0000
1000
0000
,  // measure 85
0200
0000
0000
0000
,  // measure 86
0310
0000
0000
0000
0001
0000
0000
0000
1000
0000
0000
0010
0000
0000
0100
0000
,  // measure 87
2000
0000
0000
0000
,  // measure 88
3010
0000
0000
0000
0100
0000
0000
0000
0001
0000
0000
1000
0000
0000
1001
0000
;

//---------------dance-single - ----------------
#NOTES:
     dance-single:
     :
     Beginner:
     2:
     0.133,0.209,0.000,0.016,0.000: // measure 1
0000
0000
0000
0000
,  // measure 2
0000
0000
0000
0000
,  // measure 3
0000
0000
0000
0000
,  // measure 4
0000
0000
0000
0000
,  // measure 5
1000
0000
0001
0000
,  // measure 6
0100
0000
0010
0000
,  // measure 7
2000
0000
3000
0000
,  // measure 8
0002
0000
0003
0000
,  // measure 9
0000
0000
0000
0000
,  // measure 10
0000
0000
1000
1000
,  // measure 11
0000
0000
0001
0001
,  // measure 12
0000
0000
0100
0100
,  // measure 13
0000
0000
0010
0010
,  // measure 14
0000
0000
1000
1000
,  // measure 15
0000
0000
0100
0100
,  // measure 16
0000
0000
0010
0010
,  // measure 17
0000
0000
0001
0001
,  // measure 18
0001
0000
0000
0000
,  // measure 19
0100
0000
0000
0000
,  // measure 20
0010
0000
0000
0000
,  // measure 21
1000
0000
0100
0000
,  // measure 22
1000
0000
0000
0000
,  // measure 23
0010
0000
0000
0000
,  // measure 24
0100
0000
0000
0000
,  // measure 25
0001
0000
1000
0000
,  // measure 26
0001
0001
0000
0000
,  // measure 27
0010
0010
0000
0000
,  // measure 28
0100
0100
0000
0000
,  // measure 29
1000
1000
0000
0000
,  // measure 30
0001
0000
0010
0000
,  // measure 31
0100
0000
1000
0000
,  // measure 32
0001
0001
0001
0000
,  // measure 33
1000
1000
1000
0000
,  // measure 34
0010
0000
0100
0000
,  // measure 35
0001
0000
1000
0000
,  // measure 36
0100
0000
0010
0000
,  // measure 37
0001
0000
1000
0000
,  // measure 38
0001
0000
0100
0000
,  // measure 39
0010
0000
1000
0000
,  // measure 40
0001
0000
1000
0000
,  // measure 41
0100
0000
0010
0000
,  // measure 42
0100
0000
1000
0000
,  // measure 43
0001
0000
0100
0000
,  // measure 44
0010
0000
1000
0000
,  // measure 45
0001
0000
0010
0000
,  // measure 46
0100
0000
0010
0000
,  // measure 47
0001
0000
1000
0000
,  // measure 48
0010
0000
0100
0000
,  // measure 49
0001
0000
0010
0000
,  // measure 50
0100
0000
0000
0000
,  // measure 51
0000
0000
0000
0000
,  // measure 52
0010
0000
0000
0000
,  // measure 53
0000
0000
0000
0000
,  // measure 54
0001
0000
0000
0000
,  // measure 55
0000
0000
0000
0000
,  // measure 56
1000
0000
0000
0000
,  // measure 57
0000
0000
0000
0000
,  // measure 58
0100
0000
0000
0000
,  // measure 59
0000
0000
0000
0000
,  // measure 60
0000
0000
0000
0000
,  // measure 61
0000
0000
0000
0000
,  // measure 62
0000
0000
0000
0000
,  // measure 63
0000
0000
0000
0000
,  // measure 64
0000
0000
0000
0000
,  // measure 65
0000
0000
0000
0000
,  // measure 66
0000
0000
0000
0000
,  // measure 67
0000
0000
0000
0000
,  // measure 68
0000
0000
0000
0000
,  // measure 69
0001
0000
0000
0000
,  // measure 70
0100
0000
0000
0000
,  // measure 71
1000
0000
0100
0000
,  // measure 72
0001
0000
0000
0000
,  // measure 73
0001
0000
0000
0000
,  // measure 74
0010
0000
0000
0000
,  // measure 75
0100
0000
0000
0000
,  // measure 76
1000
0000
0010
0000
,  // measure 77
0100
0100
0000
0000
,  // measure 78
0001
0001
0000
0000
,  // measure 79
1000
0000
0100
0000
,  // measure 80
0010
0010
0010
0000
,  // measure 81
0100
0000
0000
0000
,  // measure 82
0100
0000
0000
0000
,  // measure 83
0010
0000
0000
0000
,  // measure 84
0010
0000
0000
0000
,  // measure 85
0001
0000
0000
0000
,  // measure 86
0001
0000
0000
0000
,  // measure 87
1000
0000
0000
0000
,  // measure 88
1000
0000
0000
0000
;

//---------------dance-single - ----------------
#NOTES:
     dance-single:
     :
     Easy:
     5:
     0.328,0.458,0.136,0.152,0.000: // measure 1
0100
0000
0010
0000
,  // measure 2
0100
1000
0001
0000
,  // measure 3
0100
0000
0010
0000
,  // measure 4
1000
0001
0000
0000
,  // measure 5
1000
0010
0100
0001
,  // measure 6
0010
0100
0010
0001
,  // measure 7
1000
0010
0100
0010
,  // measure 8
1000
0001
0020
0230
,  // measure 9
0000
0000
0000
0300
,  // measure 10
0010
0001
0001
0100
,  // measure 11
0000
0010
1000
1000
,  // measure 12
0000
0001
0010
0010
,  // measure 13
0001
0100
0010
1000
,  // measure 14
0001
1000
0100
0100
,  // measure 15
0000
0010
0001
0001
,  // measure 16
0100
0010
0010
1000
,  // measure 17
0100
0010
0010
0001
,  // measure 18
1000
0000
0001
0000
,  // measure 19
0100
0001
0010
0000
,  // measure 20
0100
0000
1000
0000
,  // measure 21
0001
1000
0010
0100
,  // measure 22
0001
0000
1000
0000
,  // measure 23
0100
0010
0100
0000
,  // measure 24
1000
0000
0001
0000
,  // measure 25
0100
0001
0010
0100
,  // measure 26
0010
0001
1000
0000
,  // measure 27
0010
1000
0001
0000
,  // measure 28
0010
0100
1000
0000
,  // measure 29
0001
0100
0010
0000
,  // measure 30
1000
0001
1000
0001
,  // measure 31
0010
0100
0010
0100
,  // measure 32
1000
0100
1000
0000
0001
0100
0001
0000
,  // measure 33
1000
0100
0010
0001
,  // measure 34
1000
0010
1010
1010
,  // measure 35
0100
0001
0101
0101
,  // measure 36
0010
0001
1000
0001
,  // measure 37
0010
0100
0110
0000
,  // measure 38
0001
1000
1010
1001
,  // measure 39
0001
0100
0101
1001
,  // measure 40
0001
0010
0100
0010
,  // measure 41
0001
1000
0110
0000
,  // measure 42
0001
0100
0101
1010
,  // measure 43
0001
1000
1100
0011
,  // measure 44
1000
0001
0110
1001
,  // measure 45
1000
0001
1001
0000
,  // measure 46
1000
0010
1000
0000
1000
0001
1000
0000
,  // measure 47
1000
0100
1000
0000
1000
0001
1000
0000
,  // measure 48
0001
1000
0001
0000
0001
0010
0001
0000
,  // measure 49
0001
0100
0001
0000
0001
1000
0001
0000
,  // measure 50
0020
0000
0000
0030
,  // measure 51
0200
0000
0000
0300
,  // measure 52
2000
0000
0000
3000
,  // measure 53
0002
0000
0000
0003
,  // measure 54
0200
0000
0000
0300
,  // measure 55
0020
0000
0000
0030
,  // measure 56
2000
0000
0000
3000
,  // measure 57
0020
0000
0000
0030
,  // measure 58
0200
0000
0000
0000
,  // measure 59
0000
0000
0000
0000
,  // measure 60
0000
0000
0000
0000
,  // measure 61
0000
0000
0000
0000
,  // measure 62
0000
0000
0000
0000
,  // measure 63
0000
0000
0000
0000
,  // measure 64
0000
0000
0000
0000
,  // measure 65
0300
0000
0000
0000
,  // measure 66
0000
0000
0000
0000
,  // measure 67
0000
0000
0000
0000
,  // measure 68
0000
0000
0000
0000
,  // measure 69
0001
0000
0000
0000
,  // measure 70
1000
0000
0000
0000
,  // measure 71
0100
0000
0010
0000
,  // measure 72
0001
1000
0001
0000
,  // measure 73
1000
0010
0001
0010
,  // measure 74
1000
0100
0001
0100
,  // measure 75
1000
0100
1000
0000
1000
0001
1000
0000
,  // measure 76
0001
1000
0001
0000
0001
0100
0001
0000
,  // measure 77
0010
0100
1000
0010
,  // measure 78
0100
0001
1000
0100
,  // measure 79
0010
0001
0010
0000
0100
1000
0100
0000
,  // measure 80
0001
0100
0001
0000
1000
0010
1000
0000
,  // measure 81
0002
1000
0010
0103
,  // measure 82
2000
0000
0000
3000
,  // measure 83
0020
0100
0001
1030
,  // measure 84
0200
0000
0000
0300
,  // measure 85
2000
0010
0001
3010
,  // measure 86
0002
0000
0000
0003
,  // measure 87
0200
1000
0010
0301
,  // measure 88
0020
0000
0000
0000
0000
0000
0000
0030
;
