#TITLE:Evans;
#SUBTITLE:;
#ARTIST:DJ Yoshitaka;
#TITLETRANSLIT:;
#SUBTITLETRANSLIT:;
#ARTISTTRANSLIT:;
#CREDIT:;
#BANNER:bn.PNG;
#BACKGROUND:bg.PNG;
#LYRICSPATH:;
#CDTITLE:;
#MUSIC:Evans.ogg;
#OFFSET:-1.540;
#SAMPLESTART:61.160;
#SAMPLELENGTH:14.820;
#SELECTABLE:YES;
#BPMS:0.000=185.000;
#STOPS:279.750=0.324
;
#BGCHANGES:;

//---------------dance-single - ----------------
#NOTES:
     dance-single:
     :
     Hard:
     9:
     0.667,0.705,0.540,0.093,0.233:
0000
0000
0000
0000
,
0000
0000
0000
0000
,
0000
0000
0000
0000
,
0000
0000
0000
0000
,
1000
0100
1000
0000
0100
0000
0010
0000
,
0001
0010
0001
0100
0000
0010
0000
1000
,
0001
0010
0100
0000
1000
0010
0100
0000
,
0001
0000
1000
0000
0010
0000
1000
0000
0001
0000
0000
0010
0000
0000
0100
0000
,
1000
0000
1010
0010
0100
0000
0001
0000
,
0010
0001
0100
0010
0000
1000
0000
0100
,
0001
0000
0100
1000
0010
0000
0100
0000
,
0011
0011
0100
0000
1100
0000
1010
0000
,
0110
0000
0101
0001
0010
0000
0100
1000
,
1100
0100
0010
0000
0001
0000
1000
0010
,
1010
0010
0100
0000
0101
0001
0010
0000
,
0100
1000
0010
1000
0001
0010
0001
0100
,
0020
0000
0000
0000
,
0000
0000
0000
0000
0000
0000
0000
0030
,
1000
0000
0000
0010
0000
0000
0100
0000
0000
0001
0000
0000
0010
0000
0001
0000
,
0100
0000
0000
0010
0000
0000
1000
0000
0000
0100
0000
0000
0001
0000
0100
0000
,
1000
0000
0000
0010
0000
0000
0100
0000
0000
0001
0000
0000
0010
0000
1000
0000
,
0010
0000
0000
0001
0000
0000
0100
0000
0000
0010
0000
0000
1000
0000
0100
0000
,
0001
0000
0000
0100
0000
0000
1000
0000
0000
0010
0000
0000
0100
0000
0001
0000
,
0010
0000
0000
0100
0000
0000
1000
0000
0000
0010
0000
0000
1000
0000
0100
0000
,
0010
0000
0000
0001
0000
0000
0100
0000
0000
0010
0000
0000
1000
0000
0001
0000
,
0010
0000
0000
0001
0000
0000
0100
0000
0000
0010
0000
0000
1000
0000
0100
0000
,
0001
0100
0001
0100
2000
0000
3010
0000
,
1000
0010
0100
0010
2000
0000
3001
0000
,
0010
0001
0100
0001
0010
0100
1000
0100
,
0010
0001
1000
0010
2000
0000
3010
0100
,
0001
0010
0100
0010
0002
0000
0013
0100
,
1000
0010
1000
0100
2000
0000
3010
0100
,
0001
0010
0100
1000
0010
1000
0001
0100
,
0001
1000
0010
1000
0100
0001
0100
1000
,
1100
0000
0100
0000
0010
0000
0001
0010
,
0001
0000
0100
0000
0010
0000
1000
0010
,
1010
0000
0110
0000
0100
0000
0001
0100
,
0001
0000
0010
0000
0001
0000
0100
0010
,
0000
1000
0100
1000
0000
0001
0100
0001
,
0000
1000
0010
1000
0000
0001
0010
0001
,
0011
0001
0101
0100
,
0110
0010
1010
1000
,
0100
0010
0001
1000
0010
1000
0001
0010
,
0001
0100
1000
0100
0001
0010
1000
0010
,
0022
0000
0000
0033
,
0010
0000
0100
0000
1000
0000
0000
0001
0000
0000
1000
0000
1001
0000
0000
0000
,
1000
0000
0000
0010
0000
0000
1000
0000
0000
0001
0000
0000
0010
0000
0001
0000
,
0100
0000
0000
0010
0000
0000
1000
0000
0000
0100
0000
0000
0001
0000
0100
0000
,
1000
0000
0000
0010
0000
0000
0100
0000
0000
0001
0000
0000
0010
0000
0100
0000
,
1100
0000
1000
0000
0010
0000
0000
0000
0110
0000
0000
0101
0000
0000
0001
0000
,
1000
0000
1001
1000
0100
0000
0010
0001
,
0101
0000
0000
0001
0000
0000
0010
0000
0000
1000
0000
0000
0010
0000
0001
0000
,
0101
0000
0000
0100
0000
0000
0010
0000
0000
1000
0000
0000
0100
0000
0001
0000
,
0100
0001
0100
0000
1000
0000
0010
0000
0000
0000
0100
0000
0001
0000
1000
0000
,
0010
0000
0000
0000
1010
0000
0010
0000
0000
0100
0000
0000
0001
0000
0010
0000
,
1000
0000
0000
0010
0000
0000
0001
0000
0000
0100
0000
0000
0010
0000
1000
0000
,
0100
0000
0000
0001
0000
0000
0100
0000
0000
1000
0000
0000
0010
0000
0100
0000
,
0110
0000
0000
0000
0101
0000
0000
0000
0011
0000
0000
0110
0000
0000
0100
0000
,
1100
0000
0000
1000
0000
0000
0010
0000
1000
0000
0000
0000
0100
0000
0010
0000
,
0011
0000
0000
0001
0000
0000
0100
0000
0000
0010
0000
0000
1000
0000
0001
0000
,
0011
0000
0000
0010
0000
0000
0100
0000
0000
1000
0000
0000
0010
0000
1000
0000
,
0100
0010
0100
0010
0100
0000
0010
0000
0000
0000
0001
0000
1000
0000
0010
0000
,
1000
0000
1001
0001
0010
0000
0001
0000
,
0100
0110
1010
1100
,
0110
0000
0010
0000
0011
0000
0001
0100
,
0110
0000
0000
0000
1001
0000
0000
0000
1010
0000
0000
0101
0000
0000
0010
0000
,
1010
0000
0010
0100
0001
0000
0011
0000
,
0011
0001
0100
0110
,
1010
1000
1100
0100
,
0010
0000
0001
0000
0100
0000
0000
0010
0000
0000
1000
0000
0001
0000
0010
0000
,
0011
0000
0010
0000
0000
0100
0000
0000
1000
0000
0010
0000
1000
0000
0000
0001
,
0000
0000
0010
0000
0000
0001
0000
0000
1000
0000
0100
0000
0010
0000
0000
0001
,
0000
0000
0100
0000
0000
0010
0000
0000
1000
0000
0001
0000
0011
0000
0010
0000
,
0100
0000
1000
0001
0010
0001
1001
1000
,
0000
0010
0110
0100
0001
0010
0110
0100
,
0000
1000
1010
0010
0100
0001
0011
0001
,
0100
0010
0110
0010
1000
0100
0010
0001
,
1000
0010
0100
0001
1000
0010
0220
0000
,
0000
0000
0000
0000
,
0000
0000
0000
0330
;

//---------------dance-single - ----------------
#NOTES:
     dance-single:
     :
     Beginner:
     3:
     0.158,0.371,0.028,0.056,0.000:
0000
0000
0000
0000
,
0000
0000
0000
0000
,
0000
0000
0000
0000
,
0000
0000
0000
0000
,
1000
0000
0000
0000
,
0001
0000
0000
0000
,
0010
0000
0000
0000
,
0001
0000
0001
0000
,
0000
0001
0000
0000
,
1000
0000
0000
0000
,
0010
0000
0000
0000
,
0100
0000
0100
0000
,
0100
0100
0000
0000
,
0001
0000
0000
0000
,
0010
0000
0010
0000
,
0001
0000
0001
0000
,
2002
0000
0000
0000
,
0000
0000
0000
3003
,
1000
0000
0000
0000
,
0010
0000
0000
0000
,
1000
0000
0000
0000
,
0100
0000
0100
0000
,
0100
0000
0000
0000
,
0010
0000
0000
0000
,
0001
0000
0000
0000
,
0100
0000
0100
0000
,
0100
0000
0000
0000
,
0010
0000
0000
0000
,
1000
0000
0000
0000
,
0001
0000
0001
0000
,
0001
0000
0000
0000
,
1000
0000
0000
0000
,
0010
0000
0000
0000
,
0100
0000
0100
0000
,
0100
0000
0000
0000
,
0001
0000
0000
0000
,
0010
0000
0000
0000
,
0001
0000
0000
0000
,
1000
0000
1000
0000
,
1000
0000
1000
0000
,
0001
0000
0001
0000
,
0001
0000
0001
0000
,
1000
1000
1000
1000
,
0001
0001
0001
0001
,
2002
0000
0000
3003
,
1000
0000
1000
0000
,
1000
0000
0000
0000
,
0010
0000
0010
0000
,
0010
0000
0000
0000
,
0100
0000
0100
0000
,
0100
0000
0000
0000
,
0001
0000
0001
0000
,
0001
0000
0000
0000
,
0010
0000
0010
0000
,
0010
0000
0000
0000
,
0001
0000
0010
0000
,
0001
0000
0000
0000
,
1000
0000
0100
0000
,
1000
0000
0000
0000
,
0001
0000
0100
0000
,
0001
0000
0000
0000
,
0010
0000
0001
0000
,
0000
0010
0000
0000
,
0001
0000
0000
0000
,
1000
0000
1000
0000
,
1000
0000
0000
0000
,
0010
0000
0000
0000
,
0100
0000
0000
0000
,
0001
0000
0000
0000
,
1000
0000
1000
0000
,
1000
0000
0000
0001
,
0000
0001
0000
0001
,
0000
0000
0000
0010
,
0000
0010
0000
0010
,
0000
0000
0000
0100
,
0000
0100
0000
0100
,
0000
0000
0000
1000
,
1000
0001
0001
2002
,
0000
0000
0000
0000
,
0000
0000
0000
3003
;

//---------------dance-single - ----------------
#NOTES:
     dance-single:
     :
     Easy:
     5:
     0.335,0.371,0.028,0.047,0.000:
0000
0000
0000
0000
,
0000
0000
0000
0000
,
0000
0000
0000
0000
,
0000
0000
0000
0000
,
1000
0100
1000
0000
,
0001
0100
0001
0000
,
1000
0010
1000
0001
,
0010
0001
1000
0001
,
0000
1000
0001
0000
,
0010
0001
0100
0000
,
0010
1000
0100
0000
,
0010
0001
1000
0000
,
0010
1000
0010
0000
,
0100
0001
0100
0000
,
0010
1000
0100
0010
,
0001
1000
0010
0100
,
0002
0000
0000
0000
,
0000
0000
0000
0003
,
1000
0000
0010
0000
,
1000
0000
0001
0010
,
0001
0000
0100
0000
,
0001
0000
0100
0010
,
0100
0000
0010
1000
,
0010
0000
1000
0100
,
1000
0000
0010
1000
,
0100
0010
0001
0100
,
0010
0000
1000
0001
,
1000
0000
0001
0010
,
0001
0000
0100
0001
,
0100
0010
1000
0100
,
0010
0000
0001
1000
,
0001
0000
1000
0010
,
1000
0000
0001
0010
,
0001
0100
0010
1000
,
0100
0000
0010
0001
,
0010
0000
0001
0100
,
0001
0000
0100
0010
,
0100
0000
0010
1000
,
0010
0010
0100
0100
,
0001
0001
1000
1000
,
0100
0100
0100
0100
,
0010
0010
0010
0010
,
0001
1000
0010
1000
,
0001
0010
0001
1000
,
2002
0000
0000
3003
,
1000
0001
0010
0011
,
0001
0100
0010
0000
,
1000
0100
0010
0000
,
0001
1000
0010
0000
,
1000
0001
0010
0001
,
0100
0010
1000
0000
,
0010
0100
0001
0000
,
0010
0001
0100
0010
,
1000
0100
0001
0100
,
1000
0010
1000
0000
,
0001
0100
0001
0000
,
1000
0010
1000
0001
,
0010
0001
1000
0100
,
1000
0001
0100
0000
,
0010
1000
0100
0000
,
0010
0001
1000
0010
,
1000
0001
0010
0001
,
1000
0001
0100
0000
,
0010
1000
0100
0010
,
0001
0000
1000
0000
,
0010
1000
0001
0100
,
0001
0010
0001
0000
,
1000
0010
1000
0000
,
0001
0100
0001
1000
,
0010
1000
0100
0010
,
0001
1000
0010
1000
,
0001
0010
0001
0100
,
0010
1000
0100
0001
,
0100
1000
0010
0100
,
0001
0010
0001
0100
,
0010
1000
0100
0010
,
0010
0001
0001
1000
,
0010
0100
0001
2002
,
0000
0000
0000
0000
,
0000
0000
0000
3003
;

//---------------dance-single - ----------------
#NOTES:
     dance-single:
     :
     Medium:
     7:
     0.529,0.594,0.167,0.047,0.000: // measure 1
0000
0000
0000
0000
,  // measure 2
0000
0000
0000
0000
,  // measure 3
0000
0000
0000
0000
,  // measure 4
0000
0000
0000
0000
,  // measure 5
1000
0000
0100
0010
0100
0000
0010
0000
,  // measure 6
0001
0010
0001
0000
0100
0000
0010
0000
,  // measure 7
1000
0100
1000
0000
0001
0100
0001
0000
,  // measure 8
1000
0010
1000
0000
0001
0000
0010
0001
,  // measure 9
0010
0011
0001
0100
,  // measure 10
0010
1000
0010
0000
1000
0000
0100
1000
,  // measure 11
0100
0010
0001
1000
,  // measure 12
0010
0100
0010
0000
0100
0000
0001
0000
,  // measure 13
1000
0000
0010
1000
0010
0000
0100
0000
,  // measure 14
0001
0100
0001
0000
0010
0000
0001
0000
,  // measure 15
0100
0010
0100
0000
0010
1000
0010
0000
,  // measure 16
1000
0100
1000
0000
0001
1000
0001
1000
,  // measure 17
0002
0000
0000
0000
,  // measure 18
0000
0000
0000
0003
,  // measure 19
1000
0000
0010
0000
0100
0000
0001
0100
,  // measure 20
0001
0000
0010
0000
0001
0000
0100
0010
,  // measure 21
0100
0000
0010
0000
1000
0000
0100
1000
,  // measure 22
0100
0000
0010
0000
0001
0000
1000
0001
,  // measure 23
1000
0000
0010
0000
1000
0000
0001
0100
,  // measure 24
0001
0000
0100
0000
0010
0000
1000
0100
,  // measure 25
1000
0000
0010
0000
0100
0000
0001
0010
,  // measure 26
0001
0000
0100
0000
0010
0100
0010
0100
,  // measure 27
0010
0000
1000
0000
0100
0000
0010
0001
,  // measure 28
0010
0000
0001
0000
0100
0000
0010
1000
,  // measure 29
0010
0000
1000
0000
0100
0000
0010
0001
,  // measure 30
0010
0000
0001
0000
0100
0000
0010
0100
,  // measure 31
0010
0000
1000
0000
0100
0000
1000
0001
,  // measure 32
1000
0000
0010
0000
1000
0000
0001
0010
,  // measure 33
0001
0000
0100
0000
0010
0000
1000
0100
,  // measure 34
0010
0001
0010
0001
0010
0100
1000
0100
,  // measure 35
1000
0000
0100
0000
0010
0000
0001
0010
,  // measure 36
0001
0000
0100
0000
0010
0000
1000
0010
,  // measure 37
1000
0000
0010
0000
0100
0000
0001
0100
,  // measure 38
0001
0000
0100
0000
0010
0000
1000
0100
,  // measure 39
0000
0000
0010
0001
0000
0000
1000
0010
,  // measure 40
0000
0000
0100
0001
0000
0000
0100
0010
,  // measure 41
1000
1000
0010
0010
,  // measure 42
0100
0100
0001
0001
,  // measure 43
0010
0001
0100
0000
0010
1000
0100
0000
,  // measure 44
0010
0001
1000
0010
0100
0001
1000
0002
,  // measure 45
2000
0000
0000
3003
,  // measure 46
1000
0001
1000
0000
0001
0000
1001
0000
,  // measure 47
1000
0000
0010
0000
0100
0000
0001
0010
,  // measure 48
0100
0000
1000
0000
0010
0000
1000
0001
,  // measure 49
0010
0000
0001
0000
1000
0000
0010
0100
,  // measure 50
0001
0000
1000
0000
0100
0000
0010
0001
,  // measure 51
1000
0000
1001
0000
1000
0000
0010
0100
,  // measure 52
0001
0000
0100
0000
0010
0000
1000
0100
,  // measure 53
0001
0000
0100
0000
1000
0000
0010
0100
,  // measure 54
0001
0010
0001
0010
0100
1000
0100
1000
,  // measure 55
0100
0000
0010
0000
0001
0000
1000
0010
,  // measure 56
1000
0000
0001
0000
0100
0000
0001
0010
,  // measure 57
0001
0000
0100
0000
0010
0000
1000
0100
,  // measure 58
1000
0000
0010
0000
0100
0001
0100
0001
,  // measure 59
0100
0000
0010
0000
1000
0000
0001
1000
,  // measure 60
0001
0000
1000
0000
0100
0000
0010
0001
,  // measure 61
0010
0000
0001
0000
0100
0000
0001
0100
,  // measure 62
0010
1000
0100
0010
0001
1000
0010
0100
,  // measure 63
0001
0101
0001
0100
,  // measure 64
0010
0110
1010
1100
,  // measure 65
0110
0010
0011
0001
,  // measure 66
0101
0110
1010
1000
,  // measure 67
1100
0000
0100
0010
0100
0000
0010
0000
,  // measure 68
0011
0001
0100
0010
,  // measure 69
0110
0010
1010
1000
,  // measure 70
0100
0010
0100
0000
0010
0000
0001
0010
,  // measure 71
0011
0000
0001
0000
0100
0001
0100
0000
,  // measure 72
0010
0000
1000
0000
0100
1000
0100
0000
,  // measure 73
0010
0000
0001
0000
1000
0001
1000
0000
,  // measure 74
0010
0000
1000
0000
0100
1000
0010
1000
,  // measure 75
0010
0000
0100
0001
0100
0000
0001
0010
,  // measure 76
0001
0000
1000
0010
1000
0000
0001
0010
,  // measure 77
0100
1000
0010
0100
0001
1000
0010
0001
,  // measure 78
0010
1000
0100
0001
0100
1000
2002
0000
,  // measure 79
0000
0000
0000
0000
,  // measure 80
0000
0000
0000
3003
;
