#TITLE:Deep Roar;
#SUBTITLE:;
#ARTIST:NAOKI feat. Tatsh;
#TITLETRANSLIT:;
#SUBTITLETRANSLIT:;
#ARTISTTRANSLIT:;
#CREDIT:;
#BANNER:;
#BACKGROUND:;
#LYRICSPATH:;
#CDTITLE:;
#MUSIC:Deep Roar.mp3;
#OFFSET:-0.985;
#SAMPLESTART:90.420;
#SAMPLELENGTH:12.000;
#SELECTABLE:YES;
#BPMS:0.000=165.020;
#STOPS:;
#BGCHANGES:;

//---------------dance-single - ----------------
#NOTES:
     dance-single:
     :
     Beginner:
     2:
     0.208,0.267,0.051,0.119,0.000:
0000
0000
0000
0000
,
0000
0000
0000
0000
,
0000
0000
0000
0000
,
0000
0000
0000
0000
,
1000
0000
0000
0000
,
0001
0000
0000
0000
,
1000
0000
0001
0000
,
1000
0001
1000
0001
,
2002
0000
0000
0000
,
0000
0000
0000
3003
,
1000
0000
0100
0000
,
0010
0000
0001
0000
,
1000
0000
0001
0000
,
0100
0000
0010
0000
,
1000
0000
0100
0000
,
0010
0000
0001
0000
,
1000
0000
0001
0000
,
0100
0010
0100
0010
,
0100
0000
0001
0000
,
1000
0000
0100
0000
,
1000
0000
0001
0000
,
0010
0000
0001
0000
,
0100
0000
0001
0000
,
1000
0000
0010
0000
,
1000
0000
0001
0000
,
1000
0001
1000
0001
,
2002
0000
0000
0000
,
3003
0000
1000
0000
,
1000
0000
0001
0000
,
0001
0000
1000
0000
,
0100
0000
0010
0000
,
0001
0000
0100
0000
,
0100
0000
0010
0000
,
0010
0000
0100
0000
,
0001
0000
1000
0000
,
0100
0000
2000
0000
,
0000
0000
3002
0000
,
0000
0000
0203
0000
,
0010
0010
0020
0000
,
0330
0000
1000
0000
,
0100
0000
0010
0000
,
0100
0000
0010
0000
,
0001
0000
0010
0000
,
0100
0000
1000
0000
,
0001
0000
1000
0000
,
0010
0000
1000
0000
,
0001
0000
1000
0000
,
0100
0000
1000
0000
,
0010
0000
0100
0000
,
0001
0000
0010
0000
,
0001
0000
0100
0000
,
0010
0000
2002
0000
,
0000
0000
0000
0000
,
3003
0000
1000
0000
,
0001
0000
0100
0100
,
0100
0000
0001
0000
,
1000
0000
0010
0010
,
0010
0000
1000
0000
,
0001
0000
0010
0010
,
0010
0000
0001
0000
,
1000
0000
0100
0100
,
0100
0000
1000
0000
,
0100
0000
0010
0010
,
0010
0000
0001
0000
,
0010
0000
0100
0100
,
0100
0000
1000
0000
,
0010
0000
0100
0100
,
0100
0000
0001
0000
,
0100
0000
0010
0100
,
0010
0100
0020
0000
,
1000
0000
1000
0000
,
1030
0000
0200
0000
,
0001
0000
0001
0000
,
0301
0000
1000
0000
,
0001
0000
1000
0000
,
1001
0000
0100
0000
,
0010
0000
0100
0000
,
0110
0000
2002
0000
,
0000
0000
3003
0000
;

//---------------dance-single - ----------------
#NOTES:
     dance-single:
     :
     Easy:
     4:
     0.361,0.468,0.281,0.272,0.000:
0000
0000
0000
0000
,
0000
0000
0000
0000
,
0000
0000
0000
0000
,
0000
0000
0000
0000
,
1001
0000
0000
0000
,
0110
0000
0000
0000
,
1001
0000
0110
0000
,
1001
1001
0110
0110
,
2002
0000
0000
0000
,
0000
0000
0000
3003
,
1000
0100
0001
0100
,
1000
0010
0001
0000
,
1000
0100
0001
0010
,
0001
0100
1001
0000
,
0100
0100
1000
1000
,
0010
0100
0001
0010
,
0001
0001
0100
0100
,
0110
0101
0110
1010
,
1001
0010
0001
0010
,
1000
0100
0001
0000
,
1000
0010
0001
0100
,
0001
0010
1001
0000
,
1000
1000
0001
0001
,
0100
0010
1000
0001
,
1001
0000
0110
0000
,
2000
3200
0320
0032
,
2000
0000
0000
0000
,
0000
3003
1000
0100
,
0001
0000
1000
0100
,
0001
0000
1000
0010
,
0001
0000
1000
0010
,
0001
0000
1000
0100
,
1001
0000
1000
0100
,
1001
0000
1000
0010
,
1001
0000
1000
0010
,
1001
0000
0200
0000
,
0000
0000
2300
0000
,
3002
0000
0000
0000
0203
0000
0000
0010
,
0000
0302
2003
0000
,
0100
3001
0010
0001
,
0100
0010
1000
0010
,
0100
0001
1000
0100
,
0001
0100
1000
0010
,
0001
0010
2000
0000
,
3002
0000
0023
0000
,
0230
0000
2300
0000
,
3002
0000
0023
0000
,
0230
0000
1300
0010
,
1000
0010
0100
0001
,
0100
0001
0010
0100
,
1000
0100
0010
0001
,
1000
0010
2002
0000
,
0000
0000
0000
0000
,
0000
3003
0100
1000
,
0001
0010
0001
0100
,
1100
0000
0100
0001
,
0010
0100
1000
0100
,
0101
0000
0100
1000
,
0010
0001
0010
1000
,
1010
0000
1000
0100
,
0001
0100
1000
0010
,
0011
0000
0010
1000
,
0100
1000
0001
1000
,
1001
0000
0001
0100
,
0010
1000
0001
1000
,
1001
0000
1000
0100
,
0010
0001
0010
0100
,
0110
0000
0001
0010
,
0100
1000
0100
0010
,
0110
0101
1002
0100
,
1000
0103
2000
0010
,
0001
3010
0002
1000
,
0100
0013
2000
0100
,
0010
3001
0200
0010
,
1000
0301
0020
0001
,
1000
0130
2000
0100
,
0010
0100
0001
0010
,
0001
3020
0200
0000
,
0000
0000
0330
0000
;

//---------------dance-single - ----------------
#NOTES:
     dance-single:
     :
     Medium:
     6:
     0.464,0.462,0.340,0.196,0.000:
0000
0000
0000
0000
,
0000
0000
0000
0000
0000
0000
0000
1000
,
0001
0000
0000
0000
,
0000
0000
0000
0000
,
1001
0000
0000
0000
,
0000
0000
0000
0000
0000
0000
0000
1000
,
0001
0000
0000
1000
0001
0000
0000
1000
,
0001
0000
0100
0000
0010
1000
0010
2000
,
0020
0000
0000
0000
,
0000
0000
0000
3030
,
0100
1001
0010
1001
,
0100
1000
0010
0000
0100
0001
0010
0000
,
0002
1003
2000
3001
,
0010
0001
0100
1000
,
0010
0100
0011
1100
,
0001
0000
1000
0000
0101
0000
1000
0100
,
0001
0000
1000
0100
1000
0000
0010
1000
,
0001
0000
0010
0001
1000
0000
0100
1000
,
0100
1001
0010
1001
,
0010
0000
0001
1000
0200
0000
1300
0000
,
0002
0013
0200
1300
,
0010
1000
0001
1000
0100
0000
1001
0000
,
0010
0001
0101
1010
,
0100
1000
1010
0101
,
0020
0001
0100
1030
,
1000
0010
1000
0000
0010
0001
0010
0000
,
2002
0000
0000
0000
,
0000
0000
3003
0000
1000
0100
0001
0000
,
0100
0000
0000
0000
1000
0100
0001
0000
,
0100
0000
0000
0000
1000
0010
0001
0000
,
0010
0000
0000
0000
1000
0010
0001
0000
,
0010
0000
0000
0000
1000
0100
0001
0000
,
0100
0000
0000
0000
1000
0100
0001
0000
,
0100
0000
0000
0000
1000
0010
0001
0000
,
0010
0000
0000
0000
1000
0010
0001
0000
,
0010
0000
2000
0100
,
0001
3020
0100
1030
,
0200
0010
2300
0010
,
0001
0010
3200
0010
,
0001
0000
0310
0000
1000
0100
1000
0000
,
0001
0100
0001
0000
1000
0100
0001
0000
,
1000
0100
0001
0000
1000
0010
0100
0000
,
0001
0100
0010
0000
1000
0000
0101
0000
,
0010
0000
1100
0000
0010
0000
1000
0100
,
1000
0000
0100
0010
0100
0000
0010
0001
,
0010
0000
0001
1000
0001
0000
1000
0100
,
1000
0000
0010
1000
0010
0000
0100
0001
,
0100
0000
0010
0001
0010
0000
0001
0000
,
2000
3001
0010
0001
,
0200
1300
0010
1000
,
1001
0110
0001
0100
,
0010
1000
2002
0000
,
0000
0000
0000
0000
,
0000
0000
3003
0000
1001
0000
0100
1000
,
0010
0000
0100
0001
0010
0000
0001
1000
,
0100
0000
0000
0000
1001
0000
0010
0001
,
0100
0000
0010
1000
0100
0000
1000
0010
,
0100
0000
0000
0000
1001
0000
0001
0100
,
0010
0000
0100
0001
0010
0000
0001
1000
,
0100
1001
0200
1000
,
0001
1300
0020
0001
,
1000
0000
0031
0000
1001
0000
0100
1000
,
0100
0000
0001
0100
0001
0000
1000
0100
,
1000
0000
0000
0000
1001
0000
0010
1000
,
0010
0000
0001
0010
0001
0000
1000
0010
,
1000
0000
0000
0000
0110
0000
1000
0001
,
0100
0000
0001
1000
0100
0000
1000
0001
,
0010
0000
0001
1000
0010
0000
1000
0100
,
1000
0000
0001
0100
0002
0000
0010
0000
,
1000
0103
1001
1100
,
1001
0000
1001
0101
,
1001
0000
1001
1010
,
1001
0000
1001
0011
,
1001
0000
2001
0100
,
0001
0100
0010
0001
,
0010
0000
3001
0000
0010
0001
0010
0001
,
0010
0001
0010
0000
0100
1000
0100
1000
,
0100
1000
0100
0000
1001
0000
0000
0000
;

//---------------dance-single - ----------------
#NOTES:
     dance-single:
     :
     Hard:
     8:
     0.542,0.566,0.128,0.085,0.255: // measure 1
0000
0000
0000
0000
,  // measure 2
0000
0000
0000
0000
,  // measure 3
0000
0000
0000
0000
,  // measure 4
0000
0000
0000
0000
,  // measure 5
1001
0100
0010
1000
,  // measure 6
0001
0000
0100
0000
1000
0000
0001
1000
,  // measure 7
1100
0000
0001
1000
1010
0000
0001
1000
,  // measure 8
1001
0000
0110
0000
1000
0001
0100
0010
,  // measure 9
2000
0000
0000
0000
,  // measure 10
3001
0000
0000
0000
0000
0000
0000
0000
1000
0000
0000
0100
0000
0000
0010
0000
,  // measure 11
0001
0000
0000
0010
0000
0000
0001
0000
0010
0000
0000
0100
0000
0000
0010
0000
,  // measure 12
0100
0000
0000
1000
0000
0000
0100
0000
1000
0000
0000
0001
0000
0000
1000
0000
,  // measure 13
0001
0100
0010
0000
0100
0010
1000
0000
,  // measure 14
0001
1000
0100
1000
0010
0100
0101
0000
,  // measure 15
0010
0001
0100
0001
1000
0001
0100
0000
,  // measure 16
0001
1000
0010
1000
0100
1000
1001
0000
,  // measure 17
0100
0000
0000
1000
0000
0000
0001
0000
0100
0000
0000
0001
0000
0000
1000
0000
,  // measure 18
0100
1000
0010
0100
0001
0100
1000
0100
,  // measure 19
0001
0000
0000
1000
0000
0000
0001
0000
1000
0000
0000
0100
0000
0000
1000
0000
,  // measure 20
0100
0000
0000
0010
0000
0000
0100
0000
0010
0000
0000
0001
0000
0000
0010
0000
,  // measure 21
0001
1000
0100
0010
0001
1000
0010
0000
,  // measure 22
0100
0001
0100
0010
1000
0100
0110
0000
,  // measure 23
0001
0000
1000
0000
0100
0000
0000
1000
0000
0000
0001
0000
0100
0000
0000
0000
,  // measure 24
1000
0000
0001
0000
0100
0000
0000
0001
0000
0000
1000
0000
0100
0000
0000
0000
,  // measure 25
1000
0000
0000
0010
0000
0000
0100
0000
0001
0000
0000
0010
0000
0000
0100
0000
,  // measure 26
1000
0010
0100
0001
1000
0010
0001
0010
,  // measure 27
2000
0000
0000
0000
,  // measure 28
0001
0000
0000
0000
3001
0000
0000
0000
0010
0000
0001
0000
1000
0000
0000
0100
,  // measure 29
0000
0000
1000
0000
0000
0000
0000
0000
0010
0000
0001
0000
1000
0000
0000
0100
,  // measure 30
0000
0000
1000
0000
0000
0000
0000
0000
0001
0000
0100
0000
0010
0000
0000
1000
,  // measure 31
0000
0000
0100
0000
0000
0000
0000
0000
0001
0000
0100
0000
0010
0000
0000
1000
,  // measure 32
0000
0000
0100
0000
0000
0000
0000
0000
1000
0000
0100
0000
0010
0000
0000
0100
,  // measure 33
0000
0000
0010
0000
0000
0000
0000
0000
1000
0000
0100
0000
0010
0000
0000
0100
,  // measure 34
0000
0000
0010
0000
0000
0000
0000
0000
0001
0000
1000
0000
0010
0000
0000
1000
,  // measure 35
0000
0000
0100
0000
0000
0000
0000
0000
0001
0000
1000
0000
0010
0000
0000
1000
,  // measure 36
0000
0100
0000
0000
2001
0000
0100
0000
,  // measure 37
0010
3200
1000
0010
,  // measure 38
0302
0000
1003
0000
0020
0000
0000
0001
,  // measure 39
0000
1000
0130
0000
,  // measure 40
0011
0000
0000
0000
1010
0000
0000
0000
1001
0000
1000
0000
0100
0000
0000
1000
,  // measure 41
0000
0000
0010
0000
0100
0000
0000
0000
0001
0000
1000
0000
0100
0000
0000
1000
,  // measure 42
0000
0000
0010
0000
0100
0000
0000
0000
0001
0000
0100
0000
0010
0000
0000
0100
,  // measure 43
0000
0000
0001
0000
1000
0000
0000
0000
0100
0000
1000
0000
0010
0000
0000
0100
,  // measure 44
0000
0000
0001
0000
1000
0000
0100
0000
1000
0000
0000
0010
0000
0000
0100
0000
,  // measure 45
0010
0000
0000
1000
0000
0000
0001
0000
0100
0000
0000
0010
0000
0000
0100
0000
,  // measure 46
0110
0000
0000
0000
0000
0000
0010
0000
0100
0000
0000
0001
0000
0000
1000
0000
,  // measure 47
0100
0000
0000
0010
0000
0000
0100
0000
1000
0000
0000
0010
0000
0000
0100
0000
,  // measure 48
0000
0000
0001
0000
1000
0000
0100
0000
0010
0000
0001
0000
0100
0000
0000
0010
,  // measure 49
0000
0000
0100
0000
0001
0000
1000
0000
0100
0000
1000
0000
0010
0000
0000
0100
,  // measure 50
0000
0000
0001
0000
0010
0000
0100
0000
1000
0000
0001
0000
0100
0000
0000
0010
,  // measure 51
0000
0000
0100
0000
0001
0000
0010
0000
0001
0000
1000
0000
0100
0000
0000
1000
,  // measure 52
0000
0100
0010
0001
2000
0000
0000
0000
,  // measure 53
0000
0000
0000
3000
,  // measure 54
0001
0000
0000
1000
0000
0000
0001
0000
1000
0000
0000
0100
0000
0000
0001
0000
,  // measure 55
0100
0000
0000
1000
0000
0000
0001
0000
0100
0000
0000
0010
0000
0000
1000
0000
,  // measure 56
0001
0000
0100
0000
0010
0000
0000
0000
1000
0000
0000
0010
0000
0000
0001
0000
,  // measure 57
0010
0000
0000
1000
0000
0000
0100
0000
0010
0000
0000
0100
0000
0000
1000
0000
,  // measure 58
0100
0000
0010
0000
0001
0000
0000
0000
1000
0000
0000
0100
0000
0000
0001
0000
,  // measure 59
0100
0000
0000
1000
0000
0000
0010
0000
0100
0000
0000
0001
0000
0000
1000
0000
,  // measure 60
0100
0000
0000
0000
1000
0000
0001
0000
1000
0000
0000
0010
0000
0000
0001
0000
,  // measure 61
0010
0000
0000
1000
0000
0000
0100
0000
0010
0000
0001
0000
0100
0000
0000
0000
,  // measure 62
0010
0000
0100
0000
0101
0000
0000
0000
1000
0000
0000
0010
0000
0000
0001
0000
,  // measure 63
1000
0000
0000
0100
0000
0000
0001
0000
1000
0000
0000
0100
0000
0000
0010
0000
,  // measure 64
0001
0000
1000
0000
0010
0000
0000
0000
1000
0000
0000
0010
0000
0000
0001
0000
,  // measure 65
1000
0000
0000
0100
0000
0000
0001
0000
1000
0000
0000
0010
0000
0000
0100
0000
,  // measure 66
0001
0000
1000
0000
0100
0000
0000
0000
0001
0000
0000
0010
0000
0000
1000
0000
,  // measure 67
0001
0000
0000
0100
0000
0000
1000
0000
0001
0000
0000
0100
0000
0000
0010
0000
,  // measure 68
1000
0000
0000
0000
0001
0000
0100
0000
0010
0000
0000
1000
0000
0000
0001
0000
,  // measure 69
0100
0000
0000
1000
0000
0000
0100
0000
0001
0000
0010
0000
0200
0000
0000
0000
,  // measure 70
1000
0000
0301
0000
1000
0100
0010
0001
,  // measure 71
1000
0100
0010
0000
0001
0010
0100
1000
,  // measure 72
0001
0010
0100
0000
1000
0010
0100
0001
,  // measure 73
1000
0010
0100
0000
0001
0100
0010
1000
,  // measure 74
0001
0100
0010
0000
0100
0001
0010
0100
,  // measure 75
1000
0001
0010
0000
0100
1000
0001
0100
,  // measure 76
0010
1000
0100
0000
1000
0001
0100
0010
,  // measure 77
0100
0001
1000
0100
0010
0001
0100
0010
,  // measure 78
1000
0001
0100
0000
2002
0000
0000
0000
,  // measure 79
0000
3003
0000
0000
;
