#TITLE:カリビアン;
#SUBTITLE:;
#ARTIST:GUzzle;
#TITLETRANSLIT:CARIBIAN;
#SUBTITLETRANSLIT:;
#ARTISTTRANSLIT:;
#CREDIT:DMAxel;
#BANNER:CARIBIAN.png;
#BACKGROUND:CARIBIAN-bg.png;
#LYRICSPATH:CARIBIAN.lrc;
#CDTITLE:pop'n music.png;
#MUSIC:CARIBIAN.mp3;
#OFFSET:-12.580;
#SAMPLESTART:60.044;
#SAMPLELENGTH:12.000;
#SELECTABLE:YES;
#BPMS:0.000=106.000;
#STOPS:;
#BGCHANGES:;

//---------------dance-single - ----------------
#NOTES:
     dance-single:
     :
     Hard:
     8:
     0.514,0.522,0.163,0.098,0.460: // measure 1
1000
0000
0000
1000
0000
0000
0001
0000
0100
0000
0010
0000
0100
0000
0000
0000
,  // measure 2
0001
0000
0000
0001
0000
0000
1000
0000
0010
0000
0100
0000
0010
0000
0000
0000
,  // measure 3
1000
0000
0000
1000
0000
0000
0001
0000
0100
0000
0010
0000
0100
0000
0000
0000
,  // measure 4
1001
0000
0000
0000
1001
0000
0000
0000
0010
0100
0010
0100
0010
0000
0000
0000
,  // measure 5
1000
0000
0000
1010
0000
0000
0010
0000
0100
0000
0000
0101
0000
0000
0000
0000
,  // measure 6
1000
0100
0001
0100
1000
0001
0010
0100
,  // measure 7
2000
0000
0000
0010
0000
0000
3010
0000
0100
0000
0001
0000
0000
0000
0000
0000
,  // measure 8
0002
0000
0000
0100
0000
0000
0103
0000
0010
0000
1000
0000
0000
0000
1000
0000
,  // measure 9
0001
0000
0000
0101
0000
0000
0100
0000
0010
0000
0000
1010
0000
0000
0000
0000
,  // measure 10
0001
0100
1000
0100
0001
1000
0100
0010
,  // measure 11
0002
0000
0000
0010
0000
0000
0013
0000
0100
0000
1000
0000
0000
0000
0001
0000
,  // measure 12
2000
0000
0000
0100
0000
0000
3100
0000
0010
0000
0000
0000
0001
0000
0000
0000
,  // measure 13
1001
0000
1000
0100
1000
0000
0001
0000
0100
0010
0000
0100
0010
0000
1000
0100
,  // measure 14
0000
1000
0100
0000
0010
0001
0010
0001
0010
0000
0100
0000
1000
0001
1000
0000
,  // measure 15
0002
0000
0000
0100
0000
0000
1003
0000
0100
0000
0010
0000
0001
0000
0001
0000
,  // measure 16
2000
0000
0000
0100
0000
0000
3001
0000
0010
0000
0100
0000
1000
0000
1000
0000
,  // measure 17
1001
0000
0001
0010
0001
0000
1000
0000
0010
0100
0010
0100
0010
0000
1000
0000
,  // measure 18
0001
0000
1000
0100
1000
0000
0001
0000
0100
0010
0100
0010
0100
0000
0001
0000
,  // measure 19
1000
0000
0100
1000
0000
0100
1000
0000
0001
0000
0010
0000
0100
0000
1000
0000
,  // measure 20
0001
0000
0010
0001
0000
0010
0001
0000
1000
0000
0100
0000
0010
0000
0001
0000
,  // measure 21
0200
0000
0000
0000
1000
0000
0000
0000
1300
0000
0000
0001
1000
0001
1000
0001
,  // measure 22
0100
0000
0001
0000
1000
0000
1000
0000
0010
0100
0010
0100
0001
0000
0010
0000
,  // measure 23
0200
0000
0000
1000
0000
0000
1300
0000
0010
0000
0100
0000
0001
0000
1000
0000
,  // measure 24
0010
1000
0010
0000
1000
0000
0001
0000
0100
0000
1000
0000
0100
0000
0001
0000
,  // measure 25
1000
0100
0000
1000
0000
0000
0001
0010
0000
0001
0000
0001
1000
0001
1000
0001
,  // measure 26
0100
0000
0001
0000
1000
0000
0001
0010
0001
0000
0100
0010
1000
0100
1000
0000
,  // measure 27
0002
0000
0000
0100
0000
0000
0103
0000
0100
0010
0100
0000
0001
0000
1000
0000
,  // measure 28
0010
1000
0010
0000
0100
0000
0001
0000
0100
0010
0100
0010
0100
0000
0001
0000
,  // measure 29
1100
0000
0000
0101
0000
0000
0101
0000
0000
1001
0000
0000
0010
0000
0100
0000
,  // measure 30
0001
0010
0000
0100
0000
1000
0000
0010
,  // measure 31
0100
0000
0000
0010
0000
0000
0000
0000
0000
1000
0000
0000
0001
0000
0010
0000
0100
0000
1000
0000
0000
0001
0000
0000
,  // measure 32
1001
0000
1000
0010
1000
0000
1000
0000
0001
0010
0001
1000
0010
0100
0001
0000
,  // measure 33
0100
0010
0100
0000
0010
0100
0010
1000
0100
0010
0001
0000
0100
0001
1000
0000
,  // measure 34
2100
0000
0000
0001
0000
0000
3001
0100
0001
0100
0010
1000
0100
0000
1000
0100
,  // measure 35
0010
0001
1000
0100
1000
0100
1000
0001
0000
0001
0100
0010
0100
0000
0100
0000
,  // measure 36
0101
0000
1000
0100
1000
0000
0001
0000
0100
0001
0010
0100
1000
0000
0010
0000
,  // measure 37
0200
0000
0000
0001
0000
0000
0301
0000
0100
0010
0100
0000
0001
0000
1000
0000
,  // measure 38
0100
1000
0100
0000
0010
0001
0010
0000
0100
0000
1000
0000
0010
0000
0100
0000
,  // measure 39
0001
0010
0000
0001
0000
0000
1000
0100
0000
1000
0000
1000
0001
1000
0001
1000
,  // measure 40
0001
0010
0100
1000
0010
0000
0100
0000
0010
1000
0010
0000
0100
0001
0010
0000
,  // measure 41
0200
0000
0000
1000
0000
0000
1300
0000
0010
0100
0010
0000
1000
0000
0001
0000
,  // measure 42
0100
0001
0100
0000
0010
1000
0010
0000
1000
0000
0010
0000
0100
0000
0001
0000
,  // measure 43
0101
0000
0000
1100
0000
0000
1100
0000
0000
0000
0001
0000
0001
1000
0001
0000
,  // measure 44
1000
0000
0010
1000
0000
0010
0100
0000
0001
0000
0100
0000
1000
0000
0100
0000
,  // measure 45
0001
0000
0100
0001
0000
0100
0010
0000
1000
0000
0100
0000
0001
0000
0100
0000
,  // measure 46
1000
0000
0001
0100
0000
0010
0100
0000
0001
0000
0010
0000
1000
0000
0010
0000
,  // measure 47
0011
0000
0000
0000
0011
0000
0000
0000
0100
1000
0100
0010
0001
0000
0001
0000
,  // measure 48
0100
0000
0010
0100
0000
0010
0100
0000
0010
0000
0000
0000
0000
0000
0000
0000
;

//---------------dance-single - ----------------
#NOTES:
     dance-single:
     :
     Medium:
     6:
     0.330,0.306,0.081,0.041,0.012:
0001
0010
0100
1000
0000
0001
0000
0001
,
1000
0100
0010
0001
0000
1000
0000
1000
,
0001
0010
0100
1000
0000
0001
0000
0001
,
0100
0000
0100
0000
0100
0010
0100
0000
,
0001
1000
0000
0010
0000
1000
0000
0001
,
0100
0001
0000
1000
0000
0100
0000
0010
,
0100
1000
0001
0010
0001
1000
0000
0100
,
0010
0001
1000
0100
1000
0001
0000
0000
,
0100
0001
0000
1000
0000
0100
0000
1000
,
0010
1000
0000
0001
0000
0100
0000
0010
,
1000
0100
0010
0001
1000
0100
0000
0010
,
0001
0010
0100
1000
0001
0000
0000
0000
,
0100
0001
0010
0100
1000
0001
0010
0001
,
0010
0001
1000
0100
0010
0001
1000
0000
,
0020
0000
1000
0000
1030
0001
0000
0000
,
0200
0000
0001
0000
0301
1000
0010
0000
,
0100
0101
0000
0100
0000
0100
0000
0100
,
1000
1010
0000
0010
0000
0010
0000
0010
,
0100
0001
0010
0100
1000
0001
0000
0000
,
0100
0001
0010
0100
1000
0001
0001
0000
,
0200
0000
0000
0000
0000
0000
0010
0010
,
0310
0000
1010
0000
0100
0001
1000
0100
,
0010
0000
0000
1001
0000
0001
0000
0001
,
0100
0010
0100
0000
0001
1000
0001
0000
,
0100
0001
0010
0000
0100
1000
0010
0000
,
0100
0000
0101
0000
0010
1000
0001
0010
,
0100
0000
0000
1001
0000
1000
0000
1000
,
0010
0100
0010
0000
0100
0001
0010
0000
,
0100
0000
0000
1000
0000
0000
0100
0000
0000
1000
0000
0000
0001
0000
0000
0000
,
0100
0001
0000
0100
0000
0001
0000
1000
,
0000
0100
0000
1000
0020
0000
0000
0000
,
1030
0010
0100
0001
0010
0100
1000
0010
,
0100
0000
0110
0000
0001
0100
1000
0100
,
0002
0000
1000
0000
1003
0010
0100
0001
,
0010
0100
0010
0001
0000
0000
0000
0000
,
0100
0001
1000
0100
1000
0001
0010
0100
,
1000
0001
0000
1001
0000
1000
0000
0001
,
0100
0010
0100
0000
0001
0100
1000
0000
,
0100
0001
1000
0100
0010
0001
1000
0000
,
0010
1000
0001
0010
0001
1000
0100
0010
,
0001
1000
0000
1001
0000
0001
0000
1000
,
0010
0100
0010
0000
1000
0100
0001
0000
,
0100
0000
0000
1000
0000
0000
0001
0000
0000
0000
1000
0000
1000
0000
1000
0000
,
0001
0010
0100
1000
0000
0001
0000
0001
,
1000
0100
0010
0001
0000
1000
0000
1000
,
0001
0010
0100
1000
0000
0001
0000
0001
,
0100
0000
0110
0000
0001
0100
1000
0100
,
0001
0000
0000
0000
;

//---------------dance-single - ----------------
#NOTES:
     dance-single:
     :
     Easy:
     3:
     0.229,0.249,0.260,0.122,0.000:
0002
0000
0103
0000
,
0002
0000
0103
0000
,
0020
0000
1030
0000
,
0020
0000
1030
0000
,
1001
0000
0001
0000
,
1000
0000
0001
0000
,
0100
0010
0100
0000
,
0001
1000
0001
0000
,
1001
0000
1000
0000
,
1001
0000
0001
0000
,
0100
0010
0100
0000
,
0001
1000
0001
0000
,
1001
0010
0100
1000
,
0100
0001
0100
1000
,
0002
0000
0013
0000
,
0200
0000
1300
0000
,
1001
0010
0100
1000
,
0001
0010
0100
1000
,
0020
0000
1030
0000
,
0200
0000
0301
0000
,
0200
0000
0000
0300
,
0001
0011
1000
1100
,
1001
0100
0010
0001
,
0100
0101
0010
1010
,
0100
0001
0010
0100
,
1000
1100
0001
0011
,
1001
0100
0010
0001
,
1000
1010
0001
0101
,
2002
0000
0000
3003
,
0200
0001
0000
0301
,
2000
0010
3010
0000
,
0110
0100
0100
0100
,
1001
0001
0001
0001
,
0110
0010
0010
0010
,
1001
1000
1000
0000
,
0001
0101
1000
1100
,
1001
0010
0100
1000
,
0001
0011
1000
1010
,
0001
0100
1000
0100
,
0001
0101
1000
1100
,
1001
0100
0010
0001
,
1000
1010
0001
0011
,
2002
0000
0000
3003
,
1000
0100
0001
0100
,
1000
0010
0100
0001
,
1000
0100
0001
0100
,
1000
0000
1001
0000
0100
0010
0100
0000
,
0100
0000
0000
0000
;

//---------------dance-single - ----------------
#NOTES:
     dance-single:
     :
     Beginner:
     1:
     0.080,0.115,0.073,0.000,0.000:
1000
0000
0000
0000
,
1000
0000
0000
0000
,
1000
0000
0000
0000
,
1001
0000
0000
0000
,
0001
0000
0000
0000
,
0100
0000
0000
0000
,
0001
0000
0000
0000
,
0001
0000
0000
0000
,
1000
0000
0000
0000
,
0010
0000
0000
0000
,
1000
0000
0000
0000
,
1000
0000
0000
0000
,
1001
0000
0000
0000
,
0010
0000
0000
0000
,
0100
0000
0000
0000
,
1000
0000
0000
0000
,
0001
0000
0000
0000
,
0001
0000
0000
0000
,
1000
0000
0000
0000
,
1000
0000
0000
0000
,
0010
0000
0000
0000
,
0110
0000
0000
0000
,
0100
0000
0000
0000
,
0010
0000
0000
0000
,
0100
0000
0000
0000
,
0001
0000
0000
0000
,
1000
0000
0000
0000
,
0001
0000
0000
0000
,
1001
0000
0000
0000
,
1000
0000
0000
0000
,
1000
0000
1000
0000
,
1001
0000
0001
0000
,
0010
0000
0001
0000
,
0010
0000
0100
0000
,
1000
0000
0100
0000
,
1001
0000
1000
0000
,
0001
0000
1000
0000
,
0010
0000
0100
0000
,
0001
0000
0000
0000
,
0001
0000
0001
0000
,
0100
0000
0010
0000
,
1000
0000
0001
0000
,
1001
0000
0000
0000
,
0001
0000
0000
0000
,
0001
0000
0000
0000
,
0001
0000
0000
0000
,
0110
0000
0110
0000
,
1000
0000
0000
0000
;
