#TITLE:Aegis;
#SUBTITLE:;
#ARTIST:IT medalion;
#TITLETRANSLIT:;
#SUBTITLETRANSLIT:;
#ARTISTTRANSLIT:;
#CREDIT:;
#BANNER:bn.png;
#BACKGROUND:bg.png;
#LYRICSPATH:;
#CDTITLE:;
#MUSIC:Aegis.mp3;
#OFFSET:-0.040;
#SAMPLESTART:31.144;
#SAMPLELENGTH:12.000;
#SELECTABLE:YES;
#BPMS:0.000=162.000;
#STOPS:115.000=0.370
,122.000=0.370
,129.000=0.370
,136.500=0.370
,208.500=0.741
,255.500=0.370
;
#BGCHANGES:;

//---------------dance-single - ----------------
#NOTES:
     dance-single:
     :
     Hard:
     8:
     0.530,0.566,0.213,0.260,0.065:
0000
0000
0000
0000
,
0000
0000
0000
0000
,
0000
0000
0000
0000
,
0000
0000
0000
0000
,
0000
0000
0000
0000
,
1000
0001
0010
0001
1000
1000
0100
0000
,
1000
0001
0010
0100
,
0010
0001
0100
0010
,
1000
0000
0000
0000
0001
0000
0000
0000
0010
0000
0000
0010
0000
0000
0010
0000
,
0010
1000
0010
0001
0100
0010
1000
0000
,
1000
0001
0010
0001
,
0101
0100
0110
0100
,
1001
1010
2200
3300
,
1000
0100
0010
0001
1000
0100
0010
0000
,
0001
0010
0100
1000
0001
0010
0100
0000
,
1000
1000
0010
0100
0010
1000
0100
0000
,
1000
0100
0010
0001
0200
0000
0300
0000
,
0010
0100
0001
1000
0010
0100
0002
0000
,
1003
0001
0010
0001
1000
0010
0200
0000
,
0310
1000
0100
0010
0001
0100
0020
0000
,
0130
0010
1000
0001
0010
0001
0100
0000
,
0001
0000
1000
0100
1100
0000
0001
0100
,
0101
0000
1000
0100
1100
0000
0001
0100
,
0101
0000
1000
0100
1100
0000
0001
0100
,
0101
0000
1000
0100
1100
0000
1001
0000
,
0011
0010
0001
0000
1010
0010
1000
0000
,
0011
0010
0001
0000
1010
0010
1000
0000
,
1000
0001
1001
0000
0001
0100
0101
0000
,
0100
0010
0100
0010
1000
0001
0012
0000
,
0023
0000
0130
0000
0100
0010
1000
0000
,
1000
0010
0001
0100
1000
0000
1002
0000
,
0013
0000
0010
0001
0100
0000
0010
1000
,
0100
0010
0001
0000
2000
0000
3100
0000
,
0100
1000
0010
0000
0100
1000
0100
0010
,
1000
0100
1000
0000
0010
1000
0020
0000
,
0130
0000
0100
0001
0010
0100
2000
0000
,
3020
0000
0000
0000
0130
0000
0000
0100
0000
0000
0100
0000
0000
0000
0100
0000
,
0000
0000
0100
0000
0010
0000
0000
0010
0000
0000
0010
0000
1000
0000
0000
0001
,
0000
0000
0010
0000
0100
0000
0000
0100
0000
0000
0100
0000
0000
0000
0100
0000
,
0000
0000
0010
0000
0100
0000
0000
0100
0000
0000
0100
0000
1100
0000
0000
0011
,
0000
0000
0001
0000
1000
0000
0000
1000
0000
0000
1000
0000
0000
0000
1000
0000
,
0000
0000
0001
0000
1000
0000
0000
1000
0000
0000
0100
0000
0010
0000
0000
0001
,
0000
0000
0010
0000
0001
0000
0000
0001
0000
0000
0001
0000
1000
0000
0000
1000
,
0000
1000
0001
0100
0010
1000
0100
0001
,
0100
1000
0020
0000
0000
0000
0000
0000
,
0000
2030
0000
0000
,
0000
3200
0000
0000
,
0000
2300
0000
0000
,
0000
3020
0100
0100
,
0100
0230
0001
0001
,
0001
0001
0302
0000
1000
0000
1000
0000
,
1000
0000
1003
0100
0001
0100
0010
0100
,
1000
0001
0002
0000
1000
0000
1000
0000
,
1000
0000
0103
0000
0020
0000
0000
0000
0100
0000
0000
0000
0100
0000
0000
0100
,
0000
0100
0230
0000
0010
0000
0010
0000
,
0010
0310
0200
0000
0010
0000
0310
0001
,
0010
0100
2000
0000
0010
0000
0010
0000
,
0010
0000
0010
0000
3020
0000
0000
0000
1000
0000
0000
0000
1000
0000
0000
1000
,
0000
1030
0200
0000
0010
0000
0010
0000
,
0010
0310
0200
0000
1000
0000
1000
0000
,
0300
0000
1000
0100
0001
0100
1000
0010
,
0100
0000
0010
1000
0010
0001
0010
0100
,
0010
0000
0100
0001
0010
0001
0100
0010
,
0100
0000
0010
1000
0100
1000
0001
0010
,
0001
0100
0010
1000
0100
0010
0100
0000
,
0100
1000
0100
0001
0100
1000
0010
0000
,
0010
1000
0010
0001
0010
0100
0010
0000
,
0100
0001
0010
0001
1000
0010
0100
0001
;

//---------------dance-single - ----------------
#NOTES:
     dance-single:
     :
     Medium:
     7:
     0.446,0.598,0.250,0.250,0.051:
0000
0000
0000
0000
,
0000
0000
0000
0000
,
0000
0000
0000
0000
,
0000
0000
0000
0000
,
0000
0000
0000
0000
,
0001
1000
0100
0000
1000
0000
0001
0000
,
0100
0100
0010
0010
,
0100
0001
1000
0100
,
0001
0100
2000
0000
,
3010
0100
1000
0000
1000
0100
0001
0000
,
0001
0100
0010
1000
,
1100
1000
1010
1000
,
1010
0000
0101
0000
2002
0000
0000
3003
,
1000
0001
0100
0001
0010
0000
0001
0000
,
0001
0100
0010
0100
0001
0000
1000
0000
,
1000
0100
0010
0100
0010
0000
0100
0000
,
0100
1000
0010
0100
0002
0000
0000
0000
,
1003
0001
0010
0001
1000
0000
0010
0000
,
0100
0010
1000
0010
0100
0000
0010
0000
,
1000
0001
0010
0001
1000
0000
0100
0000
,
1000
0001
0100
0001
1000
0000
0010
0000
,
0110
0000
0101
0000
0110
0000
0001
0100
,
0110
0110
0110
0110
,
1001
0000
0101
0000
1010
0000
1000
0100
,
0110
1100
0110
1001
,
1002
0000
0103
0000
0210
0000
0310
0010
,
0120
0130
0201
0310
,
0010
0100
0010
0000
0100
0010
1000
0000
,
0001
1000
0001
1000
0001
1000
0001
0000
,
1000
0001
0100
1000
,
0100
0001
0010
0010
,
0001
0100
1000
0100
,
0010
1000
1000
0001
,
0010
0010
0001
0100
,
0010
0100
0010
0000
0100
0000
0001
0000
,
1000
0000
1000
0001
0010
0200
2000
0000
,
0000
0000
3300
0000
1000
0000
0000
0001
0000
0000
0100
0000
0000
0000
0001
0000
,
0000
0000
0000
0000
0001
0000
0000
1000
0000
0000
1000
0000
0001
0000
0000
0010
,
0000
0000
0001
0000
0100
0000
0000
0100
0000
0000
0100
0000
0000
0000
0100
0000
,
0000
0000
0010
0000
1000
0000
0000
0010
0000
0000
0100
0000
0001
0000
0000
1000
,
0000
0000
1000
0000
0001
0000
0000
0010
0000
0000
0001
0000
0000
0000
0001
0000
,
0000
0000
0001
0000
0100
0000
0000
0010
0000
0000
0100
0000
0010
0000
0000
1000
,
0000
0000
0001
0000
0010
0000
0000
0100
0000
0000
1000
0000
0010
0000
0000
0100
,
0000
0010
1000
0010
0100
0010
1000
0001
,
0010
0001
0200
0000
0000
0000
0000
0000
,
0000
0320
0000
0000
,
0000
0230
0000
0000
,
0000
0302
0000
0000
,
0000
1003
0001
0100
,
0100
0001
1000
0100
,
0010
0001
0010
0000
0001
0000
0100
0000
,
0010
0000
0010
0100
0010
0100
0010
1000
,
0001
1000
2002
0000
0000
0000
0000
0000
,
0003
0001
0002
0000
0000
0000
0000
0000
,
0000
3003
0220
0000
0000
0000
0000
0000
,
0030
0010
0020
0000
0000
0000
0000
0000
,
0000
0330
2200
0000
0000
0000
0000
0000
,
0300
0100
0200
0000
0000
0000
0000
0000
,
0000
3300
0202
0000
0000
0000
0000
0000
,
0300
0100
0200
0000
0000
0000
0000
0303
,
0000
0000
0001
0100
0010
1000
0001
0000
,
0010
0000
0001
0100
0010
1000
0100
0000
,
0100
0000
0100
1000
0100
0001
0100
0000
,
0100
0000
0100
1000
0010
0100
0002
0003
,
1000
0001
0010
0001
0100
0000
0010
0000
,
0100
0010
1000
0001
0010
0000
0100
0000
,
0100
1000
0010
0100
0001
0000
1000
0000
,
1000
0001
0010
0100
0010
0001
0100
1000
;

//---------------dance-single - ----------------
#NOTES:
     dance-single:
     :
     Easy:
     4:
     0.299,0.410,0.093,0.241,0.000:
0000
0000
0000
0000
,
0000
0000
0000
0000
,
0000
0000
0000
0000
,
0000
0000
0000
0000
,
0000
0000
0000
0000
,
2001
0001
0100
3001
,
0001
0100
0010
0100
,
0001
1000
0100
0010
,
0100
1000
2002
3003
,
1020
1000
1000
1030
,
1000
0010
0100
0001
,
1001
0010
1001
0010
,
1001
0101
0022
0033
,
0001
0010
0100
1000
,
0001
0010
0100
1000
,
1000
0100
0010
0001
,
1000
0100
0020
0030
,
0010
1000
0001
0100
,
0010
1000
0001
0100
,
0100
0001
1000
0010
,
0100
0001
2000
3000
,
0001
0000
1000
0000
0001
0000
1000
0001
,
1000
0001
1000
0001
,
1000
0000
0001
0000
1000
0000
0001
1000
,
0001
0000
1000
0000
0001
0000
1000
0010
,
0100
0000
0010
0000
0100
0000
0010
0100
,
0010
0000
0100
0000
0010
0000
0100
0010
,
0100
0010
0100
0010
,
0100
1000
0100
1001
,
0001
0100
0001
0010
,
0001
0100
1000
1000
,
0100
1000
0100
0001
,
0010
0100
0100
0010
,
0001
1000
0001
0100
,
0001
0001
0100
0010
,
1000
0001
1000
0200
,
0000
1300
0000
1000
,
0000
0001
0000
1000
,
0000
0010
0000
0100
,
0000
0001
0000
0010
,
0000
0100
0000
0010
,
0000
0001
0000
1000
,
0000
0001
0000
1000
,
0000
0001
1000
0001
,
1000
0002
0000
0000
,
0003
2000
0000
0000
,
3000
0020
0000
0000
,
0030
0200
0000
0000
,
0300
0020
0000
0000
,
0030
2000
0000
0000
,
3000
0002
0000
0000
,
0003
0020
0000
0000
,
0030
0200
0000
0000
,
0000
2000
0000
0000
,
3300
2000
0000
0000
,
0000
0002
0000
0000
,
3003
0002
0000
0000
,
0000
0200
0000
0000
,
0303
0200
0000
0000
,
0000
0020
0000
0000
,
0330
0010
0100
0001
,
1000
0010
0100
0001
,
1000
0010
0100
0001
,
1000
0010
0100
1001
,
0001
1000
0100
0010
,
0100
1000
0001
0100
,
0001
0010
0100
1000
,
0100
0001
0100
2000
,
3000
0000
0000
0000
;

//---------------dance-single - ----------------
#NOTES:
     dance-single:
     :
     Beginner:
     1:
     0.102,0.186,0.037,0.000,0.000: // measure 1
0000
0000
0000
0000
,  // measure 2
0000
0000
0000
0000
,  // measure 3
0000
0000
0000
0000
,  // measure 4
0000
0000
0000
0000
,  // measure 5
0000
0000
0000
0000
,  // measure 6
0001
0000
0000
0000
,  // measure 7
0000
0000
0000
0000
,  // measure 8
0000
0000
0000
0000
,  // measure 9
0000
0000
0000
0000
,  // measure 10
1000
0000
0000
0000
,  // measure 11
0000
0000
0000
0000
,  // measure 12
0010
0000
0100
0000
,  // measure 13
0010
0010
0010
0000
,  // measure 14
1001
0000
0000
0000
,  // measure 15
0001
0000
0000
0000
,  // measure 16
1000
0000
0000
0000
,  // measure 17
0100
0000
0000
0000
,  // measure 18
1000
0000
0000
0000
,  // measure 19
0010
0000
0000
0000
,  // measure 20
0100
0000
0000
0000
,  // measure 21
0010
0000
0000
0000
,  // measure 22
1001
0000
0000
0000
,  // measure 23
0001
0000
0000
0000
,  // measure 24
1000
0000
0000
0000
,  // measure 25
0010
0000
0000
0000
,  // measure 26
0100
0000
0000
0000
,  // measure 27
0010
0000
0000
0000
,  // measure 28
1000
0000
0000
0000
,  // measure 29
0001
0000
0000
0000
,  // measure 30
0100
0000
0000
0000
,  // measure 31
0010
0000
0010
0100
,  // measure 32
0000
0000
0000
0010
,  // measure 33
0000
1000
0001
0000
,  // measure 34
0000
0000
0001
0000
,  // measure 35
0001
1000
0000
0000
,  // measure 36
0000
1000
0000
1000
,  // measure 37
0000
0010
0000
0000
,  // measure 38
0000
0010
0000
0010
,  // measure 39
0000
0100
0000
0000
,  // measure 40
0000
0100
0000
0100
,  // measure 41
0000
1001
0000
0000
,  // measure 42
0000
0001
0000
0001
,  // measure 43
0000
1000
0000
1000
,  // measure 44
0000
1000
0001
1000
,  // measure 45
0000
1000
0000
0000
,  // measure 46
0000
0010
0000
0000
,  // measure 47
0000
0100
0000
0000
,  // measure 48
0000
0001
0000
0000
,  // measure 49
0000
1000
0000
0000
,  // measure 50
0000
0010
0000
0000
,  // measure 51
0000
0100
0000
0000
,  // measure 52
0000
0001
0000
0000
,  // measure 53
0000
0001
0000
0000
,  // measure 54
0000
1000
0000
0000
,  // measure 55
0000
0001
0000
0000
,  // measure 56
0000
1000
0000
0000
,  // measure 57
0000
0010
0000
0000
,  // measure 58
0000
0100
0000
0000
,  // measure 59
0000
0010
0000
0000
,  // measure 60
0000
0100
0000
0000
,  // measure 61
0000
0110
0000
0000
,  // measure 62
0000
0010
0000
0000
,  // measure 63
0000
1000
0000
0000
,  // measure 64
0000
0001
0000
0000
,  // measure 65
0001
0000
0000
0000
,  // measure 66
1000
0000
0000
0000
,  // measure 67
0010
0000
0000
0000
,  // measure 68
0100
0000
0000
0000
;
