#TITLE:AVE DE RAPINA;
#SUBTITLE:;
#ARTIST:Shawn The Horny Master;
#TITLETRANSLIT:;
#SUBTITLETRANSLIT:;
#ARTISTTRANSLIT:;
#CREDIT:DMAxel;
#BANNER:AVE DE RAPINA.png;
#BACKGROUND:AVE DE RAPINA-bg.png;
#LYRICSPATH:;
#CDTITLE:beatmaniaIIDX.png;
#MUSIC:AVE DE RAPINA.mp3;
#OFFSET:-8.100;
#SAMPLESTART:46.400;
#SAMPLELENGTH:12.500;
#SELECTABLE:YES;
#BPMS:0.000=125.000;
#STOPS:;
#BGCHANGES:;

//---------------dance-single - ----------------
#NOTES:
     dance-single:
     :
     Easy:
     3:
     0.218,0.327,0.192,0.042,0.000:
0001
0000
0000
0000
,
0000
0000
0000
0000
,
1001
0000
0000
0000
,
0000
0000
1000
0000
,
1001
0000
0001
0000
,
0010
0000
0001
0000
,
0010
0000
0100
0000
,
1000
0000
0100
0000
,
1001
0000
1000
0000
,
0010
0000
1000
0000
,
0010
0000
0100
0000
,
0001
0000
0001
0000
,
1002
0000
0000
0000
,
1003
0100
0010
0001
,
2000
0000
0000
0000
,
3001
0010
0100
1000
,
0002
0000
0000
0000
,
1003
0100
0010
0001
,
2000
0000
0000
0000
,
3010
0000
0010
0000
,
0110
1000
0010
1000
,
0001
0100
0001
0100
,
0010
0100
0010
0100
,
0001
1000
0001
0000
,
0010
0001
0010
0001
,
1000
0100
1000
0100
,
0010
0100
0010
0100
,
0010
0001
0010
0001
,
1000
0010
0100
0001
,
1000
0010
0100
0001
,
0010
0100
1000
0001
,
0010
0100
1000
0010
,
0110
0000
1000
0000
,
0110
0000
0001
0000
,
1001
0000
1000
0000
,
1001
0000
1001
0000
,
1001
0000
0000
0000
,
0001
0000
0000
0000
,
0001
0000
0000
0000
,
0001
0000
0000
1000
,
1001
0000
0001
0010
,
0011
0000
1000
0010
,
1010
0000
0010
0100
,
0020
0000
0030
0000
,
1001
1000
0010
1000
,
0001
0010
0001
0000
,
0100
0010
0100
0001
,
1000
0010
0100
0001
,
1000
0100
1000
0010
,
0100
0010
0100
0001
,
0010
0001
1000
0001
,
0010
0100
1000
0010
,
0110
0100
0100
0110
,
1001
0001
0001
1001
,
0110
0010
0010
0110
,
1001
1000
1000
1001
;

//---------------dance-single - ----------------
#NOTES:
     dance-single:
     :
     Medium:
     6:
     0.434,0.420,0.285,0.092,0.285:
2001
0200
0000
3000
,
0000
0000
0000
0000
0000
0000
0000
0000
0000
0000
0000
1300
0000
0000
0001
0000
,
0200
0000
0000
0000
,
0302
0000
1003
0000
,
1001
0000
1000
0100
1000
0000
0001
0010
,
0100
0000
1000
0100
1000
0000
0001
0000
,
1001
0000
0001
0010
0001
0000
1000
0100
,
0010
0000
0001
0010
0001
0000
1001
0000
,
1001
0000
1000
0010
1000
0000
0001
0010
,
0100
0000
1000
0010
1000
0000
0001
0000
,
1001
0000
0001
0100
0001
0000
1000
0000
,
1001
0000
0000
0000
0000
0000
0001
1000
0001
1000
0000
0000
,
0001
0100
0010
0100
0001
0100
0010
0100
,
0002
0100
1000
0100
,
1003
0010
0100
0010
1000
0010
0100
0010
,
2000
0100
0001
3100
,
0001
0010
0100
0010
0001
0010
0100
0010
,
0002
0100
1000
0100
,
1003
0100
0010
0100
1000
0100
0010
0100
,
1000
0000
0000
0000
0000
0000
0000
0000
0100
0000
0000
0100
0000
0000
0100
0000
,
1001
0000
0001
0000
0001
1000
0100
0010
,
1001
0000
1000
0000
1000
0001
0100
0000
,
1001
0000
0001
0100
0001
1000
0100
0010
,
1001
0000
0000
1000
0000
0000
1000
0010
1000
0000
0001
0100
,
0001
0000
1000
0010
1000
0001
0010
0100
,
1001
0000
0001
0100
0001
1000
0100
0010
,
1001
0000
1000
0100
1000
0001
0100
0010
,
1001
0000
0001
0010
0001
1000
0010
0100
,
0001
0000
0000
0010
0000
0001
0000
0010
0000
0100
0000
1000
0000
0001
0000
0000
,
1000
0000
0000
0100
0000
1000
0000
0001
0000
0010
0000
0100
0000
1000
0000
0000
,
0001
0000
0000
0100
0000
0001
0000
1000
0000
0100
0000
0001
0000
0100
0000
0000
,
1000
0000
0000
0100
0000
1000
0000
0001
0000
0100
0000
1000
0000
0100
0000
0000
,
1001
0000
0000
1000
0000
0010
0000
0110
0000
0000
0000
0000
0001
0000
1000
0000
,
1001
0000
0000
0001
0000
0100
0000
0110
0000
0000
0000
0000
0110
0000
0000
0000
,
1001
0000
0000
1000
0000
0010
0000
0110
0000
0000
0000
0000
0001
0000
1000
0000
,
0001
0010
0001
0000
1000
0000
1000
0100
1000
0000
0001
0000
,
0002
0200
0003
0000
,
0301
0010
0100
1000
,
0020
1000
1000
1030
,
0100
0000
0000
0000
0010
0000
0000
0000
0001
0000
0000
1000
0000
0000
1000
0000
,
0010
0100
0010
0000
1000
0100
0010
0001
,
0100
0010
0100
0000
0001
0010
0100
1000
,
0010
0100
0010
0000
1000
0010
0100
0001
,
1000
0100
0001
0100
2000
0000
3001
0000
,
0101
0000
1001
0000
0100
1000
0100
0010
,
0100
0000
1001
0000
0010
0100
0010
0001
,
0010
0000
1001
0000
0100
0010
0100
1000
,
0100
0000
1001
0000
0010
0001
0100
0000
,
0101
0000
1001
0000
0100
0010
1000
0100
,
0010
0000
1001
0000
0010
0100
0001
0010
,
0100
0000
1001
0000
0100
0010
1000
0100
,
0010
0000
1001
0000
0010
0100
0001
0010
,
0100
0000
0000
1000
0000
0010
0000
0100
0000
0001
0000
0100
0000
0000
0000
0000
,
1001
0000
0000
0001
0000
0100
0000
0010
0000
1000
0000
0010
0000
0000
0000
0000
,
1001
0000
0000
0010
0000
0001
0000
0100
0000
0010
0000
1000
0000
0000
0000
0000
,
1001
0000
0000
0100
0000
1000
0000
0010
0000
0100
0000
0001
1000
0000
0000
0000
;

//---------------dance-single - ----------------
#NOTES:
     dance-single:
     :
     Hard:
     8:
     0.574,0.560,0.427,0.100,0.782: // measure 1
1002
0200
0003
0000
,  // measure 2
0002
0000
0000
0000
0300
0000
0000
0000
0000
0000
0000
0103
0000
0000
0100
0000
,  // measure 3
2002
0000
0003
0000
,  // measure 4
0020
0000
3030
0000
,  // measure 5
1001
0000
0000
0000
0001
0100
0000
0000
1000
0000
0000
0000
0100
0000
0001
0000
,  // measure 6
1001
0000
0000
0000
1000
0100
0000
0000
0001
0000
0000
0000
0100
0000
0000
0000
,  // measure 7
1001
0000
0000
0000
1000
0100
0000
0000
0001
0000
0100
0000
1000
0001
0000
0000
,  // measure 8
1001
0000
0000
0000
1000
0100
0000
0000
0001
0000
0000
0000
1100
0000
0000
0000
,  // measure 9
1001
0000
0000
0000
0001
0010
0000
0000
1000
0000
0000
0000
0010
0000
0001
0000
,  // measure 10
1001
0000
0000
0000
1000
0010
0000
0000
0001
0000
0010
0000
1000
0000
0000
0000
,  // measure 11
1001
0000
0000
0000
0001
0010
0000
0000
1000
0000
0010
0000
0001
1000
0000
0000
,  // measure 12
1001
0000
0000
0000
0000
0000
1000
0010
0100
0001
0000
0000
,  // measure 13
0101
0000
0000
0100
0000
0000
0101
0000
0000
0100
0000
0000
0101
0000
0000
0000
,  // measure 14
0010
0000
1000
0001
0000
0010
0000
0100
0010
0000
0001
0000
1000
0000
0000
0000
,  // measure 15
1010
0000
0000
0010
0000
0000
1010
0000
0000
0010
0000
0000
1010
0000
0000
0000
,  // measure 16
0100
0000
0001
0010
0000
0000
0100
0000
1000
0001
0000
0000
1000
0000
0100
0000
,  // measure 17
1000
0000
0001
0100
0000
0001
0010
0000
0001
0100
0000
0001
0010
0000
0100
0000
,  // measure 18
1000
0000
0001
0010
0000
0100
0000
1000
0001
0000
0010
0000
0001
1000
0000
0000
,  // measure 19
0001
0000
1000
0100
0000
1000
0010
0000
1000
0100
0000
1000
0010
0000
0100
0000
,  // measure 20
0001
0000
1000
0100
0000
0000
0010
0000
1010
0000
0000
1010
0000
0000
1001
0000
,  // measure 21
0001
0000
0100
0001
0000
0100
0000
0001
0000
1000
0000
0100
1000
0000
0001
0000
,  // measure 22
1000
0000
0010
1000
0000
0100
0000
0010
0000
0001
0000
0100
0001
0000
1000
0000
,  // measure 23
0001
0000
0100
0001
0000
0100
0000
0001
0000
1000
0000
0100
1000
0000
0001
0000
,  // measure 24
1000
0000
0000
0000
0000
0000
0010
0000
0000
1000
0000
0000
0000
0000
0000
0100
0000
0000
0000
0000
0000
0010
0000
0000
0001
0000
0000
0000
0100
0000
0000
0000
0001
0000
0000
0000
1000
0000
0000
0000
0010
0000
0000
0000
1000
0000
0000
0000
,  // measure 25
0001
0000
1000
0001
0000
0010
0000
0100
0000
1000
0000
0001
0100
0000
0001
0000
,  // measure 26
1000
0000
0010
1000
0000
0100
0000
0010
0000
0001
0000
1000
0010
0000
1000
0000
,  // measure 27
0001
0000
1000
0100
0000
0010
0000
0100
0000
1000
0000
0001
0100
0000
0010
0000
,  // measure 28
1000
0000
0001
0010
0000
0100
0000
0010
0000
0001
0000
1000
0010
0000
0100
0000
,  // measure 29
0110
0000
1000
0100
0000
0001
0000
0100
0000
0010
0000
0001
0000
1000
0010
0000
,  // measure 30
0100
0000
0001
0100
0000
1000
0000
0100
0000
0010
0000
1000
0000
0001
0100
0000
,  // measure 31
0010
0000
1000
0100
0000
0001
0000
0100
0000
0010
0000
0001
0000
1000
0010
0000
,  // measure 32
0100
0000
0001
0100
0000
1000
0000
0100
0000
0010
0000
1000
0000
0001
0100
0000
,  // measure 33
0010
0000
1000
0100
0000
1100
0000
1001
0000
0100
0000
0001
0100
0000
0010
0000
,  // measure 34
0100
0000
0001
0010
0000
0011
0000
1001
0000
0010
0000
1000
0010
0000
0100
0000
,  // measure 35
0010
0000
1000
0100
0000
1100
0000
1001
0000
0100
0000
0001
0100
0000
0010
0000
,  // measure 36
0100
0001
0100
0000
0010
1000
0100
0010
0001
0000
1000
0010
,  // measure 37
2000
0000
0001
0000
3001
0010
0100
1000
,  // measure 38
0002
0000
1000
0000
1003
0100
0010
0001
,  // measure 39
0200
0000
0010
0000
0310
1000
0001
0010
,  // measure 40
0200
0000
0000
0000
1000
0000
0000
0000
1300
0000
0000
1100
0000
0000
0101
0000
,  // measure 41
1000
0000
0100
1000
0000
0000
0000
0001
0000
0100
0000
0001
1000
0000
1000
0000
,  // measure 42
0001
0000
0010
0001
0000
0000
0000
1000
0000
0010
0000
1000
0001
0000
0001
0000
,  // measure 43
1000
0000
0010
1000
0000
0000
0000
0001
0000
0010
0000
0001
1000
0000
1000
0000
,  // measure 44
0100
1000
0100
1000
0001
0100
0001
0100
0000
0020
0000
0200
0000
0000
0330
0000
,  // measure 45
1010
0000
0000
0000
0011
0000
0000
0000
0100
1000
0000
1000
0001
0000
0010
0000
,  // measure 46
0100
0000
1000
0000
1100
0000
0000
0000
0010
0001
0000
0001
1000
0000
0110
0000
,  // measure 47
0110
0000
0001
0000
0101
0000
0000
0000
0010
1000
0000
1000
0001
0000
0010
0000
,  // measure 48
0100
0000
1000
0000
1010
0000
0000
0000
0100
0001
0000
0001
1000
0000
0010
0000
,  // measure 49
0110
0000
0001
0000
0100
0000
0010
0000
1000
0100
0000
1000
0100
0000
0010
0000
,  // measure 50
0001
0000
0101
0000
0000
1100
0000
0001
0000
0010
0000
0001
0100
0000
0110
0000
,  // measure 51
0110
0000
1000
0000
0010
0000
0100
0000
0001
0010
0000
0001
0010
0000
0100
0000
,  // measure 52
1000
0000
1010
0000
0000
0011
0000
1000
0000
0100
0000
1000
0100
0000
0010
0000
,  // measure 53
0001
1000
0000
0010
0000
0100
0000
0001
0000
0001
0000
1000
0100
0000
0000
0000
,  // measure 54
1000
0001
0000
0100
0000
0010
0000
1000
0000
1000
0000
0001
0010
0000
0000
0000
,  // measure 55
0001
1000
0000
1100
0000
1100
0000
0101
0000
0101
0000
1000
0001
0000
0000
0000
,  // measure 56
1000
0001
0000
0101
0000
0101
0000
1100
0000
1100
0000
0001
1000
0000
0000
0000
;

//---------------dance-single - ----------------
#NOTES:
     dance-single:
     :
     Beginner:
     2:
     0.078,0.184,0.092,0.000,0.000:
1000
0000
0000
0000
,
0000
0000
0000
0000
,
1000
0000
0000
0000
,
0000
0000
0000
0000
,
1001
0000
0000
0000
,
0001
0000
0000
0000
,
1000
0000
0000
0000
,
0001
0000
0000
0000
,
1000
0000
0000
0000
,
0010
0000
0000
0000
,
0100
0000
0000
0000
,
0001
0000
0000
0000
,
1001
0000
0000
0000
,
0000
0000
0000
0000
,
1000
0000
0000
0000
,
0000
0000
0000
0000
,
1001
0000
0000
0000
,
0000
0000
0000
0000
,
0001
0000
0000
0000
,
1000
0000
0000
0000
,
0010
0000
0000
0000
,
0010
0000
0000
0000
,
0010
0000
0000
0000
,
0010
0000
0000
0000
,
0110
0000
0000
0000
,
0100
0000
0000
0000
,
0100
0000
0000
0000
,
0100
0000
0000
0000
,
0001
0000
0000
0000
,
1000
0000
0000
0000
,
0001
0000
0000
0000
,
1000
0000
0000
0000
,
0010
0000
0000
0000
,
0100
0000
0000
0000
,
0010
0000
0000
0000
,
0010
0000
0000
0000
,
1001
0000
0000
0000
,
0000
0000
0000
0000
,
0000
0000
0000
0000
,
0000
0000
0000
0000
,
1001
0000
0000
0000
,
1000
0000
0000
0000
,
0001
0000
0000
0000
,
0000
0000
0000
0000
,
1001
0000
0001
0000
,
1000
0000
0000
0000
,
0010
0000
0100
0000
,
0010
0000
0000
0000
,
1000
0000
0001
0000
,
1000
0000
0000
0000
,
0001
0000
1000
0000
,
0001
0000
0000
0000
,
1001
0000
1000
0000
,
1001
0000
0001
0000
,
1001
0000
1000
0000
,
1001
0000
0000
0000
;
