#TITLE:AIR RAID FROM THA UNDAGROUND;
#SUBTITLE:;
#ARTIST:GUHROOVY;
#TITLETRANSLIT:;
#SUBTITLETRANSLIT:;
#ARTISTTRANSLIT:;
#GENRE:;
#CREDIT:Telperion;
#BANNER:arftu_bn.png;
#BACKGROUND:artfu_bg.png;
#LYRICSPATH:;
#CDTITLE:;
#MUSIC:arftu.ogg;
#OFFSET:-0.360998;
#SAMPLESTART:43.028000;
#SAMPLELENGTH:21.292999;
#SELECTABLE:YES;
#DISPLAYBPM:90.000000:180.000000;
#BPMS:0.000000=90.000000,30.000000=45.000000,31.000000=180.000000,61.000000=90.000000,62.000000=180.000000,90.000000=90.000000,92.000000=180.000000,124.000000=90.000000,172.000000=180.000000,200.000000=90.000000,201.000000=180.000000,215.000000=1440.000000,216.000000=180.000000,229.000000=90.000000,230.000000=180.000000,246.000000=1440.000000,247.000000=180.000000,264.000000=90.000000;
#STOPS:200.000000=0.666667
,215.000000=0.291655
,246.000000=0.291655
;
#DELAYS:;
#TIMESIGNATURES:0.000000=4=4
;
#BGCHANGES:0.000=arftu_bg.png=1.000=0=0=1=====,
30.000=extra_bgs/tywb-1.png=1.000=0=0=1=====,
30.250=extra_bgs/tywb-2.png=1.000=0=0=1=====,
30.500=extra_bgs/tywb-3.png=1.000=0=0=1=====,
30.750=extra_bgs/tywb-4.png=1.000=0=0=1=====,
31.000=arftu_bg.png=1.000=0=0=1=====,
55.000=extra_bgs/dyac-1.png=1.000=0=0=1=====,
57.000=extra_bgs/dyac-2.png=1.000=0=0=1=====,
59.000=extra_bgs/dyac-3.png=1.000=0=0=1=====,
61.000=extra_bgs/dyac-4.png=1.000=0=0=1=====,
62.000=arftu_bg.png=1.000=0=0=1=====,
86.000=extra_bgs/nmk-1.png=1.000=0=0=1=====,
87.000=extra_bgs/nmk-2.png=1.000=0=0=1=====,
88.000=extra_bgs/nmk-3.png=1.000=0=0=1=====,
90.000=extra_bgs/ssh-1.png=1.000=0=0=1=====,
90.500=extra_bgs/ssh-2.png=1.000=0=0=1=====,
91.000=extra_bgs/ssh-3.png=1.000=0=0=1=====,
92.000=arftu_bg.png=1.000=0=0=1=====,
200.000=extra_bgs/ybtft-2.png=1.000=0=0=1=====,
200.021=extra_bgs/ybtft-3.png=1.000=0=0=1=====,
200.500=extra_bgs/ybtft-4.png=1.000=0=0=1=====,
201.000=arftu_bg.png=1.000=0=0=1=====,
99999=-nosongbg-=1.000=0=0=0 // don't automatically add -songbackground-
;
#KEYSOUNDS:;
#ATTACKS:;

//---------------dance-single - ----------------
#NOTES:
     dance-single:
     :
     Beginner:
     2:
     0.082,0.137,0.008,0.000,0.000,68.000,1.000,0.000,0.000,0.000,0.000,0.000,0.082,0.137,0.008,0.000,0.000,68.000,1.000,0.000,0.000,0.000,0.000,0.000:
0000
0000
0000
0000
,
0000
0000
0000
0000
,
0000
0000
0000
0000
,
0000
0000
0000
0000
,
0001
0000
0000
0000
,
0000
0000
0000
0000
,
0000
0000
0000
0000
,
0000
0000
0010
0010
,
0000
0000
0000
0010
,
0000
0000
0000
0100
,
0000
0000
0000
0100
,
0000
0000
0000
1000
,
0000
0000
0000
1000
,
0000
0000
0000
0001
,
0000
0001
0000
0001
,
0001
0001
0100
0000
,
0000
0000
0000
0000
,
0000
0000
0010
0000
,
0000
0000
0000
0000
,
0000
0000
1000
0000
,
0000
0000
0000
0000
,
0000
0000
0001
0010
,
0001
0000
1000
0000
,
0010
0000
0000
0000
,
0100
0000
0000
0000
,
0001
0000
0000
0000
,
1000
0000
0000
0000
,
0100
0000
0000
0000
,
0100
0000
0000
0000
,
0010
0000
0000
0000
,
0100
0000
0000
0000
,
1000
0000
0000
0000
,
1000
0000
0000
0000
,
0001
0000
0000
0000
,
1000
0000
0000
0000
,
0010
0000
0000
0000
,
0100
0000
0000
0000
,
0010
0000
0000
0000
,
0100
0000
0000
0000
,
0001
0000
0000
0000
,
1000
0000
1000
0000
,
0001
0000
0000
0000
,
1000
0000
0001
0000
,
0010
0000
0000
0000
,
0000
0000
0000
0000
,
0100
0000
0000
0000
,
0000
0000
0000
0000
,
0010
0000
0000
0000
,
0000
0000
0000
0000
,
0100
0000
0000
0000
,
0000
1001
0000
0000
,
0000
0000
0000
0000
,
0100
0000
0000
0000
,
0010
0000
0000
1000
,
0000
1000
0000
0000
,
0000
0001
0000
0000
,
0000
0010
0000
0000
,
0000
0100
0000
0000
,
0100
0000
0000
0000
,
0010
0000
0000
0000
,
0001
0000
0000
0000
,
0100
0000
0100
0000
,
0100
0000
0010
0000
,
0100
0000
0010
0000
,
1000
0000
0001
0000
,
0010
0000
0100
0000
,
1000
0000
0000
0000
;

//---------------dance-single - Telperion----------------
#NOTES:
     dance-single:
     Telperion:
     Hard:
     9:
     0.623,0.686,0.066,0.183,0.428,495.000,8.000,22.000,0.000,0.000,0.000,0.000,0.623,0.686,0.066,0.183,0.428,495.000,8.000,22.000,0.000,0.000,0.000,0.000:
0000
0000
0000
0000
,
0000
0000
0000
0000
,
0000
0000
0000
0000
,
0000
0000
0000
0000
,
1001
0000
0000
0001
0100
0000
0000
0000
0010
0000
0100
0000
0001
0000
0100
0000
,
0010
0000
0000
0010
1000
0000
0000
0000
0001
0000
0010
0000
0100
0000
0010
0000
,
0002
0003
1000
0001
0200
0300
0010
0100
,
2000
3000
0100
0010
0100
0000
1001
1000
,
0100
0000
0100
1000
0001
0100
0010
0001
,
0010
0000
0100
0001
0010
0000
0010
1000
,
0010
0000
0100
0001
0100
1000
0010
0001
,
0010
0000
0100
0001
0010
0000
0100
1000
,
0100
0100
1000
0010
0100
0001
0010
0001
,
0100
0100
0001
0010
0100
1000
0010
0000
,
0100
0001
0010
0000
0100
1000
1010
1000
,
0011
0001
2000
0000
3001
0100
0010
0100
,
1000
0001
0010
0100
0001
0010
0100
0010
,
1000
0001
0100
0100
1000
0010
0100
0010
,
0001
1000
0100
0010
1000
0100
0010
0100
,
0001
1000
0010
0000
0001
0100
0010
0100
,
1000
0001
0010
1000
0100
0010
0100
1000
,
0100
0000
0100
0000
1000
0001
1000
0000
0010
0000
0000
0000
0101
0000
0000
0000
,
0010
1100
0002
0000
,
1003
0000
1000
0100
0000
0100
0010
0000
0001
0100
0000
0000
,
0010
0000
0010
1000
0000
1000
0010
0000
0100
0001
0000
0000
,
0010
0000
0010
0100
0000
0100
0001
0000
0100
1000
0000
0000
,
0010
0000
0010
0100
0000
0100
1000
0000
0100
0001
0000
0000
,
0010
0000
0010
0001
0000
0001
1000
0001
0100
0010
0000
0000
,
1000
0000
1000
0100
0000
0010
0001
0010
0100
1000
0000
0000
,
0010
0000
0100
0010
0000
1000
0001
0010
0001
1000
0000
0100
,
0020
0000
0030
0000
,
0001
1000
0001
0001
0000
0100
0010
0100
0002
0000
0000
1000
0000
0000
0013
0000
,
0001
1000
0100
0100
0000
0010
0100
0010
2000
0000
3000
1000
0010
0000
0001
0000
,
1000
0001
1000
1000
0000
0010
0010
0100
0002
0000
0000
1000
0000
0000
0013
0000
,
0100
0010
0100
0100
0000
1000
0100
0010
0001
0000
0100
0000
0020
0000
0030
0000
,
0100
0001
0010
0000
0100
0010
0001
0000
1000
0001
1000
0010
0000
0010
0100
0000
,
0010
1000
0100
0000
0010
0100
1000
0000
0001
0000
1000
0010
0000
0010
1000
0010
,
0100
0001
1000
0000
0100
0010
1000
0000
0010
0001
1000
0001
0100
0010
0100
0000
,
0010
1000
0010
1000
0010
0100
0010
0100
0001
0000
0011
0000
0200
0000
0300
0000
,
1000
0000
0100
0000
0001
0100
0010
0100
1000
0000
0001
1000
0001
0000
0000
0000
,
0100
0000
0010
0000
0100
0000
1000
0100
0010
0000
0100
0001
0010
0100
2000
0000
,
3001
0000
0100
0000
0010
0000
1000
0000
0000
0000
0001
0010
0001
0000
1000
0010
,
1000
0000
0100
0000
0100
0000
0010
0100
1000
0000
0001
0000
0002
0000
0000
0000
,
0103
0010
0100
0001
0000
1000
0000
0001
,
0010
0100
0010
0001
0000
0001
0010
0100
,
1000
0010
0100
0010
0000
0010
0000
0100
,
0001
0010
0100
1000
0001
0001
0200
0000
,
0310
1000
0010
0100
0000
0100
0000
0100
,
0001
0010
0100
0010
0000
0010
0001
0010
,
0100
1000
0001
0100
0000
0100
0001
0010
,
0200
0300
0000
0000
0000
0000
0000
0000
0000
0000
0000
0000
0000
0000
0000
0000
0000
0000
0000
0000
0000
0000
0000
0000
0000
0000
0000
0000
0000
0000
0000
0000
0000
0000
0000
0000
0000
0000
0000
0000
0000
0000
0000
0000
0000
0000
0000
0000
0100
0000
0000
0000
0000
0000
0000
0000
0000
0000
0000
0000
0000
0000
0000
0000
0000
0000
0000
0000
0000
0000
0000
0000
1000
0000
0000
0000
0000
0000
0000
0000
0000
0000
0000
0000
0000
0000
0000
0000
0000
0000
0000
0000
0000
0000
0000
0000
0100
0000
0000
0000
0000
0000
0000
0000
0000
0000
0000
0000
0000
0000
0000
0000
0000
0000
0000
0000
0000
0000
0000
0000
0010
0000
0000
0000
0000
0000
0000
0000
0000
0000
0000
0000
0000
0000
0000
0000
0000
0000
0000
0000
0000
0000
0000
0000
0001
0000
0000
0000
0000
0000
0000
0000
0000
0000
0000
0000
1000
0000
0000
0000
0000
0000
0000
0000
0000
0000
0000
0000
0001
0000
0000
0000
0000
0000
0000
0000
0000
0000
0000
0000
0000
0000
0000
0000
0000
0000
0000
0000
0000
0000
0000
0000
,
0000
0100
0010
0000
1000
0000
0010
0000
0100
0000
0001
0000
0010
0001
0010
0000
,
1000
0000
0000
0000
0010
0000
0001
0000
1000
0000
0010
0000
0100
0010
0100
0000
,
0000
0000
0000
0000
0000
0000
0000
0000
0000
0000
0000
0000
0001
0000
0000
0000
0000
0000
0000
0000
0000
0000
0000
0000
1000
0000
0000
0000
0000
0000
0000
0000
0000
0000
0000
0000
0000
0000
0000
0000
0000
0000
0000
0000
0000
0000
0000
0000
0100
0000
0000
0000
0000
0000
0000
0000
0000
0000
0000
0000
0000
0000
0000
0000
0000
0000
0000
0000
0000
0000
0000
0000
0010
0000
0000
0000
0000
0000
0000
0000
0000
0000
0000
0000
0100
0000
0000
0000
0000
0000
0000
0000
0000
0000
0000
0000
0010
0000
0000
0000
0000
0000
0000
0000
0000
0000
0000
0000
0000
0000
0000
0000
0000
0000
0000
0000
0000
0000
0000
0000
0001
0000
0000
0000
0000
0000
0000
0000
0000
0000
0000
0000
0000
0000
0000
0000
0000
0000
0000
0000
0000
0000
0000
0000
0200
0300
0000
0000
0000
0000
0000
0000
0000
0000
0000
0000
0000
0000
0000
0000
0000
0000
0000
0000
0000
0000
0000
0000
0000
0000
0000
0000
0000
0000
0000
0000
0000
0000
0000
0000
0000
0000
0000
0000
0000
0000
0000
0000
0000
0000
0000
0000
,
0010
0100
0010
0100
0001
0000
1000
0000
0001
0000
1000
0000
0100
1000
0100
0000
,
1000
0001
1000
0000
0001
0000
0100
0000
0001
0000
0100
0000
0010
0100
0010
0000
,
0001
0000
0000
0000
0010
0000
0100
0000
0001
0000
1000
0000
0001
0100
0001
0000
,
1000
0100
1000
0000
0002
0000
0003
0000
0100
0010
0100
0010
2000
0000
0000
0000
,
3001
0000
0010
0000
0100
0000
0010
0000
0001
1000
0010
0000
1000
0010
1000
0000
,
0001
0000
0100
0000
0010
0000
0100
0000
0001
1000
0100
0000
0010
0001
0010
0000
,
0100
0000
1000
0000
0100
0000
0010
0000
0001
1000
0001
0000
0200
0000
0000
0000
,
0310
0100
0010
0100
0001
0100
0001
0000
2000
0000
0000
0000
3200
0000
0000
0000
,
0310
0000
0100
0000
1000
0100
1000
0000
1000
0100
1000
0000
0001
0000
0000
0000
,
0100
0000
1000
0000
0100
0010
0100
0000
0100
0001
0100
0000
0010
1000
0010
0000
,
0100
0001
0010
0100
0001
0100
1000
0100
,
0020
0000
0000
0030
,
1001
0000
0000
0000
;

//---------------dance-single - Telperion----------------
#NOTES:
     dance-single:
     Telperion:
     Challenge:
     11:
     0.820,0.884,0.108,0.199,0.960,654.000,13.000,24.000,0.000,0.000,0.000,0.000,0.820,0.884,0.108,0.199,0.960,654.000,13.000,24.000,0.000,0.000,0.000,0.000: // measure 1
0000
0000
0000
0000
,  // measure 2
0000
0000
0000
0000
,  // measure 3
0000
0000
0000
0000
,  // measure 4
0000
0000
0000
0000
,  // measure 5
1001
0000
0000
0000
0000
0000
0001
1000
0002
0000
0000
0000
0000
0000
0000
0000
0013
0000
0000
0000
0001
0000
1000
0001
2000
0000
0000
0000
0000
0000
0000
0000
,  // measure 6
3010
0000
0000
0000
0100
0000
0010
1000
0020
0000
0000
0000
0000
0000
0130
0000
0001
0000
0000
0000
1000
0000
0001
1000
0001
0000
0000
0000
0010
0000
0000
0000
,  // measure 7
0200
0000
0000
0000
0310
0000
0100
1000
0200
0000
0000
0000
0310
0000
0100
0000
0010
0000
0000
0000
0001
0000
1000
0001
2000
0000
0000
0000
3010
0000
0100
0000
,  // measure 8
0001
0000
0010
0000
0100
0000
0010
0001
0010
0000
0100
0000
1000
0000
0001
0000
0200
0000
0000
0000
0000
0000
0000
0000
0310
0000
0000
0000
1000
0000
0000
0000
,  // measure 9
0010
1000
0010
0100
0001
0100
0001
0000
0010
0000
0000
0000
0010
0000
0001
0000
,  // measure 10
1000
0001
1000
0010
0100
0010
0100
0000
0001
0000
0000
0000
0001
0000
1000
0000
,  // measure 11
0100
0010
0001
0010
0001
0010
0100
0000
1000
0000
0000
0000
0001
0000
1000
0000
,  // measure 12
0010
0100
0001
1000
0001
1000
0100
0000
0010
0000
0000
0000
0100
0000
1000
0000
,  // measure 13
0001
1000
0001
0100
0010
0100
0001
0000
0100
0000
0010
0000
1000
0000
0001
0000
,  // measure 14
0010
0001
0010
0100
1000
0100
0010
0000
0001
0000
1000
0000
0010
0000
0100
0000
,  // measure 15
0001
0100
0001
1000
0001
1000
0100
0000
0010
0000
0100
0000
1000
0000
1000
0000
,  // measure 16
0001
0000
0001
0000
0200
0000
0000
0000
0310
0000
0100
0000
0001
0000
0010
1000
,  // measure 17
0010
0000
0001
0000
1000
0000
0000
0000
0010
0000
1000
0000
0001
0000
0010
1000
,  // measure 18
0010
0000
0001
0000
0200
0000
0300
0000
0010
0000
0100
0000
0001
0000
0100
1000
,  // measure 19
0100
0000
0001
0000
1000
0000
0000
0000
0100
0000
0010
0000
0001
0000
0100
1000
,  // measure 20
0100
0000
0001
0000
0010
0000
0000
0000
0100
0000
0010
0000
0100
0000
0001
0100
,  // measure 21
1000
0000
0001
0000
1000
0000
0000
0000
0010
0000
0100
0000
0010
0000
0001
0010
,  // measure 22
1000
0000
0001
0000
1000
0100
1000
0000
0100
0000
0010
0000
0001
0000
1000
0010
,  // measure 23
0100
0000
0010
0000
1000
0000
0001
0010
0200
0000
0000
0000
0000
0000
0300
0000
,  // measure 24
0010
0000
0010
0001
0000
0001
1000
0010
0100
0010
1000
0001
,  // measure 25
0010
0000
0000
0000
0000
0000
0000
0000
0000
0000
0000
0000
0000
0000
0000
0000
0000
0000
0000
0000
0000
0000
0000
0000
0000
0000
0000
0000
0000
0000
0000
0000
0010
0000
0000
0000
0000
0000
0000
0000
0000
0000
0000
0000
0000
0000
0000
0000
0100
0000
0000
0000
0000
0000
0000
0000
0000
0000
0000
0000
0000
0000
0000
0000
0000
0000
0000
0000
0000
0000
0000
0000
0000
0000
0000
0000
0000
0000
0000
0000
0100
0000
0000
0000
0000
0000
0000
0000
0000
0000
0000
0000
0000
0000
0000
0000
1000
0000
0000
0000
0000
0000
0000
0000
0000
0000
0000
0100
0000
0000
0000
0000
0000
0000
0000
0000
0000
0000
0010
0000
0000
0000
0000
0000
0000
0000
0000
0000
0001
0000
0000
0000
0000
0000
0000
0000
0000
0000
0000
0000
0000
0000
0000
0000
0010
0000
0000
0000
0000
0000
0000
0000
0000
0000
0000
0000
0000
0000
0000
0000
0000
0000
0000
0000
0000
0000
0000
0000
0000
0000
0000
0000
0000
0000
0000
0000
0000
0000
0000
0000
0000
0000
0000
0000
0000
0000
0000
0000
0000
0000
0000
0000
,  // measure 26
0001
0000
0001
0100
0000
0100
0010
1000
0010
0100
0001
1000
,  // measure 27
0100
0000
0100
0010
0000
0010
0001
0010
0100
1000
0000
0000
,  // measure 28
0001
0000
0100
0010
0000
0010
0001
0010
0100
0001
0010
0100
,  // measure 29
1000
0000
0000
0000
0000
0000
0000
0000
0000
0000
0000
0000
0000
0000
0000
0000
0000
0000
0000
0000
0000
0000
0000
0000
0000
0000
0000
0000
0000
0000
0000
0000
0100
0000
0000
0000
0000
0000
0000
0000
0000
0000
0000
0000
0000
0000
0000
0000
0010
0000
0000
0000
0000
0000
0000
0000
0000
0000
0000
0000
0000
0000
0000
0000
0000
0000
0000
0000
0000
0000
0000
0000
0000
0000
0000
0000
0000
0000
0000
0000
0010
0000
0000
0000
0000
0000
0000
0000
0000
0000
0000
0000
0000
0000
0000
0000
0001
0000
0000
0000
0000
0000
0000
0000
0000
0000
0000
1000
0000
0000
0000
0000
0000
0000
0000
0000
0000
0001
0000
0000
0000
0000
0000
0000
0000
0000
0000
0000
1000
0000
0000
0000
0000
0000
0000
0000
0000
0000
0000
0000
0000
0000
0000
0000
0010
0000
0000
0000
0000
0000
0000
0000
0000
0000
0000
0000
0000
0000
0000
0000
0000
0000
0000
0000
0000
0000
0000
0000
0000
0000
0000
0000
0000
0000
0000
0000
0000
0000
0000
0000
0000
0000
0000
0000
0000
0000
0000
0000
0000
0000
0000
0000
,  // measure 30
0100
0000
0001
0100
0000
1000
0100
0100
0001
0100
0000
1000
,  // measure 31
0200
0000
0300
0000
,  // measure 32
0001
0000
1000
0001
0000
0001
1000
0000
0100
0000
0010
0110
0000
0001
0101
0000
,  // measure 33
1000
0000
0001
1000
0000
1000
0010
0000
0100
0000
0010
1000
0100
0010
0001
0000
,  // measure 34
1000
0000
0100
1000
0000
1000
0001
0000
0100
0010
0100
1001
0000
0000
0011
0000
,  // measure 35
1000
0000
0010
0100
0001
0100
0010
0000
1000
0001
0010
0100
2000
0001
3000
0000
,  // measure 36
1000
0010
0010
0100
0010
0010
1000
0001
0010
0010
0010
0100
0100
0100
1000
0000
,  // measure 37
0001
0100
0100
0010
1000
1000
0010
0100
0001
0001
0001
1000
1000
1000
0200
0000
,  // measure 38
0310
0100
0100
1000
0100
0100
0001
0100
0010
0010
0010
0001
0001
0001
0100
0000
,  // measure 39
0010
0000
0100
0000
0100
0000
1000
0000
0100
0000
0100
0000
0001
0000
0010
0000
0100
0000
0000
0000
0110
0000
0000
0001
1000
0000
0000
0000
0110
0000
0000
0000
,  // measure 40
2001
0000
0000
0000
0010
0000
0000
0000
3200
0000
0000
0000
0000
0000
0000
0000
0310
0000
0100
0000
1000
0000
0001
0000
1000
0000
0100
0000
0010
0000
0010
0100
,  // measure 41
0020
0000
0000
0000
1000
0000
0000
0000
0100
0000
0000
0000
0031
0000
0010
0000
0001
0000
1000
0000
0010
0000
0100
0000
0001
0000
0100
0000
0010
0100
0010
0100
,  // measure 42
0020
0000
0000
0000
0001
0000
0000
0000
2030
0000
0000
0000
0100
0000
0000
0000
3001
0000
0010
0000
0001
0000
1000
0010
1000
0000
0001
0000
0010
0001
0010
0000
,  // measure 43
0200
0000
0000
0000
0001
0000
0000
0000
0010
0000
0000
0000
1300
0000
0100
0000
0010
0000
0000
0000
0001
0100
0001
0000
0010
0000
0100
0000
0020
0000
0000
0000
,  // measure 44
0031
0000
1000
0010
1000
0000
0001
0000
1000
0100
1000
0000
0001
0000
0000
0000
,  // measure 45
1000
0000
0001
0100
0001
0000
1000
0000
0001
0010
0100
0000
0000
0000
0110
0000
,  // measure 46
1001
0000
1000
0010
1000
0000
0100
0000
0010
0100
0010
0000
0001
0000
0000
0000
,  // measure 47
1000
0000
0001
1000
0001
0000
0100
0000
0010
0100
0010
0000
1000
0100
0010
0001
,  // measure 48
1001
0000
0000
0000
0001
0100
0001
0000
0100
0010
0100
0000
0010
1000
0010
0000
,  // measure 49
1000
0000
0000
0000
0001
0010
0001
0000
0010
0100
0010
0000
0000
0000
0011
0000
,  // measure 50
1100
0000
1000
0000
0010
0100
0010
0000
0001
0010
0001
0000
0010
0100
0001
1000
,  // measure 51
0200
0300
0000
0000
0000
0000
0000
0000
0000
0000
0000
0000
0000
0000
0000
0000
0000
0000
0000
0000
0000
0000
0000
0000
0000
0000
0000
0000
0000
0000
0000
0000
0000
0000
0000
0000
0000
0000
0000
0000
0000
0000
0000
0000
0000
0000
0000
0000
1000
0000
0000
0000
0000
0000
0000
0000
0000
0000
0000
0000
0000
0000
0000
0000
0000
0000
0000
0000
0000
0000
0000
0000
0100
0000
0000
0000
0000
0000
0000
0000
0000
0000
0000
0000
0000
0000
0000
0000
0000
0000
0000
0000
0000
0000
0000
0000
0001
0000
0000
0000
0000
0000
0000
0000
0000
0000
0000
0000
0000
0000
0000
0000
0000
0000
0000
0000
0000
0000
0000
0000
1000
0000
0000
0000
0000
0000
0000
0000
0000
0000
0000
0000
0000
0000
0000
0000
0000
0000
0000
0000
0000
0000
0000
0000
0010
0000
0000
0000
0000
0000
0000
0000
0000
0000
0000
0000
0000
0000
0000
0000
0000
0000
0000
0000
0000
0000
0000
0000
0001
0000
0000
0000
0000
0000
0000
0000
0000
0000
0000
0000
0000
0000
0000
0000
0000
0000
0000
0000
0000
0000
0000
0000
,  // measure 52
0100
0010
0001
0010
1000
0001
0100
1000
,  // measure 53
0100
0010
1000
0100
0001
1000
0010
0001
,  // measure 54
1000
0010
0001
1000
0100
0001
0010
0000
,  // measure 55
0100
0010
0100
0010
0001
1000
0001
0000
1000
0010
1000
0000
0010
0100
0010
0000
,  // measure 56
0100
0001
0100
0000
0010
1000
0010
0000
1000
0100
1000
0000
0001
0010
0001
0000
,  // measure 57
0100
0010
0100
0000
0001
1000
0001
0000
0010
0100
1000
0000
0001
1000
0010
0000
,  // measure 58
0100
0001
1000
0000
0200
0000
0000
0000
1300
0100
0010
0001
1000
0100
0010
0001
,  // measure 59
0100
0001
0100
0001
0100
0001
0100
0000
0001
1000
0001
0000
1000
0100
0010
0000
,  // measure 60
0100
1000
0100
1000
0100
1000
0100
0000
1000
0001
0100
0000
0010
0100
0001
0000
,  // measure 61
1000
0001
0100
0001
1000
0100
1000
0000
0001
0010
0001
0000
2000
0000
3000
0000
,  // measure 62
0001
0010
0000
1000
0000
0010
0000
0001
0100
0000
0000
0000
0010
0100
0010
0100
,  // measure 63
0001
1000
0100
0000
0010
0100
1000
0000
1000
0100
1000
0000
0001
1000
0001
0000
,  // measure 64
0100
0001
1000
0000
0100
0010
0001
0000
0001
1000
0001
0000
0100
0001
0100
0000
,  // measure 65
0010
0100
0010
0100
0001
0010
0001
0000
1000
0010
1000
0100
0010
0100
0010
0000
,  // measure 66
0100
1000
0010
0100
0001
0010
0100
0010
0001
1000
0100
0010
0001
0100
0010
0100
,  // measure 67
2000
0000
3000
0000
;

//---------------dance-single - Telperion----------------
#NOTES:
     dance-single:
     Telperion:
     Medium:
     7:
     0.507,0.608,0.141,0.324,0.162,371.000,17.000,39.000,0.000,0.000,0.000,0.000,0.507,0.608,0.141,0.324,0.162,371.000,17.000,39.000,0.000,0.000,0.000,0.000:
0000
0000
0000
0000
,
0000
0000
0000
0000
,
0000
0000
0000
0000
,
0000
0000
0000
0000
,
1002
0023
0000
0230
,
0001
2300
0000
3020
,
0001
2030
0100
3002
,
0013
0001
0100
0010
0002
0000
0013
0200
,
0310
0100
0001
1000
0001
0000
0010
0002
,
0013
0100
1000
0001
1000
0000
0010
2000
,
3010
0100
0001
0100
0010
0000
1000
0002
,
1003
0100
0010
0100
1000
0000
0001
0020
,
0031
1000
0010
0100
0001
0100
0010
2000
,
3100
0010
0001
1000
0010
0000
0101
0000
,
0000
1010
0000
1100
,
1100
0000
1001
0000
0010
0001
0010
0001
,
1000
0001
1000
0001
1000
0010
1000
0010
,
0100
0010
0200
0000
0301
0100
0001
0100
,
0001
1000
0001
1000
0100
1000
0100
1000
,
0100
0010
0200
0000
1300
0001
1000
0100
,
0010
0100
1000
0010
0100
0001
1000
0001
,
0100
0001
0010
0010
0100
0000
0110
0000
,
1001
0000
0000
0000
0000
0000
0000
0000
0000
0000
0000
0000
0000
0000
0000
0000
0000
0000
0000
0000
0000
0000
0000
0000
0000
0000
0000
0000
0000
0000
0000
0000
0000
0000
0000
0000
0000
0000
0000
0000
0000
0000
0000
0000
0000
0000
0000
0000
1000
0000
0000
0000
0000
0000
0000
0000
0000
0000
0000
0000
0000
0000
0000
0000
0000
0000
0000
0000
0000
0000
0000
0000
0010
0000
0000
0000
0000
0000
0000
0000
0000
0000
0000
0000
0000
0000
0000
0000
0000
0000
0000
0000
0000
0000
0000
0000
0002
0003
0000
0000
0000
0000
0000
0000
0000
0000
0000
0000
0000
0000
0000
0000
0000
0000
0000
0000
0000
0000
0000
0000
0000
0000
0000
0000
0000
0000
0000
0000
0000
0000
0000
0000
0000
0000
0000
0000
0000
0000
0000
0000
0000
0000
0000
0000
0000
0000
0000
0000
0000
0000
0000
0000
0000
0000
0000
0000
0000
0000
0000
0000
0000
0000
0000
0000
0000
0000
0000
0000
0000
0000
0000
0000
0000
0000
0000
0000
0000
0000
0000
0000
0000
0000
0000
0000
0000
0000
0000
0000
0000
0000
0000
0000
,
0010
0000
0010
0100
0000
0000
0001
0000
0001
1000
0000
0000
,
0100
0000
0100
0010
0000
0000
0001
0000
0010
0100
0000
0000
,
1000
0000
1000
0001
0000
0000
0100
0000
0100
0001
0000
0000
,
1000
0000
1000
0001
0000
0000
1000
0000
0010
0100
0000
0000
,
0001
0000
0010
0001
0000
0000
1000
0000
0010
1000
0000
0000
,
0001
0000
0100
0001
0000
0000
0010
0000
0100
1000
0000
0000
,
0001
0000
0001
1000
0000
1000
0010
0000
0010
0100
0000
0000
,
0002
0000
0003
0000
,
2000
0000
0000
0000
0000
0000
0000
0000
3001
0000
0000
0110
0000
0000
1010
0000
,
0102
0000
0000
0000
0000
0000
0000
0000
2003
0000
0000
3200
0000
0000
0300
0000
,
0020
0000
0100
0000
0001
0000
0130
0000
1000
0000
0000
1010
0000
0000
0101
0000
,
0020
0001
0100
1030
0010
0001
0200
0300
,
0010
0000
0100
0010
0000
0100
0000
0001
2000
0000
0000
3200
0000
0000
0300
0000
,
0010
0000
0100
0010
0000
0100
0000
1000
0001
0000
0000
0001
0100
0000
0000
0000
,
0010
0100
0010
0000
1000
0001
1000
0000
0100
0000
0000
1000
0000
0000
0100
0000
,
0010
0001
0010
0100
1000
0100
0010
0001
2000
0000
0000
0000
0020
0000
3030
0000
,
0100
0000
0100
0000
0200
0000
0000
0000
0301
0000
0001
1000
0002
0000
0000
0000
,
0013
0000
0010
0000
0010
0000
0020
0000
0100
0030
0010
0100
0010
0000
0001
1000
,
0001
0000
0001
0000
0001
0000
0002
0000
0103
0000
0001
1000
0100
0000
0010
0100
,
1000
0000
1000
0000
1000
0000
1000
0000
0001
0000
1000
0001
2000
0000
3001
0000
,
0110
0000
0000
0000
,
0000
0000
0000
0000
0000
0000
0000
0001
,
1100
0000
0000
0000
,
0000
0000
0000
1000
,
0011
0000
0000
0000
,
0000
0000
0000
0001
,
1010
0010
0100
0001
,
2000
3000
0000
0000
0000
0000
0000
0000
0000
0000
0000
0000
0000
0000
0000
0000
0000
0000
0000
0000
0000
0000
0000
0000
0000
0000
0000
0000
0000
0000
0000
0000
0000
0000
0000
0000
0000
0000
0000
0000
0000
0000
0000
0000
0000
0000
0000
0000
0001
0000
0000
0000
0000
0000
0000
0000
0000
0000
0000
0000
0000
0000
0000
0000
0000
0000
0000
0000
0000
0000
0000
0000
0010
0000
0000
0000
0000
0000
0000
0000
0000
0000
0000
0000
0000
0000
0000
0000
0000
0000
0000
0000
0000
0000
0000
0000
0001
0000
0000
0000
0000
0000
0000
0000
0000
0000
0000
0000
0000
0000
0000
0000
0000
0000
0000
0000
0000
0000
0000
0000
0000
0000
0000
0000
0000
0000
0000
0000
0000
0000
0000
0000
0000
0000
0000
0000
0000
0000
0000
0000
0000
0000
0000
0000
0010
0000
0000
0000
0000
0000
0000
0000
0000
0000
0000
0000
0000
0000
0000
0000
0000
0000
0000
0000
0000
0000
0000
0000
0001
0000
0000
0000
0000
0000
0000
0000
0000
0000
0000
0000
0000
0000
0000
0000
0000
0000
0000
0000
0000
0000
0000
0000
,
0010
0000
0001
0010
0001
0000
1000
0001
,
0100
0000
0010
1000
0010
0000
1000
0010
,
1000
0000
0010
1000
0001
0100
0010
0000
,
0020
0000
1030
1000
0000
0100
0100
0000
,
1000
0001
1000
1000
0000
0010
0010
0000
,
0100
0001
0100
0100
0000
0010
0010
0000
,
1000
0001
0020
0000
0130
1000
0100
0010
,
0001
0100
0001
0100
0010
0100
0001
0010
,
0100
1000
0100
1000
0001
1000
0010
0100
,
0001
1000
0001
1000
0100
0010
0001
1000
,
0100
0100
0010
0010
0001
0000
0002
0000
,
1003
1000
0010
1000
0001
0010
0100
0010
,
0001
0001
1000
0001
0010
0100
1000
0001
,
0100
0010
0100
1000
0100
0010
0100
0001
,
0010
1000
0010
0001
0100
0010
0001
0010
,
2000
0000
3000
0000
;

//---------------dance-single - Telperion----------------
#NOTES:
     dance-single:
     Telperion:
     Easy:
     4:
     0.312,0.384,0.083,0.208,0.025,228.000,10.000,25.000,0.000,0.000,0.000,0.000,0.312,0.384,0.083,0.208,0.025,228.000,10.000,25.000,0.000,0.000,0.000,0.000:
0000
0000
0000
0000
,
0000
0000
0000
0000
,
0000
0000
0000
0000
,
0000
0000
0000
0000
,
1001
0200
0300
0200
,
0300
0020
0030
0020
,
0032
1003
2000
3010
,
0020
0130
0002
2003
,
3000
0100
1000
0002
,
0003
0100
0010
0200
,
0300
0001
0100
0020
,
0030
1000
0100
0020
,
0030
0100
0010
0002
,
0003
1000
0001
0100
,
0010
0100
1000
0100
,
0001
1001
0001
0000
,
0010
0000
0001
1000
0001
0000
0000
0000
,
0100
1000
0100
0000
,
0010
0000
1000
0001
1000
0000
0000
0000
,
0100
0010
0001
0000
,
1000
0000
0001
1000
0001
0000
0000
0000
,
0010
0000
0001
0100
0010
0000
0100
0000
,
1000
0100
0002
0000
,
1003
1000
0001
0001
,
0010
0001
1000
1010
,
0100
0100
0010
0010
,
1000
0001
0010
0011
,
0100
0100
0010
0010
,
0001
0100
0010
1010
,
0001
1000
0001
0011
,
0200
0000
0000
0000
,
0310
0000
0000
0000
0000
0000
0000
0000
0001
0000
0000
0001
0000
0000
0001
0000
,
0100
0000
0000
0000
0000
0000
0000
0000
1000
0000
0000
1000
0000
0000
1000
0000
,
0010
0000
0000
0000
0000
0000
0000
0000
0001
0000
0000
0001
0000
0000
0001
0000
,
1000
0000
0100
0100
,
0010
0000
0100
0000
1000
0000
0001
0000
0100
0000
0000
0100
0001
0000
0000
0000
,
0010
0000
0001
0000
0100
0000
0001
0000
1000
0000
0000
1000
0100
0000
0000
0000
,
0010
0000
0100
0000
1000
0000
0001
0000
0100
0000
0000
0100
0010
0000
0000
0000
,
0100
0010
0100
1000
0100
0001
2000
3000
,
0100
0100
0200
0000
0000
0000
0300
0100
,
0010
0010
0010
0001
0020
0000
0000
0000
,
0031
0001
0001
0002
1000
0000
0000
0103
,
0010
0010
0100
0100
0001
0001
2000
3000
,
0110
0000
0000
0000
,
0000
0000
0000
0000
0000
0000
0000
0001
,
1000
0000
0000
0000
,
0000
0000
0000
1000
,
0110
0000
0000
0000
,
0000
0000
0000
0001
,
0110
0000
0000
0000
,
0200
0310
0100
0001
,
0100
0010
0100
1000
,
0100
0001
0010
0100
,
0010
0001
0010
2000
,
3000
0010
0001
0100
,
0010
1000
0010
0100
,
0001
1000
0100
0010
,
0001
0020
1030
0010
,
0001
0100
0010
0100
,
1000
0001
0010
0100
,
0001
0010
0100
0010
,
1000
0001
0200
0300
,
0010
0010
0010
0010
,
0100
0100
0100
0100
,
1000
1000
0001
0001
,
0100
0010
0001
0010
,
1001
0000
0000
0000
;
