#TITLE:Illuminati;
#SUBTITLE:-Hikari wo Motomeru Monotachi-;
#ARTIST:Dear Breeze Studio;
#TITLETRANSLIT:;
#SUBTITLETRANSLIT:;
#ARTISTTRANSLIT:;
#GENRE:;
#CREDIT:;
#MENUCOLOR:;
#METERTYPE:DDR;
#BANNER:Illuminati -Hikari wo Motomeru Monotachi-.png;
#BACKGROUND:Illuminati -Hikari wo Motomeru Monotachi--bg.png;
#LYRICSPATH:;
#CDTITLE:;
#MUSIC:Illuminati -Hikari wo Motomeru Monotachi-.mp3;
#OFFSET:0.306;
#SAMPLESTART:22.860;
#SAMPLELENGTH:16.000;
#SELECTABLE:YES;
#LISTSORT:;
#BPMS:0.000=135.000,52.000=130.000,188.000=65.000,191.000=80.000,210.500=130.000;
#STOPS:113.500=0.462
;
#BGCHANGES:;
#ATTACKS:;

//---------------dance-single - ----------------
#NOTES:
     dance-single:
     :
     Hard:
     9:
     0.630,0.700,0.432,0.211,0.464: // measure 1
0000
0000
0000
0000
,  // measure 2
0001
0100
0010
0100
0000
0001
0010
0100
,  // measure 3
0010
0001
0000
0010
0100
1000
0010
1000
,  // measure 4
0000
0001
0100
0010
1000
0100
0000
1000
,  // measure 5
0100
0010
0100
0010
0000
0001
0100
1000
,  // measure 6
0100
0001
0000
1000
0100
0010
0100
1000
,  // measure 7
0000
0010
0100
0001
0010
0100
0010
0001
,  // measure 8
0100
0000
0010
1000
0000
0001
0100
0010
,  // measure 9
1000
0100
0010
0100
1000
0000
0001
0010
,  // measure 10
0000
0100
0010
0001
0000
0010
0000
0100
,  // measure 11
1000
0000
0010
0100
0010
0000
0100
0000
0000
0000
0001
0000
0010
0000
0001
0000
,  // measure 12
0100
0010
0000
0100
0110
0000
1001
0000
,  // measure 13
1010
0000
0000
0000
0101
0000
0001
0010
0100
0010
0001
0010
0100
1000
0100
0010
,  // measure 14
0100
0000
0000
0010
0100
0000
1000
0000
0010
0000
0000
0000
0100
0000
0001
0000
,  // measure 15
0010
0000
0000
0100
1000
0000
0010
0000
0100
0000
0000
0000
0001
0000
0010
0000
,  // measure 16
0110
0000
0000
0100
1000
0000
0010
0000
0100
0001
0100
0001
0100
0000
0010
0000
,  // measure 17
1010
0000
0000
1000
0100
0000
0110
0000
0010
0001
0010
0001
0010
0000
0001
0000
,  // measure 18
1001
0000
0000
1000
0010
0000
0100
0000
0001
0000
0010
0000
0100
0000
0000
0000
,  // measure 19
0010
0000
0000
0001
0100
0000
0010
0000
1000
0000
0100
0000
0010
0000
0000
0000
,  // measure 20
1100
0000
0000
1001
0000
0000
0101
0000
0000
0000
0010
1000
0010
0000
0100
0000
,  // measure 21
0110
0000
0000
1100
0000
0000
1010
0000
0000
0000
0010
0100
0010
0000
1000
0000
,  // measure 22
1100
0100
0010
0001
0100
1000
0100
0001
,  // measure 23
1000
0010
1000
0000
0100
0010
0000
0100
1000
0000
1000
0100
0000
0010
0001
0000
,  // measure 24
0101
0100
1000
0100
0001
1000
0100
0010
,  // measure 25
0100
1000
0100
1000
0000
0000
0001
0100
0001
0000
1000
0100
0010
0001
0010
0100
,  // measure 26
2000
0001
3002
0100
0203
0010
0320
1000
,  // measure 27
2030
0100
3200
0010
0320
0001
0032
0100
,  // measure 28
0203
0000
0001
0000
0301
0010
0001
0010
0100
0010
0100
0010
0100
1000
0100
1000
,  // measure 29
0001
0000
0000
1010
0000
0000
0101
0000
0000
0000
1001
0000
1000
0010
1000
0000
,  // measure 30
0100
0000
0010
0100
0010
0000
0001
0000
1000
0100
1000
0000
0100
0000
0010
0100
,  // measure 31
0010
0000
0001
0000
0101
0000
0100
0000
0010
0000
0000
0000
0100
0001
0100
0000
,  // measure 32
0010
0000
1000
0100
1000
0000
0010
0000
0100
0001
0000
0000
1000
0000
0001
0000
,  // measure 33
0100
0000
0000
0010
0000
0000
0000
0000
0000
1000
0000
0000
0100
0000
0000
0000
0000
0000
0010
0000
0000
0100
0000
0000
0000
0000
0000
0010
0000
0000
0001
0000
0000
0000
0000
0000
1000
0000
0000
0000
0100
0000
0000
0000
0010
0000
0000
0000
,  // measure 34
0100
0000
0000
0000
0010
0000
0000
0000
0001
0000
0000
0000
0010
0000
0000
0000
0100
0000
0000
0000
0010
0000
0000
0000
0001
0000
0000
0000
0000
0000
0000
0000
0000
0000
0000
0000
1000
0000
0000
0000
0000
0000
0010
0000
0000
0100
0000
0000
,  // measure 35
0000
0001
0010
0000
0001
0100
0001
0100
0010
1000
0010
0000
1000
0100
0000
0010
,  // measure 36
0100
0000
1000
0010
0000
0100
0001
0000
0100
0010
0100
0000
0001
0010
0000
0100
,  // measure 37
0010
0000
0001
0100
0000
0010
1000
0000
0100
1000
0100
0000
1100
0000
0000
1001
,  // measure 38
0000
0000
0001
0000
0100
0000
0010
0000
0100
0010
0000
0000
0101
0000
0000
1001
,  // measure 39
0000
0000
0001
0000
0010
0000
0100
0000
1000
0100
0000
0000
1001
0000
0000
0011
,  // measure 40
0000
0000
0001
0000
1000
0000
0010
0000
1000
0010
0000
0000
0100
0000
0110
0000
,  // measure 41
0000
0000
1001
0000
0000
0000
0011
0000
0001
0000
0100
0000
0101
0000
0000
1001
,  // measure 42
0000
0000
1000
0000
0010
0000
0100
0010
0000
0100
0001
0000
0011
0000
0000
1001
,  // measure 43
0000
0000
0001
0000
0100
0000
0010
1000
0000
0100
0010
0000
0110
0000
0000
1010
,  // measure 44
0000
0000
0001
0000
1000
0000
0100
0010
0000
0010
0001
0000
1000
0000
1001
0000
,  // measure 45
0001
0000
0101
0000
0100
0000
0110
0000
0010
0000
1000
0000
0001
0100
0000
0010
,  // measure 46
1000
0000
0100
0010
0000
0100
1000
0000
0010
1000
0010
0000
1100
0000
0000
0110
,  // measure 47
0000
0000
0012
0000
0100
0000
0000
0100
0003
0000
2002
0000
0000
0000
0000
0000
,  // measure 48
0000
0000
0000
0000
0000
0000
0000
0000
0000
0000
0000
0003
3020
0000
0000
0000
,  // measure 49
0230
0000
0301
0010
0200
0000
0310
0001
,  // measure 50
2000
3020
0230
0320
,  // measure 51
0000
1030
0000
0000
0000
0000
0000
2010
0000
0000
0000
0000
0000
0000
3010
0100
,  // measure 52
0000
0002
0000
0000
0000
2003
0002
0000
0000
0000
0000
0000
0000
0000
0000
0000
,  // measure 53
0000
0000
0000
0000
,  // measure 54
3000
0000
1003
0100
0010
0001
0010
0100
1000
0000
0001
0000
1000
0000
1010
0000
,  // measure 55
0000
0110
0000
0000
1100
0000
1001
0000
0000
0000
0000
0000
0000
0000
0000
0000
;

//---------------dance-single - ----------------
#NOTES:
     dance-single:
     :
     Medium:
     6:
     0.432,0.425,0.211,0.248,0.161: // measure 1
0000
0000
0000
0000
,  // measure 2
0100
0000
0010
0100
0000
0001
0010
0000
,  // measure 3
0100
0010
0000
0001
0100
0000
0010
1000
,  // measure 4
0000
0001
1000
0000
0100
0010
0000
0100
,  // measure 5
1000
0000
0010
0100
0000
0001
0010
0000
,  // measure 6
0100
0010
0000
0001
0100
0000
0010
0100
,  // measure 7
0000
0010
1000
0100
1000
0100
0010
0100
,  // measure 8
0010
0000
0001
0100
0000
0010
0100
0000
,  // measure 9
0001
0010
0001
0000
0010
0000
0100
1000
,  // measure 10
0000
0010
0100
0001
0000
0010
0100
0000
,  // measure 11
0010
0001
0100
0001
0000
0010
0100
1000
,  // measure 12
0000
0001
0010
0000
0110
0000
0011
0000
,  // measure 13
1001
0000
1010
0000
1000
0100
0010
0001
,  // measure 14
0100
0000
0000
0010
0000
0000
1000
0000
0000
0000
0100
0000
0010
0000
0000
0000
,  // measure 15
0001
0000
0000
0100
0000
0000
0010
0000
0000
0000
1000
0000
0100
0000
0000
0000
,  // measure 16
0010
0000
0000
0001
0000
0000
0100
0000
0010
0000
0100
0000
0001
0000
0000
0000
,  // measure 17
0110
0000
0000
0010
0000
0000
1010
0000
0000
0000
1000
0000
0100
0000
0010
0000
,  // measure 18
0001
0000
0000
0100
0000
0000
0010
0000
0000
0000
1000
0000
0100
0000
0000
0000
,  // measure 19
0010
0000
0000
0100
0000
0000
1000
0000
0000
0000
0001
0000
0100
0000
0000
0000
,  // measure 20
0110
0000
0000
0010
0000
0000
1010
0000
0000
0000
1000
0000
0100
0000
0000
0000
,  // measure 21
1001
0000
0000
0001
0000
0000
0011
0000
0000
0000
0010
0000
0100
0000
0000
0000
,  // measure 22
0010
0100
1000
0000
0001
0010
0100
0000
,  // measure 23
0010
0000
0100
0000
0000
1000
0000
0000
0100
0000
0000
0010
0000
0000
0001
0000
,  // measure 24
0100
0010
1000
0000
0100
0010
0001
0000
,  // measure 25
1000
0010
0000
0100
0010
0000
1000
0010
,  // measure 26
0200
0320
2030
3002
,  // measure 27
0023
0230
0320
0032
,  // measure 28
0203
0000
0301
0010
0100
1000
0100
0010
,  // measure 29
0001
0000
0000
1001
0000
0000
0011
0000
0000
0000
1000
0000
0002
0000
0000
0000
,  // measure 30
0103
0020
0000
1030
0200
0000
0310
0002
,  // measure 31
0000
0103
0110
0000
0100
0000
0001
0010
,  // measure 32
0100
1000
0100
0010
0001
0000
1000
0010
,  // measure 33
0000
0000
0000
0100
0000
0000
0000
0000
0000
0000
0000
0000
0001
0000
0000
0000
0000
0000
0000
0000
0000
0010
0000
0000
0000
0000
0000
0000
0000
0000
0100
0000
0000
0000
0000
0000
1000
0000
0000
0000
0000
0000
0000
0000
1000
0000
0000
0000
,  // measure 34
0001
0000
0000
0000
0001
0000
0100
0000
0000
0000
0100
0000
0010
0000
0000
0000
0000
0000
1000
0000
0000
0001
0000
0000
,  // measure 35
0000
0100
0000
0000
0001
0000
0010
0000
0100
0000
1000
0000
0010
0000
0000
0100
,  // measure 36
0000
0000
0001
0000
0000
0010
0000
0000
0100
0000
1000
0000
0010
0000
0000
0100
,  // measure 37
0000
0000
0001
0000
0000
0010
0000
0000
0100
0000
0010
0000
0001
0000
0000
1000
,  // measure 38
0000
0000
0010
0000
0000
0000
0100
0000
0001
0000
0000
0000
0010
0000
0000
0100
,  // measure 39
0000
0000
1000
0000
0000
0000
0010
0000
0100
0000
0000
0000
0001
0000
0000
0010
,  // measure 40
0000
0100
0000
0010
0001
0000
0100
0101
,  // measure 41
0000
0000
1001
0000
0000
0000
1010
0000
0000
0000
0010
0000
0100
0000
0000
0010
,  // measure 42
0000
0000
1000
0000
0000
0000
0100
0000
0010
0000
0100
0000
1000
0000
0000
0001
,  // measure 43
0000
0000
0100
0000
0000
0000
0010
0000
0100
0000
0001
0000
0010
0000
0000
0100
,  // measure 44
0000
0010
0000
0001
0100
0010
0100
0110
,  // measure 45
0000
0000
0101
0000
0000
0000
1001
0000
0000
0000
1000
0000
0010
0000
0000
0100
,  // measure 46
0000
0000
0001
0000
0000
0010
0000
0000
0100
0000
0000
0000
1100
0000
0000
1010
,  // measure 47
0000
2002
0000
0003
0000
0020
0000
0000
,  // measure 48
0000
0000
0000
0000
0000
3000
2030
0000
,  // measure 49
3020
0000
0130
0001
0020
0000
0130
0010
,  // measure 50
0200
2300
3002
0203
,  // measure 51
0000
0310
0000
0000
0000
0000
0000
0210
0000
0000
0000
0000
0000
0000
0302
0000
,  // measure 52
0000
0203
0000
0000
0000
0020
0000
0000
0000
0000
0000
0000
0000
0000
0000
0000
,  // measure 53
0000
0000
0000
0000
0000
0000
0000
0300
,  // measure 54
0000
1030
0100
0010
0001
0010
0100
1000
,  // measure 55
0000
0001
0000
0000
0100
0000
0010
0000
0000
0000
0000
0000
0000
0000
0000
0000
;

//---------------dance-single - ----------------
#NOTES:
     dance-single:
     :
     Easy:
     4:
     0.276,0.425,0.165,0.248,0.023: // measure 1
0000
0000
0000
0000
,  // measure 2
0001
0000
0000
0100
0000
0000
0010
0000
,  // measure 3
0000
1000
0000
0000
0100
0000
0000
0010
,  // measure 4
0000
0000
0100
0000
0000
0010
0000
0000
,  // measure 5
0001
0000
0000
0100
0000
0000
0010
0000
,  // measure 6
0000
1000
0000
0000
0001
0000
0000
0100
,  // measure 7
0000
0000
0010
0000
0000
1000
0000
0000
,  // measure 8
0001
0000
0000
0100
0000
0000
0000
0010
,  // measure 9
0000
0100
0000
0000
0001
0000
0000
1000
,  // measure 10
0000
0000
0000
0010
0000
0100
0000
0000
,  // measure 11
0001
0000
0000
0010
0000
0000
0000
0100
,  // measure 12
0000
0010
0000
0000
0011
0000
0110
0000
,  // measure 13
1100
0110
0001
1000
,  // measure 14
0010
0000
0000
0100
0000
0000
0010
0000
,  // measure 15
0100
0000
0000
0001
0000
0000
0010
0000
,  // measure 16
0100
0000
0000
0010
0000
0000
0001
0000
,  // measure 17
0100
0010
1000
0100
,  // measure 18
1000
0000
0000
0001
0000
0000
0100
0000
,  // measure 19
0010
0000
0000
0100
0000
0000
0001
0000
,  // measure 20
0010
0000
0000
0100
0000
0000
0010
0000
,  // measure 21
0001
0000
0000
1000
0000
0000
0010
0000
,  // measure 22
0100
0001
0010
0100
,  // measure 23
0010
0000
0000
0001
0000
0000
1000
0000
,  // measure 24
0010
0100
0001
0010
,  // measure 25
0110
0000
0000
1001
0000
0000
0001
0000
,  // measure 26
2000
3200
0320
0032
,  // measure 27
0023
0230
2300
3200
,  // measure 28
0320
0032
2003
3001
,  // measure 29
1001
0000
0000
1010
0000
0010
0200
0000
,  // measure 30
0000
0302
0000
0000
0023
0000
0000
0130
,  // measure 31
0000
1100
1000
0001
,  // measure 32
0010
0100
0010
0001
,  // measure 33
0000
1000
0000
0000
0010
0000
0100
0000
,  // measure 34
0001
0010
0100
0010
,  // measure 35
0000
0001
0000
0000
0100
0000
0010
0000
,  // measure 36
0000
0100
0000
0000
0001
0000
1000
0000
,  // measure 37
0000
0010
0000
0000
0100
0000
0001
0000
,  // measure 38
0000
1000
0000
0000
0010
0000
0100
0000
,  // measure 39
0000
0001
0000
0000
0010
0000
0100
0000
,  // measure 40
0000
0010
0000
0000
0001
0000
0000
0101
,  // measure 41
0000
0110
0000
1010
0000
0000
0001
0000
,  // measure 42
0000
1000
0000
0000
0010
0000
0100
0000
,  // measure 43
0000
0001
0000
0000
0010
0000
0100
0000
,  // measure 44
0000
0010
0000
0000
0001
0000
0000
0011
,  // measure 45
0000
1001
0000
1100
0000
0000
0010
0000
,  // measure 46
0000
0100
0000
0000
0001
0000
1001
0000
,  // measure 47
0000
2100
0000
0000
0000
0020
0000
0000
,  // measure 48
0000
0000
0000
0000
0000
3000
2030
0000
,  // measure 49
3020
0130
0020
0130
,  // measure 50
0002
0023
0230
0320
,  // measure 51
0000
0031
0000
0000
0000
0000
0000
2001
0000
0000
0000
0000
0000
0000
3020
0000
,  // measure 52
0000
0200
0030
0000
0000
0002
0000
0000
0000
0000
0000
0000
0000
0000
0000
0000
,  // measure 53
0000
0000
0000
0000
0000
0000
0000
0300
,  // measure 54
0000
0013
0000
0100
0000
1000
0000
0001
,  // measure 55
0000
1000
0000
0000
0001
0000
1000
0000
0000
0000
0000
0000
0000
0000
0000
0000
;
